<?xml version="1.0" standalone="no"?>
<!DOCTYPE svg PUBLIC "-//W3C//DTD SVG 1.1//EN" "http://www.w3.org/Graphics/SVG/1.1/DTD/svg11.dtd" >
<svg xmlns="http://www.w3.org/2000/svg" xmlns:xlink="http://www.w3.org/1999/xlink" version="1.1">
<metadata>
Created by FontForge 20170731 at Wed Dec 13 18:56:53 2017
 By ,,,
Copyright (c)2017 HK CartaTM by Alfredo Marco Pradil
</metadata>
<defs>
<font id="HKCarta-Bold" horiz-adv-x="0" >
  <font-face 
    font-family="HK Carta"
    font-weight="700"
    font-stretch="normal"
    units-per-em="2048"
    panose-1="0 0 8 0 0 0 0 0 0 0"
    ascent="1393"
    descent="-655"
    x-height="883"
    cap-height="1355"
    bbox="-1195 -635 2428 1819"
    underline-thickness="50"
    underline-position="-200"
    unicode-range="U+0020-FB02"
  />
<missing-glyph horiz-adv-x="1024" 
d="M138 0v1352h748v-1352h-748zM209 73h606v1206h-606v-1206z" />
    <glyph glyph-name="fi" unicode="fi" horiz-adv-x="1251" 
d="M1171 95h49v-95h-1174v95h66q73 0 93.5 28.5t20.5 93.5v571h-180v95h180v124q0 96 35 170.5t96 119.5t139 68t169 23q393 0 401 -216q1 -51 -34 -88t-84 -37q-30 0 -51 7t-33 24t-18 30t-13 39t-11 37q-31 106 -154 106q-105 0 -144 -62t-39 -180v-165h594v-666
q0 -62 18 -92t74 -30zM714 95q64 0 84.5 26t20.5 96v571h-334v-571q0 -31 3 -49.5t13.5 -37t34.5 -27t63 -8.5h115z" />
    <glyph glyph-name="fl" unicode="fl" horiz-adv-x="1263" 
d="M46 0v95h66q73 0 93.5 28.5t20.5 93.5v571h-180v95h180v124q0 96 35 170.5t96 119.5t139 68t169 23q138 0 217 -50l201 55v-1176q0 -62 18 -92t74 -30h50v-95h-1179zM599 95h120q64 0 85 26t21 96v831q0 48 -2.5 80t-12 65.5t-26 52.5t-46.5 31.5t-73 12.5
q-103 0 -141.5 -62t-38.5 -180v-165h215v-95h-215v-571q0 -31 3 -49.5t13.5 -37t34.5 -27t63 -8.5z" />
    <glyph glyph-name="f_f" unicode="ff" horiz-adv-x="1332" 
d="M1239 1388q55 0 106 -11.5t96.5 -36t73.5 -68t31 -100.5q0 -51 -35 -88t-84 -37q-45 -1 -80 31t-43 83q-21 129 -109 129q-119 0 -119 -242v-165h214v-95h-214v-571q0 -32 3 -50t13.5 -37t34 -27t62.5 -8h101v-95h-1244v95h66q73 0 93.5 28.5t20.5 93.5v571h-180v95h180
v124q0 96 34.5 170.5t94.5 119.5t134.5 68t159.5 23q84 0 159 -27.5t114 -84.5q116 112 317 112zM817 883v124q0 15 2 41q-40 6 -69 37t-36 76q-22 129 -110 129q-119 0 -119 -242v-165h332zM817 217v571h-332v-571q0 -31 3 -49.5t13.5 -37t34.5 -27t63 -8.5h104q72 0 93 29
t21 93z" />
    <glyph glyph-name="f_f_i" unicode="ffi" horiz-adv-x="1841" 
d="M1761 95h50v-95h-1765v95h66q73 0 93.5 28.5t20.5 93.5v571h-180v95h180v124q0 96 34.5 170.5t94.5 119.5t134.5 68t159.5 23t160 -27.5t114 -85.5q119 113 332 113q393 0 402 -216q1 -51 -34.5 -88t-83.5 -37q-30 0 -51 7t-33.5 24t-18.5 29.5t-13 39.5t-11 37
q-29 106 -154 106q-105 0 -143.5 -61.5t-38.5 -180.5v-165h593v-666q0 -62 18 -92t74 -30zM817 883v124q0 15 2 41q-40 6 -69 37t-36 76q-22 129 -110 129q-119 0 -119 -242v-165h332zM817 217v571h-332v-571q0 -31 3 -49.5t13.5 -37t34.5 -27t63 -8.5h104q72 0 93 29t21 93
zM1305 95q64 0 84 26t20 96v571h-333v-571q0 -32 3 -50t13.5 -37t34 -27t62.5 -8h116z" />
    <glyph glyph-name="f_f_l" unicode="ffl" horiz-adv-x="1853" 
d="M1766 95h49v-95h-1769v95h66q73 0 93.5 28.5t20.5 93.5v571h-180v95h180v124q0 96 34.5 170.5t94.5 119.5t134.5 68t159.5 23t160 -27.5t114 -85.5q119 113 332 113q138 0 217 -50l202 55v-1176q0 -62 18 -92t74 -30zM817 883v124q0 15 2 41q-40 6 -69 37t-36 76
q-22 129 -110 129q-119 0 -119 -242v-165h332zM1415 217v831q0 48 -2.5 80t-12 65.5t-26 52.5t-46.5 31.5t-73 12.5q-103 0 -141 -62t-38 -180v-165h214v-95h-214v-571q0 -32 3 -50t13.5 -37t34 -27t62.5 -8h120q64 0 85 26t21 96zM817 217v571h-332v-571q0 -31 3 -49.5
t13.5 -37t34.5 -27t63 -8.5h104q72 0 93 29t21 93z" />
    <glyph glyph-name=".notdef" horiz-adv-x="1024" 
d="M138 0v1352h748v-1352h-748zM209 73h606v1206h-606v-1206z" />
    <glyph glyph-name=".null" 
 />
    <glyph glyph-name="nonmarkingreturn" horiz-adv-x="682" 
 />
    <glyph glyph-name="space" unicode=" " horiz-adv-x="496" 
 />
    <glyph glyph-name="exclam" unicode="!" horiz-adv-x="581" 
d="M244 446l-69 649q-12 124 -12 159q0 18 1 30.5t8 32t19.5 32t38 21.5t60.5 9t60 -9t37.5 -21.5t19.5 -31.5t8.5 -32t1.5 -31q0 -29 -15 -143l-65 -665h-93zM291 -33q-64 0 -110.5 46.5t-46.5 113.5q0 66 46 112t111 46t110.5 -46t45.5 -112q0 -67 -45.5 -113.5
t-110.5 -46.5z" />
    <glyph glyph-name="quotedbl" unicode="&#x22;" horiz-adv-x="928" 
d="M215 714l-81 413q-16 80 -16 127q0 54 34.5 89.5t84.5 35.5q54 0 87.5 -36t33.5 -86q0 -19 -4 -46t-9 -53t-6 -31l-76 -413h-48zM669 714l-81 413q-16 72 -16 127q0 54 34.5 89.5t84.5 35.5q54 0 87.5 -36t33.5 -86q0 -19 -4 -46t-9 -53t-6 -31l-77 -413h-47z" />
    <glyph glyph-name="numbersign" unicode="#" horiz-adv-x="1400" 
d="M202 -41l83 395h-191v157h223l70 334h-293v157h323l85 395h156l-85 -395h388l84 395h156l-84 -395h187v-157h-216l-69 -334h285v-157h-317l-85 -395h-156l85 395h-390l-84 -395h-155zM473 511h390l67 334h-387z" />
    <glyph glyph-name="dollar" unicode="$" horiz-adv-x="1139" 
d="M676 814q56 -25 98 -47t87.5 -51.5t77 -62.5t57.5 -73t39 -90t13 -108q0 -95 -38 -174.5t-99.5 -129.5t-136 -77.5t-150.5 -27.5q-80 0 -156 19l-31 -154h-73l35 177q-145 58 -277 210v195q0 31 14 49t37 18q49 0 63 -59q46 -209 187 -296l86 436q-68 33 -113 57
t-92.5 55t-76.5 61.5t-53.5 68.5t-35 84t-10.5 101q0 108 56 197.5t146 138t191 48.5q84 0 147 -15l22 109h73l-26 -130q40 -16 79 -42t64 -48t66 -61v-168q0 -32 -12.5 -50t-35.5 -18q-46 0 -64 60q-37 127 -123 196l-76 -380zM345 1098q0 -83 48.5 -130t174.5 -106l78 390
q-52 24 -105 24q-97 0 -146.5 -56t-49.5 -122zM597 84q93 0 153 59.5t60 146.5q0 76 -52.5 132.5t-166.5 106.5l-7 3.5t-8 3.5l-87 -435q51 -17 108 -17z" />
    <glyph glyph-name="percent" unicode="%" horiz-adv-x="1752" 
d="M380 669q-73 0 -130.5 25t-90.5 63t-55 87t-29.5 91.5t-7.5 82.5q0 167 82 264t227 97q81 0 142.5 -28.5t93.5 -68.5t52 -93t25 -91.5t5 -74.5q0 -48 -9.5 -95t-33 -94.5t-58.5 -83.5t-90 -58.5t-123 -22.5zM481 0l692 1352h124l-694 -1352h-122zM383 733q103 0 103 259
q0 102 -8 168.5t-24 99t-34 44t-44 11.5q-57 0 -79 -66t-22 -222q0 -67 3.5 -112t13.5 -90.5t33 -68.5t58 -23zM1370 -27q-73 0 -130 25t-90.5 63t-55.5 87t-29.5 91.5t-7.5 82.5q0 167 82.5 263.5t227.5 96.5q68 0 122.5 -19t87.5 -52t56 -70t33.5 -80t14.5 -74.5t4 -60.5
q0 -48 -9.5 -95t-33 -94.5t-58.5 -83t-90.5 -58t-123.5 -22.5zM1374 36q103 0 103 260q0 102 -8 168.5t-24 99t-34 44t-44 11.5q-57 0 -79.5 -66t-22.5 -222q0 -66 3.5 -112t14 -91.5t33.5 -68.5t58 -23z" />
    <glyph glyph-name="ampersand" unicode="&#x26;" horiz-adv-x="1561" 
d="M459 -27q-168 0 -283.5 102.5t-115.5 246.5q0 70 27 132.5t78 114.5t109.5 93t134.5 81q-35 47 -51.5 72t-38 64t-30 75.5t-8.5 77.5q0 135 89 211.5t234 76.5q138 0 218.5 -66t80.5 -174q0 -181 -222 -301q186 -223 293 -379q59 82 109 174t60 155q3 29 -12.5 45.5
t-50.5 16.5h-51v92h424v-92h-42q-17 0 -33 -5t-28 -10.5t-26.5 -20.5t-23 -24t-24 -33.5t-23 -36.5t-26 -44.5t-27.5 -47.5q-85 -159 -163 -255q75 -109 117.5 -149t98.5 -40q122 0 133 170h96q0 -74 -20 -132t-51.5 -92.5t-73.5 -57t-82.5 -30.5t-82.5 -8q-43 0 -80 9.5
t-63 22t-56.5 38.5t-48.5 45t-51 56q-42 -38 -94 -72.5t-142 -67.5t-178 -33zM613 867q147 95 147 223q0 60 -40 97.5t-111 37.5q-66 0 -101.5 -33.5t-31.5 -86.5q7 -99 137 -238zM581 125q118 0 220 99q-124 182 -331 430q-93 -53 -136.5 -102t-43.5 -120q0 -45 21 -97.5
t57 -99.5t92.5 -78.5t120.5 -31.5z" />
    <glyph glyph-name="quotesingle" unicode="'" horiz-adv-x="476" 
d="M216 714l-81 413q-16 80 -16 127q0 54 34.5 89.5t84.5 35.5q54 0 87.5 -36t33.5 -86q0 -19 -4 -46t-9 -53t-6 -31l-77 -413h-47z" />
    <glyph glyph-name="parenleft" unicode="(" horiz-adv-x="505" 
d="M373 -495q-149 198 -225.5 437t-76.5 494q0 105 14.5 216t46.5 237.5t94 254.5t147 234h132q-298 -420 -298 -940q0 -261 70.5 -479.5t227.5 -453.5h-132z" />
    <glyph glyph-name="parenright" unicode=")" horiz-adv-x="505" 
d="M132 -495h-132q157 235 227.5 453.5t70.5 479.5q0 520 -298 940h132q85 -106 147 -234t94 -254.5t46.5 -237.5t14.5 -216q0 -255 -76.5 -494t-225.5 -437z" />
    <glyph glyph-name="asterisk" unicode="*" horiz-adv-x="1077" 
d="M316 435q-47 0 -86 35t-39 78q0 11 2 20.5t7.5 20t10 17.5t15 17.5t16 16.5t20.5 17t20.5 15.5t24 17.5t23.5 17q27 18 49.5 36.5t48 41.5t38.5 34q13 13 10 25q-4 10 -21 15q-39 10 -121 15q-16 2 -78.5 0.5t-76.5 0.5q-58 1 -90.5 27.5t-32.5 77.5q0 47 30 84.5
t73 37.5q35 0 71 -19.5t102 -72.5q64 -51 140 -88q17 -9 27 -1q9 11 7 24q-4 18 -11 54.5t-14 65t-15 53.5q-25 70 -32 97.5t-8 56.5q-1 40 26.5 71t83.5 31q51 0 80.5 -28.5t29.5 -71.5q-1 -53 -33 -146q-24 -68 -44 -183q-2 -15 9 -25q7 -7 25 1q28 13 57 32t52 37t30 22
q12 9 34 25t30 22t23.5 16.5t23 14t19 8.5t21 6.5t19.5 1.5q49 0 79 -39t30 -86q0 -50 -34.5 -76t-75.5 -27q-16 -2 -78.5 -2t-78.5 -1q-91 -5 -130 -14q-18 -4 -21 -15q-5 -16 8 -27q117 -96 177 -139q31 -25 45.5 -38t32.5 -40t18 -53q0 -44 -40 -79t-85 -35q-23 0 -41 10
t-29.5 23.5t-21 35.5t-13.5 37t-9 37q-19 62 -32 88q-29 71 -54 118q-9 16 -20 16q-13 0 -22 -16q-32 -63 -54 -127q-6 -16 -12.5 -34.5t-14.5 -41.5t-12 -35q-20 -66 -48 -90q-25 -21 -60 -21z" />
    <glyph glyph-name="plus" unicode="+" horiz-adv-x="1226" 
d="M527 121v469h-469v172h469v469h172v-469h469v-172h-469v-469h-172z" />
    <glyph glyph-name="comma" unicode="," horiz-adv-x="625" 
d="M150 -381l-3 101q111 15 172 79.5t61 130.5q0 22 -10 34.5t-26 11.5q-8 0 -28 -6t-40 -6q-49 0 -91.5 40.5t-42.5 108.5q0 64 41.5 113.5t119.5 49.5q92 0 146 -71.5t54 -190.5q0 -94 -33 -170t-86.5 -121.5t-113 -71.5t-120.5 -32z" />
    <glyph glyph-name="hyphen" unicode="-" horiz-adv-x="852" 
d="M130 298v219h592v-219h-592z" />
    <glyph glyph-name="period" unicode="." horiz-adv-x="597" 
d="M298 -33q-64 0 -110 46.5t-46 113.5q0 66 45.5 112t110.5 46t111 -46t46 -112q0 -67 -46 -113.5t-111 -46.5z" />
    <glyph glyph-name="slash" unicode="/" horiz-adv-x="859" 
d="M-46 -33l717 1388h232l-715 -1388h-234z" />
    <glyph glyph-name="zero" unicode="0" horiz-adv-x="1033" 
d="M515 -27q-35 0 -70.5 7t-80.5 27t-84.5 52.5t-78 88t-66 127.5t-44.5 177.5t-17 232.5q0 176 35.5 311.5t97.5 216.5t139.5 121.5t168.5 40.5q64 0 123 -19.5t119 -70t104 -127t71.5 -201t27.5 -281.5q0 -181 -34 -318t-95 -220t-140.5 -124t-175.5 -41zM522 71
q95 0 132 131.5t37 438.5q0 349 -37 492.5t-140 143.5q-52 0 -86.5 -43t-53 -127.5t-25.5 -185t-7 -239.5q0 -323 38 -467t142 -144z" />
    <glyph glyph-name="one" unicode="1" horiz-adv-x="1033" 
d="M778 95h123v-95h-729v95h131q64 0 87 26t23 82v984q-58 -24 -111 -33t-149 -9v92q152 5 246.5 33.5t175.5 104.5h96v-1167q0 -29 2.5 -45.5t12.5 -34t32.5 -25.5t59.5 -8z" />
    <glyph glyph-name="two" unicode="2" horiz-adv-x="1033" 
d="M905 304h90l-117 -355h-94q9 26 1 38.5t-46 12.5h-667v90q276 256 400 460q157 244 157 449q0 117 -51 196t-147 79q-83 0 -137 -55.5t-54 -136.5q0 -64 42 -141l-149 -68q-58 97 -58 177q0 96 58.5 171.5t152.5 114.5t204 39q177 0 292 -99.5t115 -264.5
q0 -115 -58.5 -220t-175.5 -244q-143 -168 -201 -233t-141 -146h445q34 0 53 3.5t37 18.5t27 45z" />
    <glyph glyph-name="three" unicode="3" horiz-adv-x="1033" 
d="M404 -27q-148 0 -242 61.5t-102 149.5q-1 50 31 78t73 29q24 0 43 -9.5t31.5 -27.5t19 -32t12.5 -34q49 -117 159 -117q127 0 188.5 95t61.5 253q0 68 -9 118.5t-22.5 78.5t-34 45t-39 22t-40.5 5q-48 0 -87 -31l-61 -52l-64 75l137 99q198 139 198 304q0 97 -55.5 143
t-126.5 46q-74 0 -130.5 -46t-56.5 -114q0 -47 47 -115l-163 -72q-57 70 -57 147q0 87 63 158t160.5 108t204.5 37q64 0 126.5 -15t117 -44t88 -79t33.5 -113q0 -45 -16.5 -88.5t-46.5 -78.5t-59.5 -62.5t-67 -51.5t-57 -35t-41.5 -22q49 2 95.5 -9t89 -37t74 -64
t50.5 -95.5t19 -126.5q0 -109 -46 -201t-122 -152.5t-173.5 -94t-202.5 -33.5z" />
    <glyph glyph-name="four" unicode="4" horiz-adv-x="1033" 
d="M343 0v95h75q40 0 63.5 7.5t34.5 26t13.5 37t2.5 54.5v247h-484v134l597 770h146v-787h181v-117h-181v-250q0 -30 2.5 -46t12.5 -36.5t35.5 -30t66.5 -9.5h66v-95h-631zM163 584h369v490h-10l-359 -476v-14z" />
    <glyph glyph-name="five" unicode="5" horiz-adv-x="1033" 
d="M522 905q56 0 112.5 -14.5t113.5 -48.5t100.5 -83t71 -125t27.5 -168q0 -104 -33.5 -189.5t-87.5 -140.5t-124.5 -93t-141 -54t-139.5 -16q-83 0 -158.5 22t-131 69t-63.5 110q-1 39 28.5 68t67.5 31q41 1 67 -25.5t48 -76.5q24 -40 69 -69t101 -29q63 0 109 34.5
t69.5 94t34 124.5t10.5 140q0 50 -4 91t-17 88t-35 78.5t-61 52.5t-92 21q-68 0 -108 -31t-68 -84h-109l24 670h704l-69 -205h-549l-12 -335q41 46 109 69.5t137 23.5z" />
    <glyph glyph-name="six" unicode="6" horiz-adv-x="1033" 
d="M533 -27q-66 0 -128 19t-121.5 64t-104 111t-71.5 168t-27 227q0 164 32 300.5t86.5 230t128.5 158t156 94.5t171 30q113 0 188.5 -44.5t87.5 -112.5q1 -36 -24.5 -67t-66.5 -32q-30 -1 -54.5 15t-51.5 60q-55 78 -142 78q-212 0 -238 -518q71 105 213 105
q50 0 101 -12.5t105 -44t94.5 -78.5t67 -123t26.5 -171q0 -109 -37.5 -198.5t-99.5 -144.5t-137 -84.5t-154 -29.5zM530 71q89 0 126 81.5t37 234.5q0 89 -8 153.5t-27 116.5t-55 78t-88 26q-51 0 -85.5 -26t-52 -77.5t-25 -103.5t-10.5 -129q6 -177 50.5 -265.5
t137.5 -88.5z" />
    <glyph glyph-name="seven" unicode="7" horiz-adv-x="1033" 
d="M421 -25q-53 0 -80.5 18t-30 52.5t10 76.5t40.5 99l431 926h-491q-52 0 -78.5 -12t-39.5 -55l-22 -68h-90l124 390h93q-9 -26 -1 -38t46 -12h631l-406 -1230q-25 -81 -55 -114.5t-82 -32.5z" />
    <glyph glyph-name="eight" unicode="8" horiz-adv-x="1033" 
d="M520 -27q-61 0 -120.5 11t-122 39t-109.5 70.5t-77 111.5t-30 155q0 294 321 359q-37 10 -65 20t-72 35t-73 56t-50.5 83t-21.5 116q0 75 25.5 135.5t67 99t96.5 64.5t111 36.5t115 10.5q79 0 150.5 -19.5t133 -59t98 -108.5t36.5 -159q0 -61 -20.5 -112t-49.5 -83
t-69.5 -57.5t-70.5 -37.5t-62 -20q31 -7 55 -14t58 -21.5t60 -31.5t53.5 -45t45.5 -61t29.5 -80.5t11.5 -102.5q0 -101 -39.5 -178.5t-106 -122t-144.5 -67t-164 -22.5zM518 761q87 0 123.5 67.5t36.5 205.5q0 246 -163 246q-161 0 -161 -241q0 -52 3.5 -91.5t14.5 -76
t28.5 -59.5t47.5 -37t70 -14zM518 68q46 0 80 16.5t54 43t32.5 65.5t17 78t4.5 87q0 161 -41.5 234.5t-151.5 73.5q-45 0 -78.5 -15t-53.5 -40t-32 -62.5t-16 -76t-4 -88.5q0 -74 7.5 -126.5t27 -98t58 -68.5t96.5 -23z" />
    <glyph glyph-name="nine" unicode="9" horiz-adv-x="1033" 
d="M378 -27q-112 0 -186.5 44.5t-86.5 112.5q-2 36 23 67t65 32q30 2 53.5 -14t53.5 -60q57 -79 142 -79q214 0 237 519q-69 -105 -212 -105q-51 0 -102 12.5t-104.5 43.5t-94.5 78t-67.5 123t-26.5 171q0 110 37.5 199t99.5 144t137 84.5t154 29.5q66 0 128.5 -19t122 -64
t104 -111t71.5 -168t27 -227q0 -164 -32 -300t-86.5 -230t-128.5 -158.5t-156.5 -94.5t-171.5 -30zM519 588q51 0 85.5 26t52 77.5t25 103.5t10.5 129q-6 177 -51 265t-138 88q-89 0 -125.5 -81.5t-36.5 -234.5q0 -89 8 -153.5t27 -116t55 -77.5t88 -26z" />
    <glyph glyph-name="colon" unicode=":" horiz-adv-x="600" 
d="M300 593q-65 0 -112.5 46.5t-47.5 113.5q0 66 47 112t113 46q65 0 111.5 -46t46.5 -112q0 -67 -46.5 -113.5t-111.5 -46.5zM300 -33q-65 0 -112.5 46.5t-47.5 113.5q0 66 47 112t113 46q65 0 111.5 -46t46.5 -112q0 -67 -46.5 -113.5t-111.5 -46.5z" />
    <glyph glyph-name="semicolon" unicode=";" horiz-adv-x="616" 
d="M299 593q-64 0 -110 46.5t-46 113.5q0 66 45.5 112t110.5 46t111 -46t46 -112q0 -67 -46 -113.5t-111 -46.5zM151 -381l-3 101q111 15 172 79.5t61 130.5q0 22 -10 34.5t-26 11.5q-8 0 -28 -6t-40 -6q-49 0 -91.5 40.5t-42.5 108.5q0 64 41.5 113.5t119.5 49.5
q92 0 146 -71.5t54 -190.5q0 -94 -33 -170t-86.5 -121.5t-113 -71.5t-120.5 -32z" />
    <glyph glyph-name="less" unicode="&#x3c;" horiz-adv-x="1228" 
d="M1109 1204v-187l-830 -343l830 -343v-185l-1049 445v167z" />
    <glyph glyph-name="equal" unicode="=" horiz-adv-x="1525" 
d="M207 828v171h1110v-171h-1110zM207 353v171h1110v-171h-1110z" />
    <glyph glyph-name="greater" unicode="&#x3e;" horiz-adv-x="1228" 
d="M119 1204l1049 -446v-167l-1049 -445v185l830 343l-830 343v187z" />
    <glyph glyph-name="question" unicode="?" horiz-adv-x="863" 
d="M397 1379q194 0 305.5 -115.5t111.5 -283.5q0 -86 -30.5 -156.5t-79.5 -112.5t-106 -64.5t-115 -22.5q-59 0 -118 20v-195h-106v320h83q28 -31 73 -31q35 0 61.5 18t41.5 43.5t24 58.5t12 58t3 47q0 43 -7.5 90.5t-25 102.5t-56.5 90.5t-93 35.5q-46 0 -86.5 -28.5
t-55.5 -88.5q-4 -19 -8.5 -31t-14.5 -29.5t-29 -26.5t-45 -9q-32 1 -60.5 24t-28.5 60q8 88 104 157t246 69zM313 285q64 0 109.5 -46t45.5 -112q0 -67 -45.5 -113.5t-109.5 -46.5t-110 46.5t-46 113.5q0 66 45.5 112t110.5 46z" />
    <glyph glyph-name="at" unicode="@" horiz-adv-x="1908" 
d="M972 -449q-185 0 -348.5 64t-282.5 176.5t-187.5 275.5t-68.5 353q0 128 29.5 249t85.5 227.5t140 195.5t188.5 152.5t236 99t277.5 35.5q177 0 316.5 -53.5t226 -146.5t131.5 -211.5t45 -254.5q0 -106 -26 -210t-76.5 -196t-119.5 -163t-162 -112t-197 -41
q-137 0 -173 71t-6 222q-27 -45 -47 -74.5t-56 -75t-68 -73.5t-75.5 -49t-86.5 -21q-50 0 -87.5 24t-57.5 65t-27.5 90.5t-2.5 104.5q5 132 57 261t125.5 218.5t157 144.5t151.5 55q148 0 161 -189l44 155l199 8l-195 -668q-56 -204 74 -204q48 0 107 29.5t118 88
t107.5 134.5t79 179t30.5 212q0 128 -44 241t-124.5 198t-205 134.5t-275.5 49.5q-202 0 -371 -76.5t-280 -205t-172.5 -296t-61.5 -351.5q0 -176 63 -325.5t170.5 -250t253.5 -157t310 -56.5q91 0 184 19t187.5 62.5t176.5 106t152 156t113 207.5h57q-45 -111 -107 -202.5
t-127.5 -152.5t-141.5 -108t-142.5 -73t-137 -42t-120 -21t-94.5 -5zM784 141q57 0 128.5 85.5t125.5 215t60 244.5q9 97 -17.5 150t-72.5 53q-55 0 -111 -70t-96 -167t-66.5 -190.5t-31.5 -149.5q-9 -77 15.5 -124t65.5 -47z" />
    <glyph glyph-name="A" unicode="A" horiz-adv-x="1319" 
d="M1292 98l37 -3v-95h-602v95l87 3q30 2 46.5 17.5t7.5 42.5l-86 237h-438l-77 -216q-14 -39 13 -60t66 -22l73 -2v-95h-429v95l30 8q119 56 164 173l420 1103h107l419 -1103q15 -39 26 -62.5t30 -50.5t45 -42.5t61 -22.5zM379 493h367l-168 464h-33z" />
    <glyph glyph-name="B" unicode="B" horiz-adv-x="1327" 
d="M886 722q43 -8 85.5 -21t97 -41.5t94 -66.5t67.5 -99.5t27 -136.5q0 -67 -21.5 -121.5t-55 -91t-81 -64t-94 -42.5t-100 -24t-92.5 -11.5t-78 -2.5h-677v95h75q59 0 79 36t20 107v874q0 67 -18 104t-69 37h-87v101l768 -3q176 -1 275 -88.5t97 -228.5q0 -61 -24.5 -112.5
t-58 -83.5t-79.5 -58t-80.5 -38t-69.5 -20zM670 1263h-155v-492h134q127 0 184 57.5t58 183.5q1 123 -58 187t-163 64zM946 382q1 74 -16.5 128t-44 84t-69 47t-81 22t-90.5 5h-130v-433q0 -132 84 -132h112q53 0 94.5 16.5t67 43t42.5 63.5t23.5 75t7.5 81z" />
    <glyph glyph-name="C" unicode="C" horiz-adv-x="1463" 
d="M728 -27q-126 0 -234.5 39.5t-186 107.5t-132.5 157t-82 188.5t-27 202.5q0 104 27 205.5t83 192.5t133.5 161t187.5 111t237 41q253 0 434 -215l32 167h93l10 -489h-92q-8 48 -28 101.5t-57.5 112.5t-85.5 105.5t-118 76.5t-149 30q-92 0 -162 -38t-111.5 -97.5
t-67.5 -144.5t-35 -168t-9 -179q0 -261 98 -409t296 -148q150 0 272.5 112t168.5 322h96v-499h-96l-44 176q-22 -36 -60 -72.5t-93 -71t-133.5 -56.5t-164.5 -22z" />
    <glyph glyph-name="D" unicode="D" horiz-adv-x="1535" 
d="M53 0v95h84q58 0 78 36.5t20 106.5v879q0 71 -20 107t-81 36h-81v92h556q161 0 291 -22.5t237.5 -72.5t179 -128.5t111 -193.5t39.5 -263q0 -152 -40 -267t-111.5 -191.5t-180 -124.5t-236.5 -68.5t-290 -20.5h-556zM662 103h130q115 0 196.5 79.5t119 205.5t37.5 285
q0 133 -27.5 237t-73 169.5t-107.5 108.5t-126 60t-135 17h-158v-997q0 -35 1.5 -54t9 -44t22 -37t42.5 -21t69 -9z" />
    <glyph glyph-name="E" unicode="E" horiz-adv-x="1342" 
d="M1159 445l94 -1l-15 -444h-1188v95h71q69 0 92.5 36t23.5 107v876q0 78 -26 110.5t-109 32.5h-52v95h1114l19 -350l-94 -1l-33 128q-30 78 -70 99t-119 21h-348v-491h202q27 0 47.5 3t40.5 11t31 26t11 45v89h96v-459h-96v81q0 61 -33 81t-94 20h-205v-389
q0 -35 1.5 -54.5t8 -43.5t19.5 -36t37 -20.5t59 -8.5h230q117 0 163 29.5t70 105.5z" />
    <glyph glyph-name="F" unicode="F" horiz-adv-x="1190" 
d="M53 0v95h52q80 0 106 32.5t26 110.5v876q0 79 -27 111t-111 32h-49v95h1101l11 -356l-96 -1l-23 113q-9 30 -23 53.5t-26.5 38.5t-32.5 25t-31 14.5t-33.5 7t-29 2.5h-27.5h-321v-488h186q60 0 91 25.5t31 90.5v57h95v-464h-95v60q0 66 -27.5 97t-96.5 31h-184v-420
q0 -73 27 -108t114 -35h57v-95h-664z" />
    <glyph glyph-name="G" unicode="G" horiz-adv-x="1525" 
d="M753 -27q-133 0 -246 38.5t-193 104.5t-136.5 154t-84 187.5t-27.5 204.5q0 138 49 268t134.5 229.5t212 159.5t271.5 60q80 0 152 -19t125.5 -51t92 -66.5t66.5 -72.5l31 184h90l9 -469h-91q-13 47 -31 90.5t-53.5 97.5t-79 93t-111 65.5t-146.5 26.5q-70 0 -128 -20.5
t-98.5 -54.5t-71.5 -83t-50 -101.5t-30.5 -115.5t-16 -119.5t-4.5 -117.5q0 -562 389 -562q279 0 299 282q0 78 -32 110.5t-111 32.5h-163v95h716v-95h-41q-52 0 -69.5 -36.5t-17.5 -114.5v-385h-103l-105 140q-88 -79 -180.5 -109.5t-216.5 -30.5z" />
    <glyph glyph-name="H" unicode="H" horiz-adv-x="1668" 
d="M55 0v95h65q78 0 102.5 34t24.5 109v876q0 75 -24 109t-103 34h-65v95h662v-95h-64q-77 0 -100 -34.5t-23 -108.5v-347h609v347q0 73 -23.5 108t-100.5 35h-65v95h664v-95h-66q-79 0 -103 -34t-24 -109v-876q0 -75 25 -109t102 -34h66v-95h-664v95h76q69 0 91 36t22 107
v422h-609v-422q0 -35 3.5 -57.5t14 -44t34 -31.5t60.5 -10h75v-95h-662z" />
    <glyph glyph-name="I" unicode="I" horiz-adv-x="778" 
d="M53 0v95h56q86 0 112 33t26 110v879q0 77 -26 110t-112 33h-56v95h672v-95h-54q-88 0 -114.5 -31.5t-26.5 -111.5v-879q0 -80 26.5 -111.5t114.5 -31.5h54v-95h-672z" />
    <glyph glyph-name="J" unicode="J" horiz-adv-x="755" 
d="M42 -488q-146 0 -244.5 59.5t-98.5 164.5q0 51 41 87.5t105 36.5q54 0 90 -27t36 -80q0 -16 -9 -40t-8 -34q13 -72 119 -72q47 0 80.5 17t55 48t34 82.5t17.5 112t5 145.5v1102q0 28 -1.5 44t-8.5 37.5t-21 33t-41 20t-66 8.5h-106v95h710v-95h-54q-79 0 -104.5 -33.5
t-25.5 -109.5v-1024v-7q0 -58 -1 -92.5t-11 -101.5t-27.5 -111t-55 -99t-89.5 -88t-134.5 -56t-186.5 -23z" />
    <glyph glyph-name="K" unicode="K" horiz-adv-x="1605" 
d="M52 0v95h70q71 0 96.5 30.5t25.5 112.5v876q0 80 -26 111.5t-107 31.5h-59v95h672v-95h-64q-32 0 -55 -5t-37.5 -16.5t-23 -22.5t-12 -31t-4.5 -34t-1 -39v-456l423 426q79 77 79 122q0 27 -19.5 41.5t-47.5 14.5h-68v95h580v-95h-54q-22 0 -43.5 -3.5t-38.5 -7.5
t-38 -14.5t-34 -16.5t-34.5 -22t-30.5 -22t-31 -27t-28 -26t-30 -28.5t-27 -26.5l-175 -175l393 -606q46 -70 75 -105.5t67.5 -58.5t85.5 -23h74v-95h-713v95h70q39 0 65 14t26 42q0 15 -13.5 39.5t-42 66t-36.5 53.5l-253 392l-181 -190v-274q0 -77 21 -108t83 -33l78 -2
l2 -95h-659z" />
    <glyph glyph-name="L" unicode="L" horiz-adv-x="1285" 
d="M53 0v95h66q75 0 102.5 29t27.5 114v876q0 78 -25.5 110.5t-107.5 32.5h-63v95h678v-95h-62q-84 0 -111 -31t-27 -112v-854q0 -30 1 -47t5 -38t13 -31.5t24.5 -21.5t39.5 -15t58 -4h162q21 0 36.5 0.5t43.5 5t50 13t49.5 25t48.5 40t40.5 60t31.5 82.5l19 121l91 -1
l-14 -449h-1177z" />
    <glyph glyph-name="M" unicode="M" horiz-adv-x="1961" 
d="M1847 95h67v-95h-685v95h61q83 0 110 31t27 112v860h-21l-490 -1098h-77l-491 1098h-13v-798q0 -40 4.5 -71t17 -64t41 -51.5t70.5 -18.5h55v-95h-470v95h54q30 0 53 9.5t36.5 28.5t21.5 36.5t11 45t3.5 40.5t0.5 37v9v810q0 37 -3 58t-14.5 44t-39 33.5t-71.5 10.5h-52
v95h480l439 -983l445 983h494v-95h-64q-47 0 -76.5 -10.5t-42 -33t-16 -43.5t-3.5 -56v-876q0 -35 3 -55t15.5 -43t42 -34t77.5 -11z" />
    <glyph glyph-name="N" unicode="N" horiz-adv-x="1526" 
d="M1026 1352h471v-95h-53q-45 0 -73.5 -28.5t-38.5 -68.5t-10 -92v-1091h-110l-867 1067v-752q0 -30 1.5 -50.5t9.5 -51t22 -49t42.5 -32.5t67.5 -14h50v-95h-487v95h52q139 0 136 191v6v790q0 80 -36.5 127.5t-109.5 47.5h-47v95h416l753 -927v645q0 187 -136 187h-53v95z
" />
    <glyph glyph-name="O" unicode="O" horiz-adv-x="1542" 
d="M772 -27q-162 0 -295.5 53.5t-223.5 148.5t-139 225t-49 281q0 100 26.5 198.5t84 189t138 159.5t197.5 110t254 41q147 0 268 -42.5t201.5 -112.5t136.5 -163t80.5 -190.5t24.5 -197.5q0 -106 -27 -206t-84 -190t-138.5 -157.5t-198.5 -107t-256 -39.5zM765 84
q189 0 284 144t95 447q0 307 -98.5 450t-277.5 143q-99 0 -172.5 -44t-117 -124t-64 -182.5t-20.5 -228.5q0 -86 9 -164.5t34.5 -161.5t65.5 -142.5t107.5 -98t154.5 -38.5z" />
    <glyph glyph-name="P" unicode="P" horiz-adv-x="1256" 
d="M52 0v95h56q78 0 104 32.5t26 110.5v879q0 35 -3 55t-15.5 43t-42 34t-77.5 11h-55v92h555q88 0 157.5 -5t145.5 -18t131 -39t101 -65.5t69.5 -100t23.5 -139.5q0 -104 -42 -178.5t-119 -117t-172.5 -61.5t-216.5 -19h-157v-371q0 -35 3 -55t15.5 -43t42.5 -34t78 -11h54
v-95h-662zM521 712h132q42 0 76.5 5.5t71.5 22.5t62.5 45.5t42 78t16.5 116.5q0 281 -266 281h-135v-549z" />
    <glyph glyph-name="Q" unicode="Q" horiz-adv-x="1542" 
d="M772 -27q-162 0 -295.5 53.5t-223.5 148.5t-139 225t-49 281q0 100 26.5 198.5t84 189t138 159.5t197.5 110t254 41q147 0 268 -42.5t201.5 -112.5t136.5 -163t80.5 -190.5t24.5 -197.5q0 -106 -27 -206t-84 -190t-138.5 -157.5t-198.5 -107t-256 -39.5zM765 84
q189 0 284 144t95 447q0 307 -98.5 450t-277.5 143q-99 0 -172.5 -44t-117 -124t-64 -182.5t-20.5 -228.5q0 -86 9 -164.5t34.5 -161.5t65.5 -142.5t107.5 -98t154.5 -38.5zM1367 -496q-41 0 -78.5 6t-64 12t-60 24t-47.5 25t-46.5 34.5t-38.5 33t-40 37.5q-4 4 -7 6.5
t-6 5.5q-132 123 -252 123q-50 0 -107 -34t-137 -112l-56 60q98 96 179.5 142t177.5 46q134 0 321 -100q183 -100 310 -100q95 0 174 52l98 -131q-116 -130 -320 -130z" />
    <glyph glyph-name="R" unicode="R" horiz-adv-x="1477" 
d="M48 0v95h52q84 0 111 31t27 112v879q0 77 -25 108.5t-103 31.5h-62v95h694q109 0 196 -19t157.5 -61t108.5 -115.5t38 -175.5q0 -67 -20.5 -119t-60.5 -89.5t-85.5 -63.5t-110.5 -50q47 -35 81 -77.5t86 -125.5l165 -255q36 -56 77 -81t75 -25h39v-95h-373l-256 432
q-63 107 -106.5 141t-115.5 34h-116v-369q0 -78 26 -110.5t108 -32.5h52v-95h-659zM521 712h132q63 0 111 11t91.5 39.5t67 84.5t23.5 138q0 143 -73.5 204t-208.5 61h-143v-538z" />
    <glyph glyph-name="S" unicode="S" horiz-adv-x="1124" 
d="M626 -27q-105 0 -206.5 46.5t-168.5 141.5l-26 -139h-101v465h101q10 -74 37 -142.5t71.5 -128.5t113 -96t152.5 -36q93 0 153 59.5t60 146.5q0 76 -53 132.5t-167 106.5q-209 99 -282 148q-127 84 -162 194q-18 55 -18 124q0 163 118 273.5t274 110.5q80 0 161.5 -36.5
t139.5 -107.5l28 120h96v-399h-96q-14 79 -47 142t-75.5 101t-90 57.5t-95.5 19.5q-98 0 -147 -56t-49 -122q0 -23 4 -42.5t9.5 -36t19.5 -33t24.5 -28t36 -27t42 -25.5t53.5 -27.5t60 -28t72 -32.5l3 -1.5t3 -1t3 -1.5q68 -30 117.5 -57t100.5 -65.5t83 -81t52 -101
t20 -127.5q0 -95 -38 -174.5t-99.5 -129.5t-136 -77.5t-150.5 -27.5z" />
    <glyph glyph-name="T" unicode="T" horiz-adv-x="1358" 
d="M337 0v95h62q38 0 64.5 8t41 20t22.5 32.5t10 38t2 44.5v1011h-187q-32 0 -53.5 -2t-53.5 -13t-52.5 -31t-38.5 -60t-23 -97l-5 -72l-95 1l5 377h1286l5 -377l-95 -1l-8 75q-16 68 -37.5 110t-52 60.5t-58.5 24t-74 5.5h-181v-1011q0 -28 1 -44t8.5 -38t21 -33t41 -19.5
t66.5 -8.5h64v-95h-686z" />
    <glyph glyph-name="U" unicode="U" horiz-adv-x="1482" 
d="M750 -27q-272 0 -414 140t-142 415v586q0 76 -25 109.5t-110 33.5h-45v95h663v-95h-64q-82 0 -109 -32t-27 -111v-586q0 -104 18 -182t57.5 -136t106.5 -88t162 -30q104 0 176.5 32t113.5 95t58.5 144.5t17.5 193.5v524q0 79 -34.5 127.5t-112.5 48.5h-46v95h470v-95h-46
q-66 0 -95.5 -48t-29.5 -125v-530q0 -288 -132.5 -434.5t-410.5 -146.5z" />
    <glyph glyph-name="V" unicode="V" horiz-adv-x="1421" 
d="M975 1352h456v-95h-41q-61 0 -97.5 -49.5t-99.5 -201.5l-409 -1036h-112l-455 1090q-4 10 -12 28q-45 104 -68 131q-32 38 -95 38h-52v95h663v-95h-73q-82 0 -98.5 -40.5t20.5 -117.5l319 -767l282 718q18 46 24.5 81t2 64.5t-28.5 45.5t-68 16h-58v95z" />
    <glyph glyph-name="W" unicode="W" horiz-adv-x="1899" 
d="M1483 1352h423v-95h-34q-31 0 -54 -15t-41.5 -49.5t-31.5 -74t-31 -105.5l-280 -1040h-141l-349 1010l-304 -1010h-146l-331 1118q-29 101 -55 133.5t-83 32.5h-32v95h582v-95h-66q-45 0 -64 -19.5t-17.5 -51.5t17.5 -86l217 -738l293 994h139l343 -986l169 644
q15 56 21 92t3.5 74.5t-25.5 57.5t-67 19h-55v95z" />
    <glyph glyph-name="X" unicode="X" horiz-adv-x="1596" 
d="M34 0v95h45q65 0 120.5 39t120.5 115l343 391l-338 431q-87 117 -127.5 151.5t-105.5 34.5h-65v95h703v-95h-70q-60 0 -68 -35t38 -98l224 -284l236 271q58 68 47.5 107t-81.5 39h-71v95h524v-95h-56q-21 0 -40.5 -4.5t-33.5 -8t-33 -17.5t-28 -19.5t-30 -27.5t-26.5 -28
t-30.5 -35.5t-30 -35.5l-281 -322l354 -461q29 -40 37 -50.5t32.5 -41t35 -40t32 -28.5t37 -25t36.5 -12t44 -6h57v-95h-757v95h81q174 0 54 163l-236 298l-261 -302q-58 -69 -43 -114t96 -45h80v-95h-565z" />
    <glyph glyph-name="Y" unicode="Y" horiz-adv-x="1333" 
d="M328 0v95h72q44 0 71.5 9t40.5 30t16.5 43t3.5 59v293l-338 580q-47 80 -79.5 114t-78.5 34h-48v95h619v-95h-61q-32 0 -48.5 -11.5t-17.5 -32t7.5 -44.5t25.5 -53l263 -451l238 407q47 82 34 133.5t-88 51.5h-46v95h430v-95h-36q-70 0 -158 -153l-334 -558l-2 -308
q0 -77 24.5 -110t108.5 -33h71v-95h-690z" />
    <glyph glyph-name="Z" unicode="Z" horiz-adv-x="1325" 
d="M1162 414l95 -1l-27 -413h-1168v90l804 1163h-358q-56 0 -92 -2.5t-74 -11.5t-62 -25.5t-44 -45.5t-32 -71l-20 -102l-93 1l24 360h1099v-90l-813 -1163h441q37 0 61 1.5t55 7t52.5 16.5t44.5 29.5t41.5 48t33.5 69.5z" />
    <glyph glyph-name="bracketleft" unicode="[" horiz-adv-x="702" 
d="M169 -476v1828h532v-92h-183q-73 0 -93 -26.5t-20 -81.5v-1440q0 -49 22 -72.5t99 -23.5h175v-92h-532z" />
    <glyph glyph-name="backslash" unicode="\" horiz-adv-x="859" 
d="M905 -33h-234l-715 1388h232z" />
    <glyph glyph-name="bracketright" unicode="]" horiz-adv-x="702" 
d="M533 -476h-532v92h175q77 0 99 23.5t22 72.5v1440q0 27 -3 43t-13 33t-34 24.5t-63 7.5h-183v92h532v-1828z" />
    <glyph glyph-name="asciicircum" unicode="^" horiz-adv-x="1018" 
d="M965 636h-201l-254 459l-261 -459h-195l407 719h100z" />
    <glyph glyph-name="underscore" unicode="_" horiz-adv-x="1303" 
d="M127 -223v152h1049v-152h-1049z" />
    <glyph glyph-name="grave" unicode="`" horiz-adv-x="550" 
d="M424 1030l-438 318v4h338l176 -322h-76z" />
    <glyph glyph-name="a" unicode="a" horiz-adv-x="1064" 
d="M295 -20q-66 0 -113 18t-70 49t-32.5 62.5t-9.5 67.5q0 53 21 97t64 81t90.5 66t119.5 63l244 117q0 133 -30 175t-125 42q-48 0 -81 -12t-50.5 -35.5t-24.5 -40t-14 -42.5q-18 -100 -109 -99q-49 1 -74 28.5t-25 67.5q6 93 118 161t320 68q110 0 182 -19t109.5 -59.5
t51 -90t13.5 -122.5v-392q0 -61 13 -94.5t49 -33.5q54 0 64 92h74q-4 -108 -66 -161.5t-163 -53.5q-84 0 -136.5 38t-79.5 115q-159 -153 -330 -153zM414 105q49 0 100.5 34.5t96.5 97.5l-1 263l-198 -123q-94 -58 -94 -149q0 -60 25.5 -91.5t70.5 -31.5z" />
    <glyph glyph-name="b" unicode="b" horiz-adv-x="1154" 
d="M681 -25q-91 0 -176 40t-152 112l-138 -144h-75v1128q0 66 -17.5 96t-73.5 24l-56 -9l-3 93l411 75v-592q121 116 287 116q171 0 291.5 -131t120.5 -337q0 -107 -35 -197t-93.5 -149t-134 -92t-156.5 -33zM608 95q62 0 107.5 35.5t67.5 92t32 111t10 109.5q0 67 -12 127
t-36.5 111t-67.5 81t-98 30q-69 0 -122.5 -36t-87.5 -83v-448q88 -130 207 -130z" />
    <glyph glyph-name="c" unicode="c" horiz-adv-x="954" 
d="M521 -32q-207 0 -339.5 126.5t-132.5 333.5q0 215 145 350.5t357 135.5q56 0 110.5 -11t105 -33.5t84 -64t37.5 -96.5q1 -49 -25.5 -82.5t-73.5 -34.5q-30 0 -52 12.5t-34 34t-18 39.5t-10 39q-37 102 -137 102q-52 0 -91.5 -25t-62 -61t-37 -84.5t-19 -88t-4.5 -78.5
q0 -399 249 -399q45 0 83.5 13t64.5 32.5t47.5 46t33 48.5t20.5 46l86 -41q-20 -43 -39.5 -76t-52.5 -69.5t-72 -60t-96.5 -39t-126.5 -15.5z" />
    <glyph glyph-name="d" unicode="d" horiz-adv-x="1184" 
d="M443 -25q-177 0 -279.5 130.5t-102.5 327.5q0 114 32 204t78 140t104.5 83t105 43.5t86.5 10.5q64 0 144.5 -27.5t142.5 -93.5v315q0 63 -20 94.5t-80 25.5l-48 -9l-3 93l409 78v-1166q0 -60 17 -92t73 -32h50v-100h-368l-15 114q-46 -36 -65.5 -50t-65 -40.5t-93 -37.5
t-102.5 -11zM540 103q54 0 115 33t99 104v443q-82 103 -201 103q-48 0 -86 -18.5t-62 -49t-40 -74t-22.5 -90.5t-6.5 -101q0 -157 52.5 -253.5t151.5 -96.5z" />
    <glyph glyph-name="e" unicode="e" horiz-adv-x="970" 
d="M509 -32q-196 0 -326.5 133t-130.5 344q0 212 129.5 340.5t317.5 128.5q57 0 113.5 -14t113.5 -48.5t100.5 -85.5t71 -131.5t28.5 -179.5h-600q0 -46 5 -90.5t21 -98.5t42.5 -94t74 -67t110.5 -27q70 0 131 41.5t104 116.5l82 -49q-59 -100 -161 -159.5t-226 -59.5z
M327 545h350q-2 46 -11 88.5t-27.5 86t-54 70t-83.5 26.5q-40 0 -70.5 -18.5t-49 -46.5t-31 -66t-17 -71t-6.5 -69z" />
    <glyph glyph-name="f" unicode="f" horiz-adv-x="741" 
d="M46 0v95h66q73 0 93.5 28.5t20.5 93.5v571h-180v95h180v124q0 96 34.5 170.5t94.5 119.5t134.5 68t159.5 23q55 0 106 -11.5t96 -36t73.5 -68t30.5 -100.5q1 -51 -34 -88t-84 -37q-45 -1 -80.5 31t-42.5 83q-22 129 -110 129q-119 0 -119 -242v-165h215v-95h-215v-571
q0 -31 3 -49.5t13.5 -37t34.5 -27t63 -8.5h101v-95h-654z" />
    <glyph glyph-name="g" unicode="g" horiz-adv-x="1068" 
d="M486 -537q-31 0 -62 1.5t-76 7.5t-83.5 16t-79.5 29.5t-69 45t-46.5 64.5t-18.5 87q0 153 191 201q-71 22 -109.5 66t-38.5 121q0 87 52.5 140.5t158.5 83.5q-69 20 -116.5 58t-68.5 82t-29 77.5t-8 64.5q0 139 110.5 222t300.5 83q194 0 308 -104q51 52 90 78t83 26
q42 0 68 -25t31 -70q2 -32 -13 -52.5t-43 -20.5q-28 -1 -50 27q-22 30 -48 30q-38 0 -68 -53q39 -67 39 -142q0 -72 -27 -128t-68.5 -90t-98.5 -56.5t-110.5 -32t-111.5 -11.5q-212 -6 -212 -109q0 -37 32 -54t95 -21q27 -2 67 -2t93 1t80 1q63 0 114 -6t103 -24.5
t86.5 -48.5t56 -81.5t21.5 -120.5q0 -73 -30 -136t-91 -114.5t-164.5 -81t-239.5 -29.5zM489 392q74 0 114.5 56t40.5 167q0 27 -7 58t-22.5 65.5t-48.5 57t-78 22.5t-77.5 -22t-48.5 -56t-23 -66t-7 -61q0 -25 4 -51.5t15 -57.5t27.5 -55.5t45.5 -40.5t65 -16zM497 -442
q165 0 263.5 51.5t98.5 154.5q0 34 -11 56.5t-42.5 42t-95 29t-161.5 8.5q-182 -1 -264 -44t-82 -135q0 -163 294 -163z" />
    <glyph glyph-name="h" unicode="h" horiz-adv-x="1195" 
d="M27 0v95h46q63 0 81.5 29t18.5 93v888q0 62 -18 92.5t-74 25.5l-54 -9l-2 93l408 83v-682q64 93 146 149.5t170 56.5q135 0 212 -80.5t77 -238.5v-378q0 -61 22 -91.5t73 -30.5h47v-95h-529v95h47q46 0 63.5 31.5t17.5 91.5v372q0 180 -125 180q-112 0 -221 -215v-338
q0 -122 75 -122h49v-95h-530z" />
    <glyph glyph-name="i" unicode="i" horiz-adv-x="647" 
d="M348 1142q-68 0 -110.5 49t-42.5 109q0 64 45.5 110.5t107.5 46.5q64 0 109 -46.5t45 -110.5q0 -70 -45.5 -114t-108.5 -44zM55 0v95h56q64 0 84 26t20 96v417q0 72 -20 99t-83 21l-57 -9l-3 93l423 79v-700q0 -62 18 -92t74 -30h50v-95h-562z" />
    <glyph glyph-name="j" unicode="j" horiz-adv-x="584" 
d="M304 1142q-68 0 -110.5 49t-42.5 109q0 64 45 110.5t108 46.5t107.5 -46.5t44.5 -110.5q0 -70 -45 -114t-107 -44zM17 -538q-107 0 -179 47.5t-77 134.5q-1 43 28 73t71 31q79 0 100 -81q24 -105 103 -105q36 0 60.5 21.5t36.5 63t17 88.5t5 112v786q0 32 -3 51.5
t-14 38.5t-35.5 26t-63.5 4l-52 -10l-1 94l429 80v-944q0 -134 -20.5 -226t-68.5 -158t-130.5 -96.5t-205.5 -30.5z" />
    <glyph glyph-name="k" unicode="k" horiz-adv-x="1203" 
d="M24 0v95h54q60 0 77.5 28t17.5 94v893q0 65 -19 95t-78 25l-52 -10l-3 94l412 76v-946l279 235q56 49 57.5 78.5t-59.5 30.5h-33v95h443v-95h-39q-52 0 -96 -20t-97 -69l-124 -105l254 -354q27 -41 37.5 -56t32 -42t38 -37t33.5 -10h40v-95h-509v95h60q75 0 4 108
l-177 252l-144 -129v-109q0 -122 70 -122h60v-95h-539z" />
    <glyph glyph-name="l" unicode="l" horiz-adv-x="601" 
d="M24 0v95h54q60 0 77.5 28t17.5 94v893q0 65 -19 95t-78 25l-52 -10l-3 94l412 76v-1173q0 -122 70 -122h60v-95h-539z" />
    <glyph glyph-name="m" unicode="m" horiz-adv-x="1927" 
d="M60 0v95h46q63 0 81 29t18 93v403q0 63 -17.5 93t-74.5 25l-53 -9l-3 94l409 83v-198q74 90 173.5 148t189.5 58q107 0 177.5 -53.5t93.5 -161.5q75 94 180 154.5t200 60.5q134 0 211.5 -80.5t77.5 -238.5v-378q0 -62 21.5 -92t73.5 -30h47v-95h-530v95h48
q45 0 61.5 31.5t16.5 91.5v372q0 180 -124 180q-75 0 -148.5 -61.5t-116.5 -143.5v-348q0 -61 22 -91.5t73 -30.5h47v-95h-529v95h47q46 0 63.5 31.5t17.5 91.5v372q0 180 -127 180q-76 0 -150.5 -65.5t-115.5 -149.5v-338q0 -122 74 -122h65v-95h-545z" />
    <glyph glyph-name="n" unicode="n" horiz-adv-x="1227" 
d="M60 0v95h46q63 0 81 29t18 93v403q0 63 -17.5 93t-74.5 25l-53 -9l-3 94l409 83v-198q64 93 145.5 149.5t170.5 56.5q134 0 211 -80.5t77 -238.5v-378q0 -61 22.5 -91.5t72.5 -30.5h48v-95h-530v95h48q45 0 62.5 31.5t17.5 91.5v372q0 180 -126 180q-115 0 -219 -215
v-338q0 -122 74 -122h49v-95h-529z" />
    <glyph glyph-name="o" unicode="o" horiz-adv-x="1055" 
d="M527 -32q-33 0 -70.5 5t-85 19t-90.5 36t-85.5 59.5t-74 85.5t-50.5 117.5t-19 152.5q0 99 29.5 180.5t77.5 134t110.5 89t127 52t129.5 15.5q59 0 120 -14t126 -48.5t115.5 -86t83 -135.5t32.5 -187q0 -100 -30 -182.5t-78 -135.5t-111.5 -89.5t-127.5 -52t-129 -15.5z
M529 67q68 0 114 52.5t65.5 134.5t19.5 188q0 77 -9.5 140t-31.5 118t-62.5 85.5t-97.5 30.5q-56 0 -97 -31.5t-62.5 -86t-31 -115.5t-9.5 -132q0 -82 11 -149t34 -121t63 -84t94 -30z" />
    <glyph glyph-name="p" unicode="p" horiz-adv-x="1189" 
d="M26 -521v95h57q57 0 74.5 29t17.5 92v943q0 64 -20.5 92t-90.5 26l-38 -8l-3 92l392 77l16 -151q61 68 142 108t167 40q76 0 147 -32.5t126 -91t88 -147.5t33 -194q0 -107 -34.5 -198.5t-92 -152.5t-131 -95.5t-152.5 -34.5q-162 0 -289 127v-400q0 -32 2.5 -49.5
t13 -36.5t35 -27t63.5 -8h57v-95h-580zM636 97q53 0 94 25t65 62.5t39.5 86t20.5 88.5t5 78q0 66 -12 126t-36.5 111t-67 81.5t-98.5 30.5q-62 0 -119 -40.5t-92 -102.5v-436q42 -52 98 -81t103 -29z" />
    <glyph glyph-name="q" unicode="q" horiz-adv-x="1153" 
d="M582 -521v95h56q72 0 93 29t21 92v394q-129 -121 -288 -121q-180 0 -294 129.5t-114 334.5q0 116 36 209.5t95.5 151.5t133 89t152.5 31q58 0 109.5 -13.5t91.5 -38t66.5 -45.5t54.5 -50l141 142h75v-1213q0 -64 19 -92.5t82 -28.5h49v-95h-579zM540 92q42 0 100 26.5
t112 91.5v453q-94 133 -209 133q-99 0 -155.5 -90.5t-56.5 -264.5q0 -59 10 -115.5t32 -111.5t65 -88.5t102 -33.5z" />
    <glyph glyph-name="r" unicode="r" horiz-adv-x="918" 
d="M60 0v95h57q56 0 72 29.5t16 92.5v408q0 65 -16.5 94.5t-67.5 25.5l-63 -10l-3 94l376 88l24 -246q116 243 300 243q43 0 76.5 -15t53 -40t30.5 -51.5t14 -55.5q3 -45 -23 -83.5t-81 -39.5q-31 -1 -52 13t-41 45q-35 56 -94 56q-50 0 -86.5 -39t-53.5 -101t-24.5 -119
t-7.5 -113v-154q0 -68 20.5 -95t88.5 -27h43v-95h-558z" />
    <glyph glyph-name="s" unicode="s" horiz-adv-x="977" 
d="M514 578q46 -8 77.5 -14.5t76.5 -19.5t75 -27t63.5 -37t53.5 -50.5t33.5 -66.5t13.5 -85q0 -147 -114 -228.5t-276 -81.5t-276 74l-50 -74h-75l-5 286h84q137 -189 327 -189q85 0 142.5 37.5t57.5 100.5q0 25 -11 44t-27.5 31t-47.5 22t-57.5 16t-70.5 13q-54 10 -87 17
t-82.5 20.5t-79.5 27.5t-65.5 37t-55.5 50t-33.5 65t-13.5 84q0 130 96.5 207t268.5 77q154 0 268 -71l42 71h70l6 -266h-69q-49 79 -129 124.5t-189 45.5q-84 0 -135 -27.5t-51 -85.5q0 -21 6 -36.5t23 -27.5t33 -20t50 -16.5t58.5 -13t74.5 -13.5z" />
    <glyph glyph-name="t" unicode="t" horiz-adv-x="746" 
d="M436 -32q-126 0 -198 73t-72 226v521h-146v95h68q107 0 176.5 65.5t69.5 172.5v87h91v-325h273v-95h-273v-481q0 -116 21.5 -167t78.5 -51q41 0 71 28t37 87h76q-3 -54 -23 -97t-48.5 -68.5t-66 -42t-70.5 -22.5t-65 -6z" />
    <glyph glyph-name="u" unicode="u" horiz-adv-x="1197" 
d="M447 -32q-134 0 -212 81t-78 239v378q0 62 -22 92t-73 30h-46v95h402v-590q0 -180 126 -180q113 0 218 215v338q0 122 -71 122h-53v95h386v-666q0 -62 17 -91.5t74 -24.5l54 9l1 -95l-408 -42v202q-63 -93 -144.5 -150t-170.5 -57z" />
    <glyph glyph-name="v" unicode="v" horiz-adv-x="1009" 
d="M724 883h308v-95h-24q-37 0 -62 -33.5t-66 -126.5l-297 -646h-153l-298 668q-39 87 -62.5 112.5t-59.5 25.5h-33v95h502v-95h-47q-61 0 -63 -36t27 -84q1 -3 2 -4.5t2 -4.5t2 -5l188 -435l193 433q31 74 32 94q2 38 -41 42h-11h-39v95z" />
    <glyph glyph-name="w" unicode="w" horiz-adv-x="1572" 
d="M1243 883h350v-95h-34q-38 0 -61.5 -30.5t-45.5 -90.5l-258 -686h-152l-252 644l-246 -644h-154l-259 688q-27 70 -49.5 94.5t-60.5 24.5h-42v95h518v-95h-50q-57 0 -67.5 -24t12.5 -84l158 -432l250 641h147l251 -644l140 392q13 37 18.5 57t7.5 41.5t-6.5 31
t-26.5 15.5t-49 6h-39v95z" />
    <glyph glyph-name="x" unicode="x" horiz-adv-x="1097" 
d="M32 0v95h31q73 0 173 102l199 208l-223 257q-101 126 -154 126h-30v95h529v-95h-44q-32 0 -41.5 -10.5t-2.5 -28t29 -47.5l116 -138l123 132q84 92 -13 92h-27v95h339v-95h-36q-54 0 -162 -114l-170 -175l201 -230q65 -80 116 -127t75 -47h23v-95h-534v95h46
q54 0 60 21.5t-27 62.5l-132 161l-141 -149q-21 -24 -32.5 -40t-14.5 -29.5t9.5 -20t40.5 -6.5h45v-95h-371z" />
    <glyph glyph-name="y" unicode="y" horiz-adv-x="1013" 
d="M220 -525q-55 -1 -88 31t-34 79q0 79 110 107q86 21 143.5 60.5t97.5 130.5l39 91l-373 699q-38 73 -57 94t-53 21h-30v95h490v-95h-43q-50 0 -51.5 -32t26.5 -79l217 -441l166 394q11 27 16.5 43t11 37t4.5 33t-6 23.5t-18 16.5t-34 5h-44v95h325v-95h-21
q-36 0 -62.5 -32t-65.5 -125l-359 -822q-78 -177 -142 -253t-165 -81z" />
    <glyph glyph-name="z" unicode="z" horiz-adv-x="987" 
d="M819 297l90 -1l-25 -296h-822v89l512 699h-269q-38 0 -58 -17.5t-43 -83.5l-21 -78l-93 2l23 272h784v-96l-511 -692h273q22 0 36 3t31.5 12.5t33.5 32.5t31 60z" />
    <glyph glyph-name="braceleft" unicode="{" horiz-adv-x="566" 
d="M550 1333q-113 -15 -169.5 -72.5t-57.5 -146.5q0 -60 26.5 -181.5t26.5 -175.5q0 -51 -17 -100.5t-52 -95.5t-98 -80.5t-147 -47.5q141 -27 228.5 -110.5t87.5 -215.5q0 -49 -27.5 -165t-27.5 -185q0 -60 22 -104.5t58 -68.5t72.5 -36t74.5 -15v-48q-82 -2 -151 18
t-115 54t-78.5 79t-47 91.5t-14.5 92.5q1 63 30 185t29 177q0 59 -19.5 102t-51 65.5t-59.5 32.5t-58 14v72q50 8 87 29t55.5 44.5t29.5 54.5t13.5 51.5t2.5 42.5q0 57 -29 175t-28 176q0 17 3.5 38.5t14 54.5t28 64t48.5 64t72 57.5t102.5 41t135.5 18.5v-46z" />
    <glyph glyph-name="bar" unicode="|" horiz-adv-x="636" 
d="M211 -483v1835h214v-1835h-214z" />
    <glyph glyph-name="braceright" unicode="}" horiz-adv-x="566" 
d="M551 396q-30 -4 -58 -14t-59.5 -32.5t-51 -65.5t-19.5 -102q0 -55 29 -177t30 -185q0 -46 -14.5 -92.5t-47 -91.5t-78.5 -79t-115 -54t-151 -18v48q38 3 74.5 15t72.5 36t58 68.5t22 104.5q0 69 -27.5 185t-27.5 165q0 132 87.5 215.5t228.5 110.5q-84 13 -147 47.5
t-98 80.5t-52 95.5t-17 100.5q0 54 26.5 175.5t26.5 181.5q-1 89 -57.5 146.5t-169.5 72.5v46q74 -2 135.5 -18.5t102.5 -41t72 -57.5t48.5 -64t28 -64t14 -54.5t3.5 -38.5q1 -58 -28 -176t-29 -175q0 -22 2.5 -42.5t13.5 -51.5t29.5 -54.5t55.5 -44.5t87 -29v-72z" />
    <glyph glyph-name="asciitilde" unicode="~" horiz-adv-x="1346" 
d="M145 498q1 25 3.5 50.5t10.5 62.5t20 69.5t34 66.5t50.5 58t72 39.5t95.5 15.5q57 0 127.5 -21t215.5 -89q84 -42 120 -55.5t73 -13.5q70 0 114.5 47t51.5 133h71q0 -71 -17.5 -134.5t-51.5 -115t-91.5 -82t-130.5 -30.5q-72 0 -136 22.5t-208 91.5q-123 63 -188 63
q-73 0 -115 -46t-50 -132h-71z" />
    <glyph glyph-name="uni00A0" unicode="&#xa0;" horiz-adv-x="538" 
 />
    <glyph glyph-name="exclamdown" unicode="&#xa1;" horiz-adv-x="581" 
d="M291 916q65 0 110.5 -46.5t45.5 -113.5q0 -66 -45.5 -112t-110.5 -46t-111 46t-46 112q0 67 46.5 113.5t110.5 46.5zM244 437h93l65 -665q15 -114 15 -143q0 -18 -1.5 -31t-8.5 -32t-19.5 -31.5t-37.5 -21.5t-60 -9t-60.5 9t-38 21.5t-19.5 32t-8 32t-1 30.5q0 35 12 159
z" />
    <glyph glyph-name="cent" unicode="&#xa2;" horiz-adv-x="1012" 
d="M848 473l86 -40q-20 -43 -39.5 -76t-52.5 -69.5t-72 -60t-96.5 -39t-126.5 -15.5q-27 0 -40 1l-71 -356h-73l73 366q-163 32 -262 151.5t-99 296.5q0 216 145 351.5t357 135.5q15 0 45 -2l67 335h73l-69 -345q91 -18 153 -66t68 -128q1 -48 -25.5 -81.5t-73.5 -34.5
q-30 0 -52 12.5t-34 34t-18 39.5t-10 39q-14 38 -33 59l-137 -685q31 -9 68 -9q55 0 100.5 19t74 50t46 59t28.5 58zM350 686q0 -268 115 -357l138 691q-16 4 -39 4q-52 0 -91.5 -25t-62 -61t-37 -84.5t-19 -88.5t-4.5 -79z" />
    <glyph glyph-name="sterling" unicode="&#xa3;" horiz-adv-x="1472" 
d="M189 -39q-36 0 -70 26q-37 28 -34 69q2 16 8.5 32t18 32t22 30t27.5 29t28 25.5t29.5 24.5t27 20t24.5 17.5t18 12.5q69 145 116 335h-311l34 130h306q43 173 73 255q35 96 80 166t91 110t105 63t110.5 30t119.5 7q132 0 216 -53.5t93 -136.5q1 -41 -28 -70.5t-69 -30.5
q-68 -1 -114 86q-53 102 -152 102q-24 0 -45.5 -5.5t-37.5 -12t-31.5 -22.5t-26 -27.5t-22.5 -37t-18.5 -40.5t-17 -48t-15 -50t-15.5 -56q-49 -176 -70 -229h338l-31 -130h-360q-52 -134 -135 -259q58 30 121 30q41 0 78.5 -11.5t76 -38.5t61.5 -46.5t65 -59.5
q76 -72 121.5 -99.5t97.5 -27.5t84 31.5t38 71.5q3 24 -14 81t-19 91q-2 46 21.5 73.5t65.5 28.5q51 1 80.5 -34t31.5 -85q4 -60 -22 -129q-40 -112 -145 -189.5t-233 -77.5q-57 0 -105.5 13.5t-89.5 41t-65.5 49t-60.5 57.5q-37 37 -59 56.5t-54 36.5t-61 17q-50 0 -98 -42
q-9 -17 -26.5 -50t-28 -54t-28.5 -48t-33.5 -42.5t-37 -26.5t-44.5 -11z" />
    <glyph glyph-name="currency" unicode="&#xa4;" horiz-adv-x="1218" 
d="M228 279l-73 76l132 129q-79 129 -79 240q0 113 80 242l-133 131l73 76l138 -132q125 82 242 82q119 0 245 -82l136 132l74 -76l-133 -131q82 -129 82 -242q0 -106 -81 -240l132 -129l-74 -76l-136 132q-126 -82 -245 -82t-243 81zM608 434q122 0 209 86t87 206
q0 122 -89 207t-207 85q-120 0 -205.5 -86t-85.5 -206t85.5 -206t205.5 -86z" />
    <glyph glyph-name="yen" unicode="&#xa5;" horiz-adv-x="1448" 
d="M401 0v95h79q70 0 94.5 34t24.5 109v102h-421v87h421v102l-27 49h-394v87h345l-253 447q-23 44 -35.5 64t-31 43.5t-37.5 32t-44 8.5h-46v95h580v-95h-56q-61 0 -68.5 -41t29.5 -100l260 -454l241 422q40 71 27 122t-83 51h-52v95h411v-95h-23q-73 0 -157 -149l-258 -446
h359v-87h-402l-25 -38v-113h427v-87h-427v-102q0 -76 22.5 -109.5t90.5 -33.5h83v-95h-654z" />
    <glyph glyph-name="brokenbar" unicode="&#xa6;" horiz-adv-x="1123" 
d="M454 566v789h215v-789h-215zM454 -483v791h215v-791h-215z" />
    <glyph glyph-name="section" unicode="&#xa7;" horiz-adv-x="1084" 
d="M521 -500q-149 0 -251 68.5t-104 176.5q0 56 33.5 83.5t71.5 27.5q79 0 105 -98q18 -84 59 -123t123 -39q76 0 125 40.5t49 108.5q0 28 -6 50.5t-22.5 44.5t-32.5 38.5t-49 40t-58.5 39.5t-74 47t-83.5 54q-168 109 -244.5 204.5t-76.5 213.5q0 33 6.5 65.5t24 68.5
t45.5 65.5t74.5 53t106.5 34.5q-175 120 -175 289q0 150 114.5 236t283.5 86q155 0 253.5 -71t100.5 -170q1 -49 -33 -78.5t-76 -29.5q-25 0 -42.5 8t-29.5 25t-18.5 32t-14.5 42q-16 71 -57 109t-123 38q-85 0 -133 -42t-48 -109q0 -31 12.5 -58.5t31 -50t54.5 -49t69 -47
t88 -53.5q15 -9 22 -13q79 -48 126.5 -79.5t100.5 -76.5t81 -86t46.5 -96t18.5 -119q0 -248 -245 -295q79 -57 122 -133.5t43 -157.5q0 -101 -58.5 -174.5t-146 -107t-188.5 -33.5zM674 190q71 -6 114 32.5t43 94.5q0 60 -71 143t-171.5 148.5t-181.5 81.5q-77 6 -118.5 -32
t-41.5 -96t68 -140t169.5 -149t189.5 -83z" />
    <glyph glyph-name="dieresis" unicode="&#xa8;" horiz-adv-x="832" 
d="M213 1106q-50 0 -86.5 36.5t-36.5 86.5t36 86.5t87 36.5t87 -36t36 -87q0 -53 -36 -88t-87 -35zM617 1106q-50 0 -86.5 36t-36.5 87t36 87t87 36t87 -36.5t36 -86.5q0 -52 -36 -87.5t-87 -35.5z" />
    <glyph glyph-name="copyright" unicode="&#xa9;" horiz-adv-x="1595" 
d="M796 -33q-191 0 -353.5 94.5t-257 257t-94.5 354.5t95.5 355t257.5 257t352 94q143 0 274 -55.5t226 -150t151.5 -225.5t56.5 -275t-56 -274.5t-151 -225t-226 -150.5t-275 -56zM796 44q128 0 244.5 50t200.5 134.5t134 201t50 243.5q0 128 -50 244.5t-134.5 200.5
t-201 133.5t-243.5 49.5q-169 0 -313 -83.5t-228.5 -228.5t-84.5 -316t83.5 -315.5t228 -229t314.5 -84.5zM799 251q-111 0 -204.5 46t-154 142t-60.5 225q0 194 125.5 315.5t307.5 121.5q53 0 101.5 -11t90.5 -27.5t51 -18.5q45 -8 50 45h39v-241h-39q-15 60 -47 103.5
t-71.5 64t-74 29.5t-66.5 9q-64 0 -115 -24.5t-81.5 -62.5t-51 -89t-28 -98.5t-7.5 -95.5q0 -176 72 -277t208 -101q68 0 129 28.5t93.5 61t53.5 67.5l8 -59q-58 -75 -144 -114t-185 -39z" />
    <glyph glyph-name="guillemotleft" unicode="&#xab;" horiz-adv-x="1061" 
d="M375 0l-369 440l368 441h99l-231 -441l233 -440h-100zM897 0l-371 440l368 441h101l-231 -441l231 -440h-98z" />
    <glyph glyph-name="logicalnot" unicode="&#xac;" horiz-adv-x="1379" 
d="M1000 334v494h-920v171h1091v-665h-171z" />
    <glyph glyph-name="uni00AD" unicode="&#xad;" horiz-adv-x="852" 
d="M130 298v219h592v-219h-592z" />
    <glyph glyph-name="registered" unicode="&#xae;" horiz-adv-x="1595" 
d="M796 1382q143 0 274 -55.5t226 -150t151.5 -225.5t56.5 -275q0 -143 -56 -274t-151 -225.5t-226 -150.5t-275 -56q-191 0 -353.5 94.5t-257 257t-94.5 354.5t95.5 355t257.5 257t352 94zM796 48q128 0 244.5 50t200.5 134t134 200.5t50 243.5q0 128 -50 244.5
t-134.5 200.5t-201 133.5t-243.5 49.5q-169 0 -313 -83.5t-228.5 -228t-84.5 -316.5q0 -128 49.5 -244t133.5 -200.5t200 -134t243 -49.5zM1141 398q31 -47 66 -47h32v-51h-179l-156 252q-35 56 -60 74.5t-65 18.5h-94v-228q0 -37 12.5 -51.5t49.5 -14.5h47v-51h-350v51h45
q40 0 52.5 14t12.5 52v532q0 36 -12 51.5t-48 15.5h-50v49h390q123 0 197 -50t74 -158q0 -75 -42 -118.5t-118 -68.5q39 -31 84 -101zM796 697q174 0 174 155q0 153 -169 153h-116v-308h111z" />
    <glyph glyph-name="macron" unicode="&#xaf;" horiz-adv-x="982" 
d="M129 1070v186h725v-186h-725z" />
    <glyph glyph-name="degree" unicode="&#xb0;" horiz-adv-x="966" 
d="M482 654q-151 0 -257.5 106.5t-106.5 257.5t106.5 257.5t257.5 106.5t257.5 -106.5t106.5 -257.5t-106.5 -257.5t-257.5 -106.5zM482 784q97 0 165.5 68.5t68.5 165.5t-68.5 165.5t-165.5 68.5t-165.5 -68.5t-68.5 -165.5q0 -98 68 -166t166 -68z" />
    <glyph glyph-name="plusminus" unicode="&#xb1;" horiz-adv-x="1292" 
d="M560 358v470h-469v171h469v469h172v-469h469v-171h-469v-470h-172zM91 0v171h1110v-171h-1110z" />
    <glyph glyph-name="acute" unicode="&#xb4;" horiz-adv-x="565" 
d="M126 1030h-76l176 322h338v-4z" />
    <glyph glyph-name="uni00B5" unicode="&#xb5;" horiz-adv-x="1316" 
d="M231 -422v1088q0 62 -22 92t-73 30h-46v95h402v-590q0 -180 126 -180q113 0 218 215v338q0 122 -71 122h-53v95h386v-666q0 -62 17 -91.5t74 -24.5l54 9l1 -95l-408 -42v202q-88 -139 -196 -172q-91 -28 -148 -9v-416h-261z" />
    <glyph glyph-name="paragraph" unicode="&#xb6;" horiz-adv-x="1158" 
d="M551 -510v998q-50 12 -82.5 20.5t-79 22.5t-78 27.5t-70 34t-64 43t-51.5 53t-41.5 65.5t-25 79.5t-9.5 95.5q0 86 19 152.5t58 113t90.5 77.5t126 48.5t154.5 24.5t184 7h440v-43h-45q-53 0 -85.5 -13.5t-48 -44t-20 -62.5t-4.5 -85v-1614h-86v1794h-195v-1794h-87z" />
    <glyph glyph-name="periodcentered" unicode="&#xb7;" horiz-adv-x="600" 
d="M300 516q-65 0 -112 46.5t-47 113.5q0 66 46 112t113 46q65 0 111.5 -46t46.5 -112q0 -68 -46 -114t-112 -46z" />
    <glyph glyph-name="cedilla" unicode="&#xb8;" horiz-adv-x="585" 
d="M227 -485q-108 0 -202 23l17 95q70 -12 150 -12q107 0 157 27t50 65q0 16 -11 28t-34 18.5t-41.5 11t-51.5 6t-45 1.5h-39l46 254l108 -6l-27 -134q106 -1 173.5 -46.5t67.5 -123.5q0 -37 -17.5 -72t-53 -66t-99.5 -50t-148 -19z" />
    <glyph glyph-name="guillemotright" unicode="&#xbb;" horiz-adv-x="1061" 
d="M164 0h-98l231 440l-231 441h101l368 -441zM686 0h-100l233 440l-231 441h99l368 -441z" />
    <glyph glyph-name="questiondown" unicode="&#xbf;" horiz-adv-x="863" 
d="M550 598q-64 0 -109.5 46t-45.5 112q0 67 45.5 113.5t109.5 46.5t110 -46.5t46 -113.5q0 -66 -45.5 -112t-110.5 -46zM727 -186q32 -1 60.5 -24t28.5 -60q-8 -88 -104 -157t-246 -69q-194 0 -305.5 115.5t-111.5 283.5q0 86 30.5 156.5t79.5 112.5t106 64.5t115 22.5
q59 0 118 -20v195h106v-320h-83q-28 31 -73 31q-35 0 -61.5 -18t-41.5 -43.5t-24 -58.5t-12 -58t-3 -47q0 -43 7.5 -90.5t25 -102.5t56.5 -90.5t93 -35.5q46 0 86.5 28.5t55.5 88.5q4 19 8.5 31t14.5 29.5t29 26.5t45 9z" />
    <glyph glyph-name="Agrave" unicode="&#xc0;" horiz-adv-x="1319" 
d="M700 1438h-76l-438 317v4h338zM1292 98l37 -3v-95h-602v95l87 3q30 2 46.5 17.5t7.5 42.5l-86 237h-438l-77 -216q-14 -39 13 -60t66 -22l73 -2v-95h-429v95l30 8q119 56 164 173l420 1103h107l419 -1103q15 -39 26 -62.5t30 -50.5t45 -42.5t61 -22.5zM379 493h367
l-168 464h-33z" />
    <glyph glyph-name="Aacute" unicode="&#xc1;" horiz-adv-x="1319" 
d="M1138 1755l-438 -317h-76l176 321h338v-4zM1292 98l37 -3v-95h-602v95l87 3q30 2 46.5 17.5t7.5 42.5l-86 237h-438l-77 -216q-14 -39 13 -60t66 -22l73 -2v-95h-429v95l30 8q119 56 164 173l420 1103h107l419 -1103q15 -39 26 -62.5t30 -50.5t45 -42.5t61 -22.5z
M379 493h367l-168 464h-33z" />
    <glyph glyph-name="Acircumflex" unicode="&#xc2;" horiz-adv-x="1319" 
d="M662 1678l-280 -208h-76l224 322h263l224 -322h-76zM1292 98l37 -3v-95h-602v95l87 3q30 2 46.5 17.5t7.5 42.5l-86 237h-438l-77 -216q-14 -39 13 -60t66 -22l73 -2v-95h-429v95l30 8q119 56 164 173l420 1103h107l419 -1103q15 -39 26 -62.5t30 -50.5t45 -42.5
t61 -22.5zM379 493h367l-168 464h-33z" />
    <glyph glyph-name="Atilde" unicode="&#xc3;" horiz-adv-x="1319" 
d="M390 1440h-73q-4 128 50.5 202.5t158.5 74.5q10 0 20.5 -1t22 -3t19.5 -3.5t21.5 -6t20 -6.5t21.5 -7.5t20 -7.5l22.5 -9t21.5 -9q9 -4 27.5 -12t25.5 -11t20 -7.5t23.5 -6t22.5 -1.5q39 0 66 28t31 84h75q8 -120 -45.5 -208.5t-157.5 -88.5q-73 0 -191 54
q-88 40 -132 40q-43 0 -65 -29.5t-25 -65.5zM1292 98l37 -3v-95h-602v95l87 3q30 2 46.5 17.5t7.5 42.5l-86 237h-438l-77 -216q-14 -39 13 -60t66 -22l73 -2v-95h-429v95l30 8q119 56 164 173l420 1103h107l419 -1103q15 -39 26 -62.5t30 -50.5t45 -42.5t61 -22.5zM379 493
h367l-168 464h-33z" />
    <glyph glyph-name="Adieresis" unicode="&#xc4;" horiz-adv-x="1319" 
d="M460 1483q-50 0 -86.5 36.5t-36.5 86.5t36 86.5t87 36.5t87 -36t36 -87q0 -53 -36 -88t-87 -35zM864 1483q-50 0 -86.5 36t-36.5 87t36 87t87 36t87 -36.5t36 -86.5q0 -52 -36 -87.5t-87 -35.5zM1292 98l37 -3v-95h-602v95l87 3q30 2 46.5 17.5t7.5 42.5l-86 237h-438
l-77 -216q-14 -39 13 -60t66 -22l73 -2v-95h-429v95l30 8q119 56 164 173l420 1103h107l419 -1103q15 -39 26 -62.5t30 -50.5t45 -42.5t61 -22.5zM379 493h367l-168 464h-33z" />
    <glyph glyph-name="Aring" unicode="&#xc5;" horiz-adv-x="1319" 
d="M662 1436q-80 0 -136 56t-56 136q0 79 56 135t136 56q79 0 135.5 -56t56.5 -135t-56.5 -135.5t-135.5 -56.5zM662 1751q-51 0 -86 -36t-35 -87t35 -86.5t86 -35.5q50 0 86 35.5t36 86.5t-36 87t-86 36zM1292 98l37 -3v-95h-602v95l87 3q30 2 46.5 17.5t7.5 42.5l-86 237
h-438l-77 -216q-14 -39 13 -60t66 -22l73 -2v-95h-429v95l30 8q119 56 164 173l420 1103h107l419 -1103q15 -39 26 -62.5t30 -50.5t45 -42.5t61 -22.5zM379 493h367l-168 464h-33z" />
    <glyph glyph-name="AE" unicode="&#xc6;" horiz-adv-x="1942" 
d="M1760 445l93 -1l-15 -444h-1188v95h71q69 0 92.5 35.5t23.5 107.5v157h-465l-105 -216q-19 -39 10 -60t69 -22l73 -2v-95h-429v95l30 8q38 19 66 41t48 49.5t27.5 40t22.5 42.5l537 1076h1043l19 -350l-93 -1l-34 128q-30 78 -70 99t-119 21h-347v-491h201q27 0 47.5 3
t40.5 11t31 26t11 45v89h97v-459h-97v81q0 61 -33 81t-94 20h-204v-389q0 -35 1.5 -54.5t8 -43.5t19.5 -36t37 -20.5t59 -8.5h230q81 0 127.5 15t67.5 42t37 78zM420 493h417l-3 756h-45z" />
    <glyph glyph-name="Ccedilla" unicode="&#xc7;" horiz-adv-x="1463" 
d="M1223 518h96v-499h-96l-44 176q-48 -80 -161.5 -148.5t-270.5 -73.5l-16 -81q106 -1 173.5 -46.5t67.5 -123.5q0 -37 -17.5 -72t-53 -66t-99.5 -50t-148 -19q-108 0 -202 23l17 95q70 -12 150 -12q107 0 157 27t50 65q0 16 -11 28t-34 18.5t-41.5 11t-51.5 6t-45 1.5h-39
l36 200q-110 13 -204 58.5t-161 113t-115 152.5t-71 178t-23 188q0 104 27 205.5t83 192.5t133.5 161t187.5 111t237 41q253 0 434 -215l32 167h93l10 -489h-92q-8 48 -28 101.5t-57.5 112.5t-85.5 105.5t-118 76.5t-149 30q-92 0 -162 -38t-111.5 -97.5t-67.5 -144.5
t-35 -168t-9 -179q0 -261 98 -409t296 -148q150 0 272.5 112t168.5 322z" />
    <glyph glyph-name="Egrave" unicode="&#xc8;" horiz-adv-x="1342" 
d="M709 1438h-76l-438 317v4h338zM1159 445l94 -1l-15 -444h-1188v95h71q69 0 92.5 36t23.5 107v876q0 78 -26 110.5t-109 32.5h-52v95h1114l19 -350l-94 -1l-33 128q-30 78 -70 99t-119 21h-348v-491h202q27 0 47.5 3t40.5 11t31 26t11 45v89h96v-459h-96v81q0 61 -33 81
t-94 20h-205v-389q0 -35 1.5 -54.5t8 -43.5t19.5 -36t37 -20.5t59 -8.5h230q117 0 163 29.5t70 105.5z" />
    <glyph glyph-name="Eacute" unicode="&#xc9;" horiz-adv-x="1342" 
d="M1147 1755l-438 -317h-76l176 321h338v-4zM1159 445l94 -1l-15 -444h-1188v95h71q69 0 92.5 36t23.5 107v876q0 78 -26 110.5t-109 32.5h-52v95h1114l19 -350l-94 -1l-33 128q-30 78 -70 99t-119 21h-348v-491h202q27 0 47.5 3t40.5 11t31 26t11 45v89h96v-459h-96v81
q0 61 -33 81t-94 20h-205v-389q0 -35 1.5 -54.5t8 -43.5t19.5 -36t37 -20.5t59 -8.5h230q117 0 163 29.5t70 105.5z" />
    <glyph glyph-name="Ecircumflex" unicode="&#xca;" horiz-adv-x="1342" 
d="M671 1678l-280 -208h-76l224 322h263l224 -322h-76zM1159 445l94 -1l-15 -444h-1188v95h71q69 0 92.5 36t23.5 107v876q0 78 -26 110.5t-109 32.5h-52v95h1114l19 -350l-94 -1l-33 128q-30 78 -70 99t-119 21h-348v-491h202q27 0 47.5 3t40.5 11t31 26t11 45v89h96v-459
h-96v81q0 61 -33 81t-94 20h-205v-389q0 -35 1.5 -54.5t8 -43.5t19.5 -36t37 -20.5t59 -8.5h230q117 0 163 29.5t70 105.5z" />
    <glyph glyph-name="Edieresis" unicode="&#xcb;" horiz-adv-x="1342" 
d="M469 1483q-50 0 -86.5 36.5t-36.5 86.5t36 86.5t87 36.5t87 -36t36 -87q0 -53 -36 -88t-87 -35zM873 1483q-50 0 -86.5 36t-36.5 87t36 87t87 36t87 -36.5t36 -86.5q0 -52 -36 -87.5t-87 -35.5zM1159 445l94 -1l-15 -444h-1188v95h71q69 0 92.5 36t23.5 107v876
q0 78 -26 110.5t-109 32.5h-52v95h1114l19 -350l-94 -1l-33 128q-30 78 -70 99t-119 21h-348v-491h202q27 0 47.5 3t40.5 11t31 26t11 45v89h96v-459h-96v81q0 61 -33 81t-94 20h-205v-389q0 -35 1.5 -54.5t8 -43.5t19.5 -36t37 -20.5t59 -8.5h230q117 0 163 29.5t70 105.5z
" />
    <glyph glyph-name="Igrave" unicode="&#xcc;" horiz-adv-x="778" 
d="M352 1438l-438 317v4h338l176 -321h-76zM53 0v95h56q86 0 112 33t26 110v879q0 77 -26 110t-112 33h-56v95h672v-95h-54q-88 0 -114.5 -31.5t-26.5 -111.5v-879q0 -80 26.5 -111.5t114.5 -31.5h54v-95h-672z" />
    <glyph glyph-name="Iacute" unicode="&#xcd;" horiz-adv-x="778" 
d="M352 1438l176 321h338v-4l-438 -317h-76zM53 0v95h56q86 0 112 33t26 110v879q0 77 -26 110t-112 33h-56v95h672v-95h-54q-88 0 -114.5 -31.5t-26.5 -111.5v-879q0 -80 26.5 -111.5t114.5 -31.5h54v-95h-672z" />
    <glyph glyph-name="Icircumflex" unicode="&#xce;" horiz-adv-x="778" 
d="M34 1470l224 322h263l224 -322h-76l-279 208l-280 -208h-76zM53 0v95h56q86 0 112 33t26 110v879q0 77 -26 110t-112 33h-56v95h672v-95h-54q-88 0 -114.5 -31.5t-26.5 -111.5v-879q0 -80 26.5 -111.5t114.5 -31.5h54v-95h-672z" />
    <glyph glyph-name="Idieresis" unicode="&#xcf;" horiz-adv-x="778" 
d="M188 1483q-50 0 -86.5 36.5t-36.5 86.5t36 86.5t87 36.5t87 -36t36 -87q0 -53 -36 -88t-87 -35zM592 1483q-50 0 -86.5 36t-36.5 87t36 87t87 36t87 -36.5t36 -86.5q0 -52 -36 -87.5t-87 -35.5zM53 0v95h56q86 0 112 33t26 110v879q0 77 -26 110t-112 33h-56v95h672v-95
h-54q-88 0 -114.5 -31.5t-26.5 -111.5v-879q0 -80 26.5 -111.5t114.5 -31.5h54v-95h-672z" />
    <glyph glyph-name="Eth" unicode="&#xd0;" horiz-adv-x="1535" 
d="M609 1352q161 0 291 -22.5t237.5 -72.5t179 -128.5t111 -193.5t39.5 -263q0 -152 -40 -267t-111.5 -191.5t-180 -124.5t-236.5 -68.5t-290 -20.5h-556v95h84q58 0 78 36.5t20 106.5v385h-175v103h175v391q0 71 -20 107t-81 36h-81v92h556zM792 103q115 0 196.5 79.5
t119 205.5t37.5 285q0 133 -27.5 237t-73 169.5t-107.5 108.5t-126 60t-135 17h-158v-539h359v-103h-359v-355q0 -35 1.5 -54t9 -44t22 -37t42.5 -21t69 -9h130z" />
    <glyph glyph-name="Ntilde" unicode="&#xd1;" horiz-adv-x="1526" 
d="M500 1440h-73q-4 128 50.5 202.5t158.5 74.5q10 0 20.5 -1t22 -3t19.5 -3.5t21.5 -6t20 -6.5t21.5 -7.5t20 -7.5l22.5 -9t21.5 -9q9 -4 27.5 -12t25.5 -11t20 -7.5t23.5 -6t22.5 -1.5q39 0 66 28t31 84h75q8 -120 -45.5 -208.5t-157.5 -88.5q-73 0 -191 54
q-88 40 -132 40q-43 0 -65 -29.5t-25 -65.5zM1026 1352h471v-95h-53q-45 0 -73.5 -28.5t-38.5 -68.5t-10 -92v-1091h-110l-867 1067v-752q0 -30 1.5 -50.5t9.5 -51t22 -49t42.5 -32.5t67.5 -14h50v-95h-487v95h52q139 0 136 191v6v790q0 80 -36.5 127.5t-109.5 47.5h-47v95
h416l753 -927v645q0 187 -136 187h-53v95z" />
    <glyph glyph-name="Ograve" unicode="&#xd2;" horiz-adv-x="1542" 
d="M733 1438l-438 317v4h338l176 -321h-76zM772 -27q-162 0 -295.5 53.5t-223.5 148.5t-139 225t-49 281q0 100 26.5 198.5t84 189t138 159.5t197.5 110t254 41q147 0 268 -42.5t201.5 -112.5t136.5 -163t80.5 -190.5t24.5 -197.5q0 -106 -27 -206t-84 -190t-138.5 -157.5
t-198.5 -107t-256 -39.5zM765 84q189 0 284 144t95 447q0 307 -98.5 450t-277.5 143q-99 0 -172.5 -44t-117 -124t-64 -182.5t-20.5 -228.5q0 -86 9 -164.5t34.5 -161.5t65.5 -142.5t107.5 -98t154.5 -38.5z" />
    <glyph glyph-name="Oacute" unicode="&#xd3;" horiz-adv-x="1542" 
d="M733 1438l176 321h338v-4l-438 -317h-76zM772 -27q-162 0 -295.5 53.5t-223.5 148.5t-139 225t-49 281q0 100 26.5 198.5t84 189t138 159.5t197.5 110t254 41q147 0 268 -42.5t201.5 -112.5t136.5 -163t80.5 -190.5t24.5 -197.5q0 -106 -27 -206t-84 -190t-138.5 -157.5
t-198.5 -107t-256 -39.5zM765 84q189 0 284 144t95 447q0 307 -98.5 450t-277.5 143q-99 0 -172.5 -44t-117 -124t-64 -182.5t-20.5 -228.5q0 -86 9 -164.5t34.5 -161.5t65.5 -142.5t107.5 -98t154.5 -38.5z" />
    <glyph glyph-name="Ocircumflex" unicode="&#xd4;" horiz-adv-x="1542" 
d="M415 1470l224 322h263l224 -322h-76l-279 208l-280 -208h-76zM772 -27q-162 0 -295.5 53.5t-223.5 148.5t-139 225t-49 281q0 100 26.5 198.5t84 189t138 159.5t197.5 110t254 41q147 0 268 -42.5t201.5 -112.5t136.5 -163t80.5 -190.5t24.5 -197.5q0 -106 -27 -206
t-84 -190t-138.5 -157.5t-198.5 -107t-256 -39.5zM765 84q189 0 284 144t95 447q0 307 -98.5 450t-277.5 143q-99 0 -172.5 -44t-117 -124t-64 -182.5t-20.5 -228.5q0 -86 9 -164.5t34.5 -161.5t65.5 -142.5t107.5 -98t154.5 -38.5z" />
    <glyph glyph-name="Otilde" unicode="&#xd5;" horiz-adv-x="1542" 
d="M426 1440q-4 128 50.5 202.5t158.5 74.5q10 0 20.5 -1t22 -3t19.5 -3.5t21.5 -6t20 -6.5t21.5 -7.5t20 -7.5l22.5 -9t21.5 -9q9 -4 27.5 -12t25.5 -11t20 -7.5t23.5 -6t22.5 -1.5q39 0 66 28t31 84h75q8 -120 -45.5 -208.5t-157.5 -88.5q-73 0 -191 54q-88 40 -132 40
q-43 0 -65 -29.5t-25 -65.5h-73zM772 -27q-162 0 -295.5 53.5t-223.5 148.5t-139 225t-49 281q0 100 26.5 198.5t84 189t138 159.5t197.5 110t254 41q147 0 268 -42.5t201.5 -112.5t136.5 -163t80.5 -190.5t24.5 -197.5q0 -106 -27 -206t-84 -190t-138.5 -157.5t-198.5 -107
t-256 -39.5zM765 84q189 0 284 144t95 447q0 307 -98.5 450t-277.5 143q-99 0 -172.5 -44t-117 -124t-64 -182.5t-20.5 -228.5q0 -86 9 -164.5t34.5 -161.5t65.5 -142.5t107.5 -98t154.5 -38.5z" />
    <glyph glyph-name="Odieresis" unicode="&#xd6;" horiz-adv-x="1542" 
d="M569 1483q-50 0 -86.5 36.5t-36.5 86.5t36 86.5t87 36.5t87 -36t36 -87q0 -53 -36 -88t-87 -35zM973 1483q-50 0 -86.5 36t-36.5 87t36 87t87 36t87 -36.5t36 -86.5q0 -52 -36 -87.5t-87 -35.5zM772 -27q-162 0 -295.5 53.5t-223.5 148.5t-139 225t-49 281
q0 100 26.5 198.5t84 189t138 159.5t197.5 110t254 41q147 0 268 -42.5t201.5 -112.5t136.5 -163t80.5 -190.5t24.5 -197.5q0 -106 -27 -206t-84 -190t-138.5 -157.5t-198.5 -107t-256 -39.5zM765 84q189 0 284 144t95 447q0 307 -98.5 450t-277.5 143q-99 0 -172.5 -44
t-117 -124t-64 -182.5t-20.5 -228.5q0 -86 9 -164.5t34.5 -161.5t65.5 -142.5t107.5 -98t154.5 -38.5z" />
    <glyph glyph-name="multiply" unicode="&#xd7;" horiz-adv-x="1068" 
d="M202 213l-121 123l331 331l-331 332l121 121l333 -332l331 332l121 -121l-331 -332l331 -331l-121 -123l-331 333z" />
    <glyph glyph-name="Oslash" unicode="&#xd8;" horiz-adv-x="1542" 
d="M1279 1182q98 -101 147.5 -235.5t49.5 -273.5q0 -106 -27 -206t-84 -190t-138.5 -157.5t-198.5 -107t-256 -39.5q-257 0 -438 132l-113 -129l-74 62l114 129q-95 95 -145.5 227t-50.5 287q0 100 26.5 198.5t84 189t138 159.5t197.5 110t254 41q263 0 444 -135l116 132
l69 -64zM394 689q0 -188 42 -323l633 719q-94 183 -301 183q-99 0 -172.5 -44t-117 -124t-64 -182.5t-20.5 -228.5zM765 84q189 0 284 144t95 447q0 184 -37 310l-631 -719q95 -182 289 -182z" />
    <glyph glyph-name="Ugrave" unicode="&#xd9;" horiz-adv-x="1482" 
d="M703 1438l-438 317v4h338l176 -321h-76zM750 -27q-272 0 -414 140t-142 415v586q0 76 -25 109.5t-110 33.5h-45v95h663v-95h-64q-82 0 -109 -32t-27 -111v-586q0 -104 18 -182t57.5 -136t106.5 -88t162 -30q104 0 176.5 32t113.5 95t58.5 144.5t17.5 193.5v524
q0 79 -34.5 127.5t-112.5 48.5h-46v95h470v-95h-46q-66 0 -95.5 -48t-29.5 -125v-530q0 -288 -132.5 -434.5t-410.5 -146.5z" />
    <glyph glyph-name="Uacute" unicode="&#xda;" horiz-adv-x="1482" 
d="M703 1438l176 321h338v-4l-438 -317h-76zM750 -27q-272 0 -414 140t-142 415v586q0 76 -25 109.5t-110 33.5h-45v95h663v-95h-64q-82 0 -109 -32t-27 -111v-586q0 -104 18 -182t57.5 -136t106.5 -88t162 -30q104 0 176.5 32t113.5 95t58.5 144.5t17.5 193.5v524
q0 79 -34.5 127.5t-112.5 48.5h-46v95h470v-95h-46q-66 0 -95.5 -48t-29.5 -125v-530q0 -288 -132.5 -434.5t-410.5 -146.5z" />
    <glyph glyph-name="Ucircumflex" unicode="&#xdb;" horiz-adv-x="1482" 
d="M385 1470l224 322h263l224 -322h-76l-279 208l-280 -208h-76zM750 -27q-272 0 -414 140t-142 415v586q0 76 -25 109.5t-110 33.5h-45v95h663v-95h-64q-82 0 -109 -32t-27 -111v-586q0 -104 18 -182t57.5 -136t106.5 -88t162 -30q104 0 176.5 32t113.5 95t58.5 144.5
t17.5 193.5v524q0 79 -34.5 127.5t-112.5 48.5h-46v95h470v-95h-46q-66 0 -95.5 -48t-29.5 -125v-530q0 -288 -132.5 -434.5t-410.5 -146.5z" />
    <glyph glyph-name="Udieresis" unicode="&#xdc;" horiz-adv-x="1482" 
d="M539 1483q-50 0 -86.5 36.5t-36.5 86.5t36 86.5t87 36.5t87 -36t36 -87q0 -53 -36 -88t-87 -35zM943 1483q-50 0 -86.5 36t-36.5 87t36 87t87 36t87 -36.5t36 -86.5q0 -52 -36 -87.5t-87 -35.5zM750 -27q-272 0 -414 140t-142 415v586q0 76 -25 109.5t-110 33.5h-45v95
h663v-95h-64q-82 0 -109 -32t-27 -111v-586q0 -104 18 -182t57.5 -136t106.5 -88t162 -30q104 0 176.5 32t113.5 95t58.5 144.5t17.5 193.5v524q0 79 -34.5 127.5t-112.5 48.5h-46v95h470v-95h-46q-66 0 -95.5 -48t-29.5 -125v-530q0 -288 -132.5 -434.5t-410.5 -146.5z" />
    <glyph glyph-name="Yacute" unicode="&#xdd;" horiz-adv-x="1333" 
d="M629 1438l176 321h338v-4l-438 -317h-76zM328 0v95h72q44 0 71.5 9t40.5 30t16.5 43t3.5 59v293l-338 580q-47 80 -79.5 114t-78.5 34h-48v95h619v-95h-61q-32 0 -48.5 -11.5t-17.5 -32t7.5 -44.5t25.5 -53l263 -451l238 407q47 82 34 133.5t-88 51.5h-46v95h430v-95h-36
q-70 0 -158 -153l-334 -558l-2 -308q0 -77 24.5 -110t108.5 -33h71v-95h-690z" />
    <glyph glyph-name="Thorn" unicode="&#xde;" horiz-adv-x="1256" 
d="M52 0v95h44q86 0 111.5 33t25.5 110v879q0 77 -25.5 110t-111.5 33h-43v95h645v-95h-41q-141 0 -141 -87v-51h129q82 -1 149.5 -7t136.5 -20.5t120.5 -41.5t92.5 -66t62.5 -98t21.5 -134q0 -104 -42 -178.5t-119 -117t-172.5 -61.5t-216.5 -19h-157v-141q0 -35 3 -55
t15.5 -43t42.5 -34t78 -11h54v-95h-662zM521 482h132q42 0 76.5 5.5t71.5 22.5t62.5 45.5t42 78t16.5 116.5q0 281 -266 281h-135v-549z" />
    <glyph glyph-name="germandbls" unicode="&#xdf;" horiz-adv-x="1218" 
d="M828 -20q-59 0 -101.5 18t-62.5 46t-28.5 52.5t-8.5 47.5q0 25 12 40t30 15q13 0 21.5 -10t10.5 -24q10 -97 81 -97q33 0 54.5 19.5t33.5 59.5t16.5 89t4.5 120q0 56 -6.5 100t-25.5 85t-50.5 68t-83 42.5t-120.5 14.5v95q36 1 62 5.5t59 20.5t53.5 43t35 77t14.5 119
q0 272 -201 272q-43 0 -75.5 -10t-54 -31t-36 -46.5t-21.5 -62.5t-10 -73.5t-3 -85.5l3 -790q0 -34 3.5 -53.5t18.5 -35t44 -15.5h63v-95h-528v95h44q61 0 78 28t17 92l-3 650q0 61 2.5 104t12.5 102.5t28 101.5t52.5 87t82 72.5t120 45.5t164.5 18q118 0 207 -28.5
t141 -78.5t77 -113.5t25 -139.5q0 -60 -21 -112t-51 -85.5t-69 -60.5t-69 -40t-56 -20q165 -8 256 -92t91 -253q0 -177 -94 -285t-239 -108z" />
    <glyph glyph-name="agrave" unicode="&#xe0;" horiz-adv-x="1064" 
d="M513 1030l-438 318v4h338l176 -322h-76zM295 -20q-66 0 -113 18t-70 49t-32.5 62.5t-9.5 67.5q0 53 21 97t64 81t90.5 66t119.5 63l244 117q0 133 -30 175t-125 42q-48 0 -81 -12t-50.5 -35.5t-24.5 -40t-14 -42.5q-18 -100 -109 -99q-49 1 -74 28.5t-25 67.5
q6 93 118 161t320 68q110 0 182 -19t109.5 -59.5t51 -90t13.5 -122.5v-392q0 -61 13 -94.5t49 -33.5q54 0 64 92h74q-4 -108 -66 -161.5t-163 -53.5q-84 0 -136.5 38t-79.5 115q-159 -153 -330 -153zM414 105q49 0 100.5 34.5t96.5 97.5l-1 263l-198 -123q-94 -58 -94 -149
q0 -60 25.5 -91.5t70.5 -31.5z" />
    <glyph glyph-name="aacute" unicode="&#xe1;" horiz-adv-x="1064" 
d="M513 1030h-76l176 322h338v-4zM295 -20q-66 0 -113 18t-70 49t-32.5 62.5t-9.5 67.5q0 53 21 97t64 81t90.5 66t119.5 63l244 117q0 133 -30 175t-125 42q-48 0 -81 -12t-50.5 -35.5t-24.5 -40t-14 -42.5q-18 -100 -109 -99q-49 1 -74 28.5t-25 67.5q6 93 118 161t320 68
q110 0 182 -19t109.5 -59.5t51 -90t13.5 -122.5v-392q0 -61 13 -94.5t49 -33.5q54 0 64 92h74q-4 -108 -66 -161.5t-163 -53.5q-84 0 -136.5 38t-79.5 115q-159 -153 -330 -153zM414 105q49 0 100.5 34.5t96.5 97.5l-1 263l-198 -123q-94 -58 -94 -149q0 -60 25.5 -91.5
t70.5 -31.5z" />
    <glyph glyph-name="acircumflex" unicode="&#xe2;" horiz-adv-x="1064" 
d="M157 1030l240 322h231l240 -322h-76l-279 207l-280 -207h-76zM295 -20q-66 0 -113 18t-70 49t-32.5 62.5t-9.5 67.5q0 53 21 97t64 81t90.5 66t119.5 63l244 117q0 133 -30 175t-125 42q-48 0 -81 -12t-50.5 -35.5t-24.5 -40t-14 -42.5q-18 -100 -109 -99q-49 1 -74 28.5
t-25 67.5q6 93 118 161t320 68q110 0 182 -19t109.5 -59.5t51 -90t13.5 -122.5v-392q0 -61 13 -94.5t49 -33.5q54 0 64 92h74q-4 -108 -66 -161.5t-163 -53.5q-84 0 -136.5 38t-79.5 115q-159 -153 -330 -153zM414 105q49 0 100.5 34.5t96.5 97.5l-1 263l-198 -123
q-94 -58 -94 -149q0 -60 25.5 -91.5t70.5 -31.5z" />
    <glyph glyph-name="atilde" unicode="&#xe3;" horiz-adv-x="1064" 
d="M168 1028q-4 128 50.5 202.5t158.5 74.5q10 0 20.5 -1t22 -3t19.5 -3.5t21.5 -6t20 -6.5t21.5 -7.5t20 -7.5l22.5 -9t21.5 -9q9 -4 27.5 -12t25.5 -11t20 -7.5t23.5 -6t22.5 -1.5q39 0 66 28t31 84h75q8 -120 -45.5 -208.5t-157.5 -88.5q-73 0 -191 54q-88 40 -132 40
q-43 0 -65 -29.5t-25 -65.5h-73zM295 -20q-66 0 -113 18t-70 49t-32.5 62.5t-9.5 67.5q0 53 21 97t64 81t90.5 66t119.5 63l244 117q0 133 -30 175t-125 42q-48 0 -81 -12t-50.5 -35.5t-24.5 -40t-14 -42.5q-18 -100 -109 -99q-49 1 -74 28.5t-25 67.5q6 93 118 161t320 68
q110 0 182 -19t109.5 -59.5t51 -90t13.5 -122.5v-392q0 -61 13 -94.5t49 -33.5q54 0 64 92h74q-4 -108 -66 -161.5t-163 -53.5q-84 0 -136.5 38t-79.5 115q-159 -153 -330 -153zM414 105q49 0 100.5 34.5t96.5 97.5l-1 263l-198 -123q-94 -58 -94 -149q0 -60 25.5 -91.5
t70.5 -31.5z" />
    <glyph glyph-name="adieresis" unicode="&#xe4;" horiz-adv-x="1064" 
d="M307 1106q-50 0 -86.5 36.5t-36.5 86.5t36 86.5t87 36.5t87 -36t36 -87q0 -53 -36 -88t-87 -35zM711 1106q-50 0 -86.5 36t-36.5 87t36 87t87 36t87 -36.5t36 -86.5q0 -52 -36 -87.5t-87 -35.5zM295 -20q-66 0 -113 18t-70 49t-32.5 62.5t-9.5 67.5q0 53 21 97t64 81
t90.5 66t119.5 63l244 117q0 133 -30 175t-125 42q-48 0 -81 -12t-50.5 -35.5t-24.5 -40t-14 -42.5q-18 -100 -109 -99q-49 1 -74 28.5t-25 67.5q6 93 118 161t320 68q110 0 182 -19t109.5 -59.5t51 -90t13.5 -122.5v-392q0 -61 13 -94.5t49 -33.5q54 0 64 92h74
q-4 -108 -66 -161.5t-163 -53.5q-84 0 -136.5 38t-79.5 115q-159 -153 -330 -153zM414 105q49 0 100.5 34.5t96.5 97.5l-1 263l-198 -123q-94 -58 -94 -149q0 -60 25.5 -91.5t70.5 -31.5z" />
    <glyph glyph-name="aring" unicode="&#xe5;" horiz-adv-x="1064" 
d="M513 976q-79 0 -135.5 56t-56.5 136t56 135.5t136 55.5t136.5 -55.5t56.5 -135.5t-56.5 -136t-136.5 -56zM513 1046q52 0 87.5 35.5t35.5 86.5q0 52 -35.5 87.5t-87.5 35.5q-50 0 -85 -35.5t-35 -87.5q0 -51 35 -86.5t85 -35.5zM295 -20q-66 0 -113 18t-70 49t-32.5 62.5
t-9.5 67.5q0 53 21 97t64 81t90.5 66t119.5 63l244 117q0 133 -30 175t-125 42q-48 0 -81 -12t-50.5 -35.5t-24.5 -40t-14 -42.5q-18 -100 -109 -99q-49 1 -74 28.5t-25 67.5q6 93 118 161t320 68q110 0 182 -19t109.5 -59.5t51 -90t13.5 -122.5v-392q0 -61 13 -94.5
t49 -33.5q54 0 64 92h74q-4 -108 -66 -161.5t-163 -53.5q-84 0 -136.5 38t-79.5 115q-159 -153 -330 -153zM414 105q49 0 100.5 34.5t96.5 97.5l-1 263l-198 -123q-94 -58 -94 -149q0 -60 25.5 -91.5t70.5 -31.5z" />
    <glyph glyph-name="ae" unicode="&#xe6;" horiz-adv-x="1539" 
d="M1148 78q70 0 131 41.5t104 116.5l82 -49q-59 -100 -161 -159.5t-226 -59.5t-225.5 55.5t-162.5 155.5q-126 -116 -206.5 -157.5t-188.5 -41.5q-66 0 -113 18t-70 49t-32.5 62.5t-9.5 67.5q0 53 21 97t64 81t90.5 66t119.5 63l244 117q0 133 -30 175t-125 42
q-48 0 -81 -12t-50.5 -35.5t-24.5 -40t-14 -42.5q-18 -100 -109 -99q-49 1 -74 28.5t-25 67.5q6 93 118 161t320 68q215 0 293 -80q114 80 261 80q57 0 113.5 -14t113.5 -48.5t100.5 -85.5t71 -131.5t28.5 -179.5h-600q0 -46 5 -90.5t21 -98.5t42.5 -94t74 -67t110.5 -27z
M1070 816q-40 0 -71 -18.5t-49 -46.5t-30.5 -66t-17.5 -71.5t-7 -68.5h351q-3 46 -12 88.5t-27.5 86t-54 70t-82.5 26.5zM419 105q41 0 93 33t99 99l-1 263l-198 -123q-94 -58 -94 -149q0 -55 27 -89t74 -34z" />
    <glyph glyph-name="ccedilla" unicode="&#xe7;" horiz-adv-x="954" 
d="M521 -32h-18l-15 -76q106 -1 173.5 -46.5t67.5 -123.5q0 -37 -17.5 -72t-53 -66t-99.5 -50t-148 -19q-108 0 -202 23l17 95q70 -12 150 -12q107 0 157 27t50 65q0 16 -11 28t-34 18.5t-41.5 11t-51.5 6t-45 1.5h-39l37 203q-158 36 -253.5 155t-95.5 292q0 215 145 350.5
t357 135.5q56 0 110.5 -11t105 -33.5t84 -64t37.5 -96.5q1 -49 -25.5 -82.5t-73.5 -34.5q-30 0 -52 12.5t-34 34t-18 39.5t-10 39q-37 102 -137 102q-52 0 -91.5 -25t-62 -61t-37 -84.5t-19 -88t-4.5 -78.5q0 -399 249 -399q45 0 83.5 13t64.5 32.5t47.5 46t33 48.5t20.5 46
l86 -41q-20 -43 -39.5 -76t-52.5 -69.5t-72 -60t-96.5 -39t-126.5 -15.5z" />
    <glyph glyph-name="egrave" unicode="&#xe8;" horiz-adv-x="970" 
d="M485 1030l-438 318v4h338l176 -322h-76zM509 -32q-196 0 -326.5 133t-130.5 344q0 212 129.5 340.5t317.5 128.5q57 0 113.5 -14t113.5 -48.5t100.5 -85.5t71 -131.5t28.5 -179.5h-600q0 -46 5 -90.5t21 -98.5t42.5 -94t74 -67t110.5 -27q70 0 131 41.5t104 116.5l82 -49
q-59 -100 -161 -159.5t-226 -59.5zM327 545h350q-2 46 -11 88.5t-27.5 86t-54 70t-83.5 26.5q-40 0 -70.5 -18.5t-49 -46.5t-31 -66t-17 -71t-6.5 -69z" />
    <glyph glyph-name="eacute" unicode="&#xe9;" horiz-adv-x="970" 
d="M485 1030h-76l176 322h338v-4zM509 -32q-196 0 -326.5 133t-130.5 344q0 212 129.5 340.5t317.5 128.5q57 0 113.5 -14t113.5 -48.5t100.5 -85.5t71 -131.5t28.5 -179.5h-600q0 -46 5 -90.5t21 -98.5t42.5 -94t74 -67t110.5 -27q70 0 131 41.5t104 116.5l82 -49
q-59 -100 -161 -159.5t-226 -59.5zM327 545h350q-2 46 -11 88.5t-27.5 86t-54 70t-83.5 26.5q-40 0 -70.5 -18.5t-49 -46.5t-31 -66t-17 -71t-6.5 -69z" />
    <glyph glyph-name="ecircumflex" unicode="&#xea;" horiz-adv-x="970" 
d="M129 1030l240 322h231l240 -322h-76l-279 207l-280 -207h-76zM509 -32q-196 0 -326.5 133t-130.5 344q0 212 129.5 340.5t317.5 128.5q57 0 113.5 -14t113.5 -48.5t100.5 -85.5t71 -131.5t28.5 -179.5h-600q0 -46 5 -90.5t21 -98.5t42.5 -94t74 -67t110.5 -27
q70 0 131 41.5t104 116.5l82 -49q-59 -100 -161 -159.5t-226 -59.5zM327 545h350q-2 46 -11 88.5t-27.5 86t-54 70t-83.5 26.5q-40 0 -70.5 -18.5t-49 -46.5t-31 -66t-17 -71t-6.5 -69z" />
    <glyph glyph-name="edieresis" unicode="&#xeb;" horiz-adv-x="970" 
d="M279 1106q-50 0 -86.5 36.5t-36.5 86.5t36 86.5t87 36.5t87 -36t36 -87q0 -53 -36 -88t-87 -35zM683 1106q-50 0 -86.5 36t-36.5 87t36 87t87 36t87 -36.5t36 -86.5q0 -52 -36 -87.5t-87 -35.5zM509 -32q-196 0 -326.5 133t-130.5 344q0 212 129.5 340.5t317.5 128.5
q57 0 113.5 -14t113.5 -48.5t100.5 -85.5t71 -131.5t28.5 -179.5h-600q0 -46 5 -90.5t21 -98.5t42.5 -94t74 -67t110.5 -27q70 0 131 41.5t104 116.5l82 -49q-59 -100 -161 -159.5t-226 -59.5zM327 545h350q-2 46 -11 88.5t-27.5 86t-54 70t-83.5 26.5q-40 0 -70.5 -18.5
t-49 -46.5t-31 -66t-17 -71t-6.5 -69z" />
    <glyph glyph-name="igrave" unicode="&#xec;" horiz-adv-x="650" 
d="M335 1030l-438 318v4h338l176 -322h-76zM55 0v95h56q64 0 84 26t20 96v417q0 72 -20 99t-83 21l-57 -9l-3 93l423 79v-700q0 -62 18 -92t74 -30h59v-95h-571z" />
    <glyph glyph-name="iacute" unicode="&#xed;" horiz-adv-x="650" 
d="M335 1030h-76l176 322h338v-4zM55 0v95h56q64 0 84 26t20 96v417q0 72 -20 99t-83 21l-57 -9l-3 93l423 79v-700q0 -62 18 -92t74 -30h59v-95h-571z" />
    <glyph glyph-name="icircumflex" unicode="&#xee;" horiz-adv-x="650" 
d="M-21 1030l240 322h231l240 -322h-76l-279 207l-280 -207h-76zM55 0v95h56q64 0 84 26t20 96v417q0 72 -20 99t-83 21l-57 -9l-3 93l423 79v-700q0 -62 18 -92t74 -30h59v-95h-571z" />
    <glyph glyph-name="idieresis" unicode="&#xef;" horiz-adv-x="650" 
d="M129 1106q-50 0 -86.5 36.5t-36.5 86.5t36 86.5t87 36.5t87 -36t36 -87q0 -53 -36 -88t-87 -35zM533 1106q-50 0 -86.5 36t-36.5 87t36 87t87 36t87 -36.5t36 -86.5q0 -52 -36 -87.5t-87 -35.5zM55 0v95h56q64 0 84 26t20 96v417q0 72 -20 99t-83 21l-57 -9l-3 93l423 79
v-700q0 -62 18 -92t74 -30h59v-95h-571z" />
    <glyph glyph-name="eth" unicode="&#xf0;" horiz-adv-x="1012" 
d="M942 1160l-144 -42q132 -203 132 -556q0 -125 -27 -227t-71.5 -168t-104 -111t-121.5 -64t-128 -19q-79 0 -154 29.5t-137 84.5t-99.5 144.5t-37.5 198.5q0 95 26.5 171t67 123t94.5 78.5t105 44t101 12.5q142 0 213 -105q-11 204 -53 309l-242 -70l-27 96l221 64
q-90 122 -264 119l-18 102q292 0 457 -171l185 53zM481 71q93 0 137.5 88.5t50.5 265.5q-3 77 -10.5 129t-25 103.5t-51.5 77.5t-85 26q-53 0 -88.5 -26t-55 -78t-27.5 -116.5t-8 -153.5q0 -153 37 -234.5t126 -81.5z" />
    <glyph glyph-name="ntilde" unicode="&#xf1;" horiz-adv-x="1227" 
d="M269 1028q-4 128 50.5 202.5t158.5 74.5q10 0 20.5 -1t22 -3t19.5 -3.5t21.5 -6t20 -6.5t21.5 -7.5t20 -7.5l22.5 -9t21.5 -9q9 -4 27.5 -12t25.5 -11t20 -7.5t23.5 -6t22.5 -1.5q39 0 66 28t31 84h75q8 -120 -45.5 -208.5t-157.5 -88.5q-73 0 -191 54q-88 40 -132 40
q-43 0 -65 -29.5t-25 -65.5h-73zM60 0v95h46q63 0 81 29t18 93v403q0 63 -17.5 93t-74.5 25l-53 -9l-3 94l409 83v-198q64 93 145.5 149.5t170.5 56.5q134 0 211 -80.5t77 -238.5v-378q0 -61 22.5 -91.5t72.5 -30.5h48v-95h-530v95h48q45 0 62.5 31.5t17.5 91.5v372
q0 180 -126 180q-115 0 -219 -215v-338q0 -122 74 -122h49v-95h-529z" />
    <glyph glyph-name="ograve" unicode="&#xf2;" horiz-adv-x="1055" 
d="M529 1030l-438 318v4h338l176 -322h-76zM527 -32q-33 0 -70.5 5t-85 19t-90.5 36t-85.5 59.5t-74 85.5t-50.5 117.5t-19 152.5q0 99 29.5 180.5t77.5 134t110.5 89t127 52t129.5 15.5q59 0 120 -14t126 -48.5t115.5 -86t83 -135.5t32.5 -187q0 -100 -30 -182.5
t-78 -135.5t-111.5 -89.5t-127.5 -52t-129 -15.5zM529 67q68 0 114 52.5t65.5 134.5t19.5 188q0 77 -9.5 140t-31.5 118t-62.5 85.5t-97.5 30.5q-56 0 -97 -31.5t-62.5 -86t-31 -115.5t-9.5 -132q0 -82 11 -149t34 -121t63 -84t94 -30z" />
    <glyph glyph-name="oacute" unicode="&#xf3;" horiz-adv-x="1055" 
d="M529 1030h-76l176 322h338v-4zM527 -32q-33 0 -70.5 5t-85 19t-90.5 36t-85.5 59.5t-74 85.5t-50.5 117.5t-19 152.5q0 99 29.5 180.5t77.5 134t110.5 89t127 52t129.5 15.5q59 0 120 -14t126 -48.5t115.5 -86t83 -135.5t32.5 -187q0 -100 -30 -182.5t-78 -135.5
t-111.5 -89.5t-127.5 -52t-129 -15.5zM529 67q68 0 114 52.5t65.5 134.5t19.5 188q0 77 -9.5 140t-31.5 118t-62.5 85.5t-97.5 30.5q-56 0 -97 -31.5t-62.5 -86t-31 -115.5t-9.5 -132q0 -82 11 -149t34 -121t63 -84t94 -30z" />
    <glyph glyph-name="ocircumflex" unicode="&#xf4;" horiz-adv-x="1055" 
d="M173 1030l240 322h231l240 -322h-76l-279 207l-280 -207h-76zM527 -32q-33 0 -70.5 5t-85 19t-90.5 36t-85.5 59.5t-74 85.5t-50.5 117.5t-19 152.5q0 99 29.5 180.5t77.5 134t110.5 89t127 52t129.5 15.5q59 0 120 -14t126 -48.5t115.5 -86t83 -135.5t32.5 -187
q0 -100 -30 -182.5t-78 -135.5t-111.5 -89.5t-127.5 -52t-129 -15.5zM529 67q68 0 114 52.5t65.5 134.5t19.5 188q0 77 -9.5 140t-31.5 118t-62.5 85.5t-97.5 30.5q-56 0 -97 -31.5t-62.5 -86t-31 -115.5t-9.5 -132q0 -82 11 -149t34 -121t63 -84t94 -30z" />
    <glyph glyph-name="otilde" unicode="&#xf5;" horiz-adv-x="1055" 
d="M184 1028q-4 128 50.5 202.5t158.5 74.5q10 0 20.5 -1t22 -3t19.5 -3.5t21.5 -6t20 -6.5t21.5 -7.5t20 -7.5l22.5 -9t21.5 -9q9 -4 27.5 -12t25.5 -11t20 -7.5t23.5 -6t22.5 -1.5q39 0 66 28t31 84h75q8 -120 -45.5 -208.5t-157.5 -88.5q-73 0 -191 54q-88 40 -132 40
q-43 0 -65 -29.5t-25 -65.5h-73zM527 -32q-33 0 -70.5 5t-85 19t-90.5 36t-85.5 59.5t-74 85.5t-50.5 117.5t-19 152.5q0 99 29.5 180.5t77.5 134t110.5 89t127 52t129.5 15.5q59 0 120 -14t126 -48.5t115.5 -86t83 -135.5t32.5 -187q0 -100 -30 -182.5t-78 -135.5
t-111.5 -89.5t-127.5 -52t-129 -15.5zM529 67q68 0 114 52.5t65.5 134.5t19.5 188q0 77 -9.5 140t-31.5 118t-62.5 85.5t-97.5 30.5q-56 0 -97 -31.5t-62.5 -86t-31 -115.5t-9.5 -132q0 -82 11 -149t34 -121t63 -84t94 -30z" />
    <glyph glyph-name="odieresis" unicode="&#xf6;" horiz-adv-x="1055" 
d="M323 1106q-50 0 -86.5 36.5t-36.5 86.5t36 86.5t87 36.5t87 -36t36 -87q0 -53 -36 -88t-87 -35zM727 1106q-50 0 -86.5 36t-36.5 87t36 87t87 36t87 -36.5t36 -86.5q0 -52 -36 -87.5t-87 -35.5zM527 -32q-33 0 -70.5 5t-85 19t-90.5 36t-85.5 59.5t-74 85.5t-50.5 117.5
t-19 152.5q0 99 29.5 180.5t77.5 134t110.5 89t127 52t129.5 15.5q59 0 120 -14t126 -48.5t115.5 -86t83 -135.5t32.5 -187q0 -100 -30 -182.5t-78 -135.5t-111.5 -89.5t-127.5 -52t-129 -15.5zM529 67q68 0 114 52.5t65.5 134.5t19.5 188q0 77 -9.5 140t-31.5 118
t-62.5 85.5t-97.5 30.5q-56 0 -97 -31.5t-62.5 -86t-31 -115.5t-9.5 -132q0 -82 11 -149t34 -121t63 -84t94 -30z" />
    <glyph glyph-name="divide" unicode="&#xf7;" horiz-adv-x="1237" 
d="M616 981q-48 0 -81.5 33.5t-33.5 81.5q0 47 33.5 81t81.5 34q46 0 80.5 -34.5t34.5 -80.5q0 -48 -34 -81.5t-81 -33.5zM61 590v172h1110v-172h-1110zM616 141q-48 0 -81.5 33.5t-33.5 81.5q0 47 33.5 81t81.5 34q46 0 80.5 -34.5t34.5 -80.5q0 -48 -34 -81.5t-81 -33.5z
" />
    <glyph glyph-name="oslash" unicode="&#xf8;" horiz-adv-x="1055" 
d="M881 772q122 -125 122 -329q0 -100 -30 -182.5t-78 -135.5t-111.5 -89.5t-127.5 -52t-129 -15.5q-152 0 -278 79l-103 -119l-71 62l101 115q-124 124 -124 338q0 99 29.5 180.5t77.5 134t110.5 89t127 52t129.5 15.5q156 0 282 -83l107 122l69 -63zM327 451
q0 -86 12 -158l350 401q-50 122 -162 122q-56 0 -97 -31.5t-62.5 -86t-31 -115.5t-9.5 -132zM529 67q68 0 114 52.5t65.5 134.5t19.5 188q0 79 -10 143l-348 -400q52 -118 159 -118z" />
    <glyph glyph-name="ugrave" unicode="&#xf9;" horiz-adv-x="1197" 
d="M598 1030l-438 318v4h338l176 -322h-76zM447 -32q-134 0 -212 81t-78 239v378q0 62 -22 92t-73 30h-46v95h402v-590q0 -180 126 -180q113 0 218 215v338q0 122 -71 122h-53v95h386v-666q0 -62 17 -91.5t74 -24.5l54 9l1 -95l-408 -42v202q-63 -93 -144.5 -150t-170.5 -57
z" />
    <glyph glyph-name="uacute" unicode="&#xfa;" horiz-adv-x="1197" 
d="M598 1030h-76l176 322h338v-4zM447 -32q-134 0 -212 81t-78 239v378q0 62 -22 92t-73 30h-46v95h402v-590q0 -180 126 -180q113 0 218 215v338q0 122 -71 122h-53v95h386v-666q0 -62 17 -91.5t74 -24.5l54 9l1 -95l-408 -42v202q-63 -93 -144.5 -150t-170.5 -57z" />
    <glyph glyph-name="ucircumflex" unicode="&#xfb;" horiz-adv-x="1197" 
d="M242 1030l240 322h231l240 -322h-76l-279 207l-280 -207h-76zM447 -32q-134 0 -212 81t-78 239v378q0 62 -22 92t-73 30h-46v95h402v-590q0 -180 126 -180q113 0 218 215v338q0 122 -71 122h-53v95h386v-666q0 -62 17 -91.5t74 -24.5l54 9l1 -95l-408 -42v202
q-63 -93 -144.5 -150t-170.5 -57z" />
    <glyph glyph-name="udieresis" unicode="&#xfc;" horiz-adv-x="1197" 
d="M392 1106q-50 0 -86.5 36.5t-36.5 86.5t36 86.5t87 36.5t87 -36t36 -87q0 -53 -36 -88t-87 -35zM796 1106q-50 0 -86.5 36t-36.5 87t36 87t87 36t87 -36.5t36 -86.5q0 -52 -36 -87.5t-87 -35.5zM447 -32q-134 0 -212 81t-78 239v378q0 62 -22 92t-73 30h-46v95h402v-590
q0 -180 126 -180q113 0 218 215v338q0 122 -71 122h-53v95h386v-666q0 -62 17 -91.5t74 -24.5l54 9l1 -95l-408 -42v202q-63 -93 -144.5 -150t-170.5 -57z" />
    <glyph glyph-name="yacute" unicode="&#xfd;" horiz-adv-x="1013" 
d="M508 1030h-76l176 322h338v-4zM220 -525q-55 -1 -88 31t-34 79q0 79 110 107q86 21 143.5 60.5t97.5 130.5l39 91l-373 699q-38 73 -57 94t-53 21h-30v95h490v-95h-43q-50 0 -51.5 -32t26.5 -79l217 -441l166 394q11 27 16.5 43t11 37t4.5 33t-6 23.5t-18 16.5t-34 5h-44
v95h325v-95h-21q-36 0 -62.5 -32t-65.5 -125l-359 -822q-78 -177 -142 -253t-165 -81z" />
    <glyph glyph-name="thorn" unicode="&#xfe;" horiz-adv-x="1156" 
d="M-6 -521v95h57q57 0 74.5 29t17.5 92v1408q0 64 -20.5 92t-90.5 27l-38 -8l-3 92l407 76v-616q61 68 142.5 108t166.5 40q76 0 147 -32.5t126.5 -91t88.5 -147.5t33 -194q0 -107 -34.5 -198.5t-92 -152.5t-131.5 -95.5t-153 -34.5q-161 0 -288 127v-400q0 -32 2.5 -49.5
t13 -36.5t35 -27t63.5 -8h57v-95h-580zM604 97q65 0 112 36.5t69.5 93.5t32 109t9.5 101q0 66 -12 126t-36.5 111t-67 81.5t-98.5 30.5q-61 0 -118 -40.5t-92 -102.5v-436q42 -52 97.5 -81t103.5 -29z" />
    <glyph glyph-name="ydieresis" unicode="&#xff;" horiz-adv-x="1013" 
d="M302 1106q-50 0 -86.5 36.5t-36.5 86.5t36 86.5t87 36.5t87 -36t36 -87q0 -53 -36 -88t-87 -35zM706 1106q-50 0 -86.5 36t-36.5 87t36 87t87 36t87 -36.5t36 -86.5q0 -52 -36 -87.5t-87 -35.5zM220 -525q-55 -1 -88 31t-34 79q0 79 110 107q86 21 143.5 60.5t97.5 130.5
l39 91l-373 699q-38 73 -57 94t-53 21h-30v95h490v-95h-43q-50 0 -51.5 -32t26.5 -79l217 -441l166 394q11 27 16.5 43t11 37t4.5 33t-6 23.5t-18 16.5t-34 5h-44v95h325v-95h-21q-36 0 -62.5 -32t-65.5 -125l-359 -822q-78 -177 -142 -253t-165 -81z" />
    <glyph glyph-name="dotlessi" unicode="&#x131;" horiz-adv-x="650" 
d="M55 0v95h56q64 0 84 26t20 96v417q0 72 -20 99t-83 21l-57 -9l-3 93l423 79v-700q0 -62 18 -92t74 -30h59v-95h-571z" />
    <glyph glyph-name="Lslash" unicode="&#x141;" horiz-adv-x="1285" 
d="M1153 450l91 -1l-14 -449h-1177v95h66q75 0 102.5 29t27.5 114v174l-163 -125v153l163 125v549q0 78 -25.5 110.5t-107.5 32.5h-63v95h678v-95h-62q-84 0 -111 -31t-27 -112v-332l369 283v-153l-369 -283v-369q0 -30 1 -47t5 -38t13 -31.5t24.5 -21.5t39.5 -15t58 -4h162
q21 0 36.5 0.5t43.5 5t50 13t49.5 25t48.5 40t40.5 60t31.5 82.5z" />
    <glyph glyph-name="lslash" unicode="&#x142;" horiz-adv-x="601" 
d="M621 875l-188 -145v-513q0 -122 70 -122h60v-95h-539v95h54q60 0 77.5 28t17.5 94v313l-193 -148v137l193 148v443q0 65 -19 95t-78 25l-52 -10l-3 94l412 76v-523l188 145v-137z" />
    <glyph glyph-name="OE" unicode="&#x152;" horiz-adv-x="2122" 
d="M851 0q-184 0 -325 37t-245 115.5t-158.5 209t-54.5 310.5q0 176 54 305t158 208.5t245 119.5t326 45l1093 2l19 -350l-93 -1l-33 128q-31 78 -71 99t-119 21h-295q-52 -24 -52 -132v-359h201q27 0 47.5 3t40.5 11t31 26t11 45v89h97v-459h-97v81q0 61 -33 81t-93 20
h-205v-390q0 -34 1.5 -54t8 -43.5t19.5 -35.5t37 -20.5t59 -8.5h230q81 0 127.5 15t68 42t37.5 78l52 207l93 -1l-15 -444h-1167zM774 103h163q49 0 64.5 36.5t15.5 110.5v864q0 74 -16 108.5t-55 34.5h-135q-56 0 -111 -16t-112.5 -58t-100 -106t-70 -168t-27.5 -236
q0 -94 14 -177.5t44 -156t74 -124.5t108.5 -82t143.5 -30z" />
    <glyph glyph-name="oe" unicode="&#x153;" horiz-adv-x="1669" 
d="M1277 78q70 0 131.5 41.5t104.5 116.5l82 -49q-59 -100 -161 -159.5t-226 -59.5q-202 0 -331 138q-69 -70 -162.5 -104t-187.5 -34q-33 0 -70.5 5t-85 19t-90.5 36t-85.5 59.5t-74 85.5t-50.5 117.5t-19 152.5q0 99 29.5 180.5t77.5 134t110.5 89t127 52t129.5 15.5
q88 0 182.5 -33t164.5 -102q129 135 325 135q57 0 113.5 -14t113.5 -48.5t100.5 -85.5t71 -131.5t28.5 -179.5h-600q0 -46 5 -90.5t21 -98.5t42.5 -94t73.5 -67t110 -27zM529 67q68 0 114 52.5t65.5 134.5t19.5 188q0 77 -9.5 140t-31.5 118t-62.5 85.5t-97.5 30.5
q-56 0 -97 -31.5t-62.5 -86t-31 -115.5t-9.5 -132q0 -82 11 -149t34 -121t63 -84t94 -30zM1200 816q-40 0 -71 -18.5t-49 -46.5t-30.5 -66t-17.5 -71.5t-7 -68.5h351q-3 46 -12 88.5t-27.5 86t-54 70t-82.5 26.5z" />
    <glyph glyph-name="Scaron" unicode="&#x160;" horiz-adv-x="1124" 
d="M454 1456l-240 322h75l280 -208l280 208h76l-240 -322h-231zM626 -27q-105 0 -206.5 46.5t-168.5 141.5l-26 -139h-101v465h101q10 -74 37 -142.5t71.5 -128.5t113 -96t152.5 -36q93 0 153 59.5t60 146.5q0 76 -53 132.5t-167 106.5q-209 99 -282 148q-127 84 -162 194
q-18 55 -18 124q0 163 118 273.5t274 110.5q80 0 161.5 -36.5t139.5 -107.5l28 120h96v-399h-96q-14 79 -47 142t-75.5 101t-90 57.5t-95.5 19.5q-98 0 -147 -56t-49 -122q0 -23 4 -42.5t9.5 -36t19.5 -33t24.5 -28t36 -27t42 -25.5t53.5 -27.5t60 -28t72 -32.5l3 -1.5t3 -1
t3 -1.5q68 -30 117.5 -57t100.5 -65.5t83 -81t52 -101t20 -127.5q0 -95 -38 -174.5t-99.5 -129.5t-136 -77.5t-150.5 -27.5z" />
    <glyph glyph-name="scaron" unicode="&#x161;" horiz-adv-x="977" 
d="M605 1030h-231l-240 322h75l280 -208l280 208h76zM514 578q46 -8 77.5 -14.5t76.5 -19.5t75 -27t63.5 -37t53.5 -50.5t33.5 -66.5t13.5 -85q0 -147 -114 -228.5t-276 -81.5t-276 74l-50 -74h-75l-5 286h84q137 -189 327 -189q85 0 142.5 37.5t57.5 100.5q0 25 -11 44
t-27.5 31t-47.5 22t-57.5 16t-70.5 13q-54 10 -87 17t-82.5 20.5t-79.5 27.5t-65.5 37t-55.5 50t-33.5 65t-13.5 84q0 130 96.5 207t268.5 77q154 0 268 -71l42 71h70l6 -266h-69q-49 79 -129 124.5t-189 45.5q-84 0 -135 -27.5t-51 -85.5q0 -21 6 -36.5t23 -27.5t33 -20
t50 -16.5t58.5 -13t74.5 -13.5z" />
    <glyph glyph-name="Wcircumflex" unicode="&#x174;" horiz-adv-x="1899" 
d="M949 1678l-280 -208h-76l224 322h263l224 -322h-76zM1483 1352h423v-95h-34q-31 0 -54 -15t-41.5 -49.5t-31.5 -74t-31 -105.5l-280 -1040h-141l-349 1010l-304 -1010h-146l-331 1118q-29 101 -55 133.5t-83 32.5h-32v95h582v-95h-66q-45 0 -64 -19.5t-17.5 -51.5
t17.5 -86l217 -738l293 994h139l343 -986l169 644q15 56 21 92t3.5 74.5t-25.5 57.5t-67 19h-55v95z" />
    <glyph glyph-name="wcircumflex" unicode="&#x175;" horiz-adv-x="1572" 
d="M787 1237l-280 -207h-76l240 322h231l240 -322h-76zM1243 883h350v-95h-34q-38 0 -61.5 -30.5t-45.5 -90.5l-258 -686h-152l-252 644l-246 -644h-154l-259 688q-27 70 -49.5 94.5t-60.5 24.5h-42v95h518v-95h-50q-57 0 -67.5 -24t12.5 -84l158 -432l250 641h147l251 -644
l140 392q13 37 18.5 57t7.5 41.5t-6.5 31t-26.5 15.5t-49 6h-39v95z" />
    <glyph glyph-name="Ycircumflex" unicode="&#x176;" horiz-adv-x="1333" 
d="M311 1470l224 322h263l224 -322h-76l-279 208l-280 -208h-76zM328 0v95h72q44 0 71.5 9t40.5 30t16.5 43t3.5 59v293l-338 580q-47 80 -79.5 114t-78.5 34h-48v95h619v-95h-61q-32 0 -48.5 -11.5t-17.5 -32t7.5 -44.5t25.5 -53l263 -451l238 407q47 82 34 133.5t-88 51.5
h-46v95h430v-95h-36q-70 0 -158 -153l-334 -558l-2 -308q0 -77 24.5 -110t108.5 -33h71v-95h-690z" />
    <glyph glyph-name="ycircumflex" unicode="&#x177;" horiz-adv-x="1013" 
d="M152 1030l240 322h231l240 -322h-76l-279 207l-280 -207h-76zM220 -525q-55 -1 -88 31t-34 79q0 79 110 107q86 21 143.5 60.5t97.5 130.5l39 91l-373 699q-38 73 -57 94t-53 21h-30v95h490v-95h-43q-50 0 -51.5 -32t26.5 -79l217 -441l166 394q11 27 16.5 43t11 37
t4.5 33t-6 23.5t-18 16.5t-34 5h-44v95h325v-95h-21q-36 0 -62.5 -32t-65.5 -125l-359 -822q-78 -177 -142 -253t-165 -81z" />
    <glyph glyph-name="Ydieresis" unicode="&#x178;" horiz-adv-x="1333" 
d="M465 1483q-50 0 -86.5 36.5t-36.5 86.5t36 86.5t87 36.5t87 -36t36 -87q0 -53 -36 -88t-87 -35zM869 1483q-50 0 -86.5 36t-36.5 87t36 87t87 36t87 -36.5t36 -86.5q0 -52 -36 -87.5t-87 -35.5zM328 0v95h72q44 0 71.5 9t40.5 30t16.5 43t3.5 59v293l-338 580
q-47 80 -79.5 114t-78.5 34h-48v95h619v-95h-61q-32 0 -48.5 -11.5t-17.5 -32t7.5 -44.5t25.5 -53l263 -451l238 407q47 82 34 133.5t-88 51.5h-46v95h430v-95h-36q-70 0 -158 -153l-334 -558l-2 -308q0 -77 24.5 -110t108.5 -33h71v-95h-690z" />
    <glyph glyph-name="Zcaron" unicode="&#x17d;" horiz-adv-x="1325" 
d="M776 1456h-231l-240 322h75l280 -208l280 208h76zM1162 414l95 -1l-27 -413h-1168v90l804 1163h-358q-56 0 -92 -2.5t-74 -11.5t-62 -25.5t-44 -45.5t-32 -71l-20 -102l-93 1l24 360h1099v-90l-813 -1163h441q37 0 61 1.5t55 7t52.5 16.5t44.5 29.5t41.5 48t33.5 69.5z
" />
    <glyph glyph-name="zcaron" unicode="&#x17e;" horiz-adv-x="987" 
d="M611 1030h-231l-240 322h75l280 -208l280 208h76zM819 297l90 -1l-25 -296h-822v89l512 699h-269q-38 0 -58 -17.5t-43 -83.5l-21 -78l-93 2l23 272h784v-96l-511 -692h273q22 0 36 3t31.5 12.5t33.5 32.5t31 60z" />
    <glyph glyph-name="florin" unicode="&#x192;" horiz-adv-x="1076" 
d="M182 -454q-69 0 -108.5 34t-41.5 82q-1 35 22 63t62 27q26 0 51 -19t25 -55q1 -13 0 -29t-1 -22.5t2.5 -13t10 -8.5t22.5 -2q27 0 44.5 15.5t24.5 49t9.5 62t4 79t3.5 76.5q1 26 4 54.5t5.5 49t9.5 59.5t10.5 56t14 70.5t14.5 74.5l106 528h-159l19 103h62
q73 0 111.5 44.5t77.5 158.5q47 144 116 218t172 74q61 0 107 -29.5t49 -89.5q2 -43 -21.5 -73.5t-63.5 -30.5q-36 0 -54.5 25.5t-20.5 50.5q-1 17 7 46t5 42t-29 13q-37 0 -67.5 -32.5t-36.5 -97.5q-5 -30 -7.5 -108.5t-3.5 -90.5q-1 -48 -14 -120h183l-19 -103h-185
l-99 -501q-52 -260 -94 -383.5t-88 -190.5q-23 -53 -88 -104.5t-153 -51.5z" />
    <glyph glyph-name="oslashacute" unicode="&#x1ff;" horiz-adv-x="1055" 
d="M967 1348l-438 -318h-76l176 322h338v-4zM881 772q122 -125 122 -329q0 -100 -30 -182.5t-78 -135.5t-111.5 -89.5t-127.5 -52t-129 -15.5q-152 0 -278 79l-103 -119l-71 62l101 115q-124 124 -124 338q0 99 29.5 180.5t77.5 134t110.5 89t127 52t129.5 15.5
q156 0 282 -83l107 122l69 -63zM327 451q0 -86 12 -158l350 401q-50 122 -162 122q-56 0 -97 -31.5t-62.5 -86t-31 -115.5t-9.5 -132zM529 67q68 0 114 52.5t65.5 134.5t19.5 188q0 79 -10 143l-348 -400q52 -118 159 -118z" />
    <glyph glyph-name="uni0237" unicode="&#x237;" horiz-adv-x="584" 
d="M17 -538q-107 0 -179 47.5t-77 134.5q-1 43 28 73t71 31q79 0 100 -81q24 -105 103 -105q36 0 60.5 21.5t36.5 63t17 88.5t5 112v786q0 32 -3 51.5t-14 38.5t-35.5 26t-63.5 4l-52 -10l-1 94l429 80v-944q0 -134 -20.5 -226t-68.5 -158t-130.5 -96.5t-205.5 -30.5z" />
    <glyph glyph-name="circumflex" unicode="&#x2c6;" horiz-adv-x="811" 
d="M50 1030l240 322h231l240 -322h-76l-279 207l-280 -207h-76z" />
    <glyph glyph-name="caron" unicode="&#x2c7;" horiz-adv-x="813" 
d="M291 1030l-240 322h75l280 -208l280 208h76l-240 -322h-231z" />
    <glyph glyph-name="breve" unicode="&#x2d8;" horiz-adv-x="826" 
d="M366 984q-70 0 -128 29t-94 75.5t-56.5 99t-24.5 105.5h64q55 -162 243 -162q50 0 90.5 14t63 30t41.5 43.5t25 40.5t14 34h60q-2 -55 -22 -108t-55.5 -99t-93 -74t-127.5 -28z" />
    <glyph glyph-name="dotaccent" unicode="&#x2d9;" horiz-adv-x="429" 
d="M213 1047q-50 0 -86.5 36.5t-36.5 86.5t36 86.5t87 36.5q52 0 88.5 -36.5t36.5 -86.5q0 -52 -37 -87.5t-88 -35.5z" />
    <glyph glyph-name="ring" unicode="&#x2da;" horiz-adv-x="512" 
d="M255 981q-81 0 -138.5 57.5t-57.5 139.5q0 81 57.5 137.5t138.5 56.5q82 0 139.5 -56.5t57.5 -137.5q0 -82 -57.5 -139.5t-139.5 -57.5zM255 1059q49 0 84 34.5t35 84.5q0 49 -35 83.5t-84 34.5t-82.5 -34.5t-33.5 -83.5q0 -50 33.5 -84.5t82.5 -34.5z" />
    <glyph glyph-name="ogonek" unicode="&#x2db;" horiz-adv-x="680" 
d="M315 -373q-110 0 -172 61.5t-62 146.5q0 57 24 99t67 86l31 -20q-30 -58 -30 -105q0 -81 61.5 -136.5t148.5 -55.5q61 0 129 33l21 -30q-116 -79 -218 -79z" />
    <glyph glyph-name="tilde" unicode="&#x2dc;" horiz-adv-x="864" 
d="M85 1028q-4 128 50.5 202.5t158.5 74.5q10 0 20.5 -1t22 -3t19.5 -3.5t21.5 -6t20 -6.5t21.5 -7.5t20 -7.5l22.5 -9t21.5 -9q9 -4 27.5 -12t25.5 -11t20 -7.5t23.5 -6t22.5 -1.5q39 0 66 28t31 84h75q8 -120 -45.5 -208.5t-157.5 -88.5q-73 0 -191 54q-88 40 -132 40
q-43 0 -65 -29.5t-25 -65.5h-73z" />
    <glyph glyph-name="hungarumlaut" unicode="&#x2dd;" horiz-adv-x="1008" 
d="M50 1030l176 322h338v-4l-438 -318h-76zM493 1030l176 322h338v-4l-438 -318h-76z" />
    <glyph glyph-name="gravecomb" unicode="&#x300;" 
d="M-126 1030l-438 318v4h338l176 -322h-76z" />
    <glyph glyph-name="acutecomb" unicode="&#x301;" 
d="M-424 1030h-76l176 322h338v-4z" />
    <glyph glyph-name="uni0302" unicode="&#x302;" 
d="M-761 1030l240 322h231l240 -322h-76l-279 207l-280 -207h-76z" />
    <glyph glyph-name="tildecomb" unicode="&#x303;" 
d="M-779 1028q-4 128 50.5 202.5t158.5 74.5q10 0 20.5 -1t22 -3t19.5 -3.5t21.5 -6t20 -6.5t21.5 -7.5t20 -7.5l22.5 -9t21.5 -9q9 -4 27.5 -12t25.5 -11t20 -7.5t23.5 -6t22.5 -1.5q39 0 66 28t31 84h75q8 -120 -45.5 -208.5t-157.5 -88.5q-73 0 -191 54q-88 40 -132 40
q-43 0 -65 -29.5t-25 -65.5h-73z" />
    <glyph glyph-name="uni0304" unicode="&#x304;" 
d="M-853 1070v186h725v-186h-725z" />
    <glyph glyph-name="uni0306" unicode="&#x306;" 
d="M-363 984q-70 0 -128 29t-94 75.5t-56.5 99t-24.5 105.5h64q55 -162 243 -162q50 0 90.5 14t63 30t41.5 43.5t25 40.5t14 34h60q-2 -55 -22 -108t-55.5 -99t-93 -74t-127.5 -28z" />
    <glyph glyph-name="uni0307" unicode="&#x307;" 
d="M-216 1047q-50 0 -86.5 36.5t-36.5 86.5t36 86.5t87 36.5q52 0 88.5 -36.5t36.5 -86.5q0 -52 -37 -87.5t-88 -35.5z" />
    <glyph glyph-name="uni0308" unicode="&#x308;" 
d="M-619 1106q-50 0 -86.5 36.5t-36.5 86.5t36 86.5t87 36.5t87 -36t36 -87q0 -53 -36 -88t-87 -35zM-215 1106q-50 0 -86.5 36t-36.5 87t36 87t87 36t87 -36.5t36 -86.5q0 -52 -36 -87.5t-87 -35.5z" />
    <glyph glyph-name="uni030A" unicode="&#x30a;" 
d="M-272 976q-80 0 -136 56t-56 136t56 135.5t136 55.5t136.5 -55.5t56.5 -135.5t-56.5 -136t-136.5 -56zM-272 1046q52 0 87.5 35.5t35.5 86.5q0 52 -35.5 87.5t-87.5 35.5q-50 0 -85 -35.5t-35 -87.5q0 -51 35 -86.5t85 -35.5z" />
    <glyph glyph-name="uni030B" unicode="&#x30b;" 
d="M-956 1030l176 322h338v-4l-438 -318h-76zM-513 1030l176 322h338v-4l-438 -318h-76z" />
    <glyph glyph-name="uni030C" unicode="&#x30c;" 
d="M-522 1030l-240 322h75l280 -208l280 208h76l-240 -322h-231z" />
    <glyph glyph-name="uni0327" unicode="&#x327;" 
d="M-358 -485q-108 0 -202 23l17 95q70 -12 150 -12q107 0 157 27t50 65q0 16 -11 28t-34 18.5t-41.5 11t-51.5 6t-45 1.5h-39l46 254l108 -6l-27 -134q106 -1 173.5 -46.5t67.5 -123.5q0 -37 -17.5 -72t-53 -66t-99.5 -50t-148 -19z" />
    <glyph glyph-name="uni0328" unicode="&#x328;" 
d="M-232 -373q-110 0 -172 61.5t-62 146.5q0 57 24 99t67 86l31 -20q-30 -58 -30 -105q0 -81 61.5 -136.5t148.5 -55.5q61 0 129 33l21 -30q-116 -79 -218 -79z" />
    <glyph glyph-name="uni0337" unicode="&#x337;" 
d="M-644 375v137l641 493v-137z" />
    <glyph glyph-name="uni0338" unicode="&#x338;" 
d="M-797 -65l-71 62l840 963l69 -63z" />
    <glyph glyph-name="uni0394" unicode="&#x394;" horiz-adv-x="1002" 
d="M623 1448l309 -1448h-862l313 1448h240zM434 1149l-234 -1054h456z" />
    <glyph glyph-name="uni03A9" unicode="&#x3a9;" horiz-adv-x="1451" 
d="M142 0v363h68v-68q0 -132 127 -132h223v105q-82 33 -148.5 80.5t-123.5 117t-89 167.5t-32 217q0 169 63.5 299t191.5 205t303 75q132 0 239.5 -46.5t177.5 -126t107.5 -183.5t37.5 -220q0 -201 -106.5 -357.5t-283.5 -217.5v-115h219q128 0 128 129v71h68v-363h-518v347
q100 62 148 202.5t48 298.5q0 502 -265 502q-137 0 -206 -132t-69 -367q0 -191 55 -329t158 -185v-337h-521z" />
    <glyph glyph-name="Wgrave" unicode="&#x1e80;" horiz-adv-x="1899" 
d="M987 1438h-76l-438 317v4h338zM1483 1352h423v-95h-34q-31 0 -54 -15t-41.5 -49.5t-31.5 -74t-31 -105.5l-280 -1040h-141l-349 1010l-304 -1010h-146l-331 1118q-29 101 -55 133.5t-83 32.5h-32v95h582v-95h-66q-45 0 -64 -19.5t-17.5 -51.5t17.5 -86l217 -738l293 994
h139l343 -986l169 644q15 56 21 92t3.5 74.5t-25.5 57.5t-67 19h-55v95z" />
    <glyph glyph-name="wgrave" unicode="&#x1e81;" horiz-adv-x="1572" 
d="M863 1030h-76l-438 318v4h338zM1243 883h350v-95h-34q-38 0 -61.5 -30.5t-45.5 -90.5l-258 -686h-152l-252 644l-246 -644h-154l-259 688q-27 70 -49.5 94.5t-60.5 24.5h-42v95h518v-95h-50q-57 0 -67.5 -24t12.5 -84l158 -432l250 641h147l251 -644l140 392
q13 37 18.5 57t7.5 41.5t-6.5 31t-26.5 15.5t-49 6h-39v95z" />
    <glyph glyph-name="Wacute" unicode="&#x1e82;" horiz-adv-x="1899" 
d="M1425 1755l-438 -317h-76l176 321h338v-4zM1483 1352h423v-95h-34q-31 0 -54 -15t-41.5 -49.5t-31.5 -74t-31 -105.5l-280 -1040h-141l-349 1010l-304 -1010h-146l-331 1118q-29 101 -55 133.5t-83 32.5h-32v95h582v-95h-66q-45 0 -64 -19.5t-17.5 -51.5t17.5 -86
l217 -738l293 994h139l343 -986l169 644q15 56 21 92t3.5 74.5t-25.5 57.5t-67 19h-55v95z" />
    <glyph glyph-name="wacute" unicode="&#x1e83;" horiz-adv-x="1572" 
d="M1225 1348l-438 -318h-76l176 322h338v-4zM1243 883h350v-95h-34q-38 0 -61.5 -30.5t-45.5 -90.5l-258 -686h-152l-252 644l-246 -644h-154l-259 688q-27 70 -49.5 94.5t-60.5 24.5h-42v95h518v-95h-50q-57 0 -67.5 -24t12.5 -84l158 -432l250 641h147l251 -644l140 392
q13 37 18.5 57t7.5 41.5t-6.5 31t-26.5 15.5t-49 6h-39v95z" />
    <glyph glyph-name="Wdieresis" unicode="&#x1e84;" horiz-adv-x="1899" 
d="M747 1483q-50 0 -86.5 36.5t-36.5 86.5t36 86.5t87 36.5t87 -36t36 -87q0 -53 -36 -88t-87 -35zM1151 1483q-50 0 -86.5 36t-36.5 87t36 87t87 36t87 -36.5t36 -86.5q0 -52 -36 -87.5t-87 -35.5zM1483 1352h423v-95h-34q-31 0 -54 -15t-41.5 -49.5t-31.5 -74t-31 -105.5
l-280 -1040h-141l-349 1010l-304 -1010h-146l-331 1118q-29 101 -55 133.5t-83 32.5h-32v95h582v-95h-66q-45 0 -64 -19.5t-17.5 -51.5t17.5 -86l217 -738l293 994h139l343 -986l169 644q15 56 21 92t3.5 74.5t-25.5 57.5t-67 19h-55v95z" />
    <glyph glyph-name="wdieresis" unicode="&#x1e85;" horiz-adv-x="1572" 
d="M581 1106q-50 0 -86.5 36.5t-36.5 86.5t36 86.5t87 36.5t87 -36t36 -87q0 -53 -36 -88t-87 -35zM985 1106q-50 0 -86.5 36t-36.5 87t36 87t87 36t87 -36.5t36 -86.5q0 -52 -36 -87.5t-87 -35.5zM1243 883h350v-95h-34q-38 0 -61.5 -30.5t-45.5 -90.5l-258 -686h-152
l-252 644l-246 -644h-154l-259 688q-27 70 -49.5 94.5t-60.5 24.5h-42v95h518v-95h-50q-57 0 -67.5 -24t12.5 -84l158 -432l250 641h147l251 -644l140 392q13 37 18.5 57t7.5 41.5t-6.5 31t-26.5 15.5t-49 6h-39v95z" />
    <glyph glyph-name="Ygrave" unicode="&#x1ef2;" horiz-adv-x="1333" 
d="M629 1438l-438 317v4h338l176 -321h-76zM328 0v95h72q44 0 71.5 9t40.5 30t16.5 43t3.5 59v293l-338 580q-47 80 -79.5 114t-78.5 34h-48v95h619v-95h-61q-32 0 -48.5 -11.5t-17.5 -32t7.5 -44.5t25.5 -53l263 -451l238 407q47 82 34 133.5t-88 51.5h-46v95h430v-95h-36
q-70 0 -158 -153l-334 -558l-2 -308q0 -77 24.5 -110t108.5 -33h71v-95h-690z" />
    <glyph glyph-name="ygrave" unicode="&#x1ef3;" horiz-adv-x="1013" 
d="M508 1030l-438 318v4h338l176 -322h-76zM220 -525q-55 -1 -88 31t-34 79q0 79 110 107q86 21 143.5 60.5t97.5 130.5l39 91l-373 699q-38 73 -57 94t-53 21h-30v95h490v-95h-43q-50 0 -51.5 -32t26.5 -79l217 -441l166 394q11 27 16.5 43t11 37t4.5 33t-6 23.5t-18 16.5
t-34 5h-44v95h325v-95h-21q-36 0 -62.5 -32t-65.5 -125l-359 -822q-78 -177 -142 -253t-165 -81z" />
    <glyph glyph-name="endash" unicode="&#x2013;" horiz-adv-x="1303" 
d="M127 331v152h1049v-152h-1049z" />
    <glyph glyph-name="emdash" unicode="&#x2014;" horiz-adv-x="2302" 
d="M127 331v152h2048v-152h-2048z" />
    <glyph glyph-name="quoteleft" unicode="&#x2018;" horiz-adv-x="572" 
d="M295 724q-94 0 -148.5 71t-54.5 190q0 95 33.5 171t88 121.5t115 71t123.5 31.5l4 -100q-78 -10 -135 -47.5t-81 -80t-24 -82.5q0 -23 11 -35.5t27 -11.5q9 0 31 6t37 6q50 0 93.5 -40.5t43.5 -107.5q0 -64 -42.5 -113.5t-121.5 -49.5z" />
    <glyph glyph-name="quoteright" unicode="&#x2019;" horiz-adv-x="575" 
d="M122 724l-4 100q78 10 135 47.5t81 80t24 82.5q0 23 -10.5 35.5t-27.5 11.5q-9 0 -31 -6t-37 -6q-50 0 -93.5 40.5t-43.5 107.5q0 64 42.5 113.5t121.5 49.5q94 0 148.5 -71t54.5 -190q0 -95 -33.5 -171t-88 -121.5t-115 -71t-123.5 -31.5z" />
    <glyph glyph-name="quotesinglbase" unicode="&#x201a;" horiz-adv-x="575" 
d="M122 -381l-4 101q78 10 135 47.5t81 79.5t24 83q0 22 -10.5 34.5t-27.5 11.5q-10 0 -34 -6t-34 -6q-50 0 -93.5 40.5t-43.5 108.5q0 63 42.5 113t121.5 50q94 0 148.5 -71.5t54.5 -190.5q0 -94 -33.5 -170t-88 -121.5t-115 -71.5t-123.5 -32z" />
    <glyph glyph-name="quotedblleft" unicode="&#x201c;" horiz-adv-x="1063" 
d="M291 724q-92 0 -145.5 71t-53.5 190q0 95 33 171t86.5 121.5t113 71t121.5 31.5l2 -100q-111 -15 -172 -80t-61 -130q0 -23 10.5 -35.5t26.5 -11.5q8 0 29.5 6t36.5 6q49 0 92 -40.5t43 -107.5q0 -64 -42 -113.5t-120 -49.5zM787 724q-91 0 -145 71t-54 190q0 76 22 141
t58 109t83 76t94.5 48.5t95.5 20.5l4 -100q-77 -10 -132.5 -47.5t-79 -80t-23.5 -82.5q0 -23 11 -35.5t27 -11.5q9 0 30 6t36 6q49 0 92.5 -40.5t43.5 -107.5q0 -64 -42.5 -113.5t-120.5 -49.5z" />
    <glyph glyph-name="quotedblright" unicode="&#x201d;" horiz-adv-x="1065" 
d="M122 724l-4 100q112 15 172.5 80t60.5 130q0 23 -9.5 35.5t-25.5 11.5q-10 0 -31.5 -6t-36.5 -6q-49 0 -92 40.5t-43 107.5q0 64 42 113.5t120 49.5q92 0 145.5 -71t53.5 -190q0 -95 -33 -171t-86.5 -121.5t-112.5 -71t-120 -31.5zM617 724l-3 100q112 15 173 80t61 130
q0 23 -10.5 35.5t-26.5 11.5q-9 0 -30 -6t-36 -6q-49 0 -92.5 40.5t-43.5 107.5q0 64 42.5 113.5t120.5 49.5q91 0 145 -71t54 -190q0 -95 -33 -171t-87 -121.5t-113.5 -71t-120.5 -31.5z" />
    <glyph glyph-name="quotedblbase" unicode="&#x201e;" horiz-adv-x="1081" 
d="M122 -381l-4 101q78 10 135 47.5t81 79.5t24 83q0 22 -10.5 34.5t-27.5 11.5q-10 0 -34 -6t-34 -6q-50 0 -93.5 40.5t-43.5 108.5q0 63 42.5 113t121.5 50q94 0 148.5 -71.5t54.5 -190.5q0 -94 -33.5 -170t-88 -121.5t-115 -71.5t-123.5 -32zM629 -381l-4 101
q60 8 107.5 31.5t75 54t42 62.5t14.5 62q0 22 -10.5 34.5t-26.5 11.5q-10 0 -34 -6t-34 -6q-50 0 -93.5 40.5t-43.5 108.5q0 63 42.5 113t121.5 50q93 0 148 -71.5t55 -190.5q0 -94 -33.5 -170t-88 -121.5t-115 -71.5t-123.5 -32z" />
    <glyph glyph-name="dagger" unicode="&#x2020;" horiz-adv-x="964" 
d="M431 -396v151q0 120 -10 298t-21 317t-11 155q-3 157 42 239q-22 -3 -123 -38.5t-154 -35.5q-11 0 -23 1.5t-32 9t-34.5 20t-26 37.5t-11.5 59q0 39 12.5 66.5t32.5 40.5t38 18.5t37 5.5q54 0 153 -39t131 -44q-1 2 -17.5 46.5t-23 64.5t-18 60.5t-16.5 75.5t-5 69
q0 50 14.5 85t38 50t42 20.5t36.5 5.5q51 0 91.5 -37t40.5 -113q0 -15 -1.5 -32t-3.5 -31t-6.5 -35t-7 -32.5t-9.5 -36t-9.5 -33t-11.5 -35t-10.5 -31.5t-11 -32.5t-9.5 -28.5q38 10 93 32t99 34.5t88 12.5q61 0 92 -37.5t31 -89.5q0 -53 -30.5 -91t-92.5 -38
q-53 0 -155.5 37t-115.5 39q38 -72 34 -241q-1 -36 -22.5 -301.5t-21.5 -469.5v-148h-102z" />
    <glyph glyph-name="daggerdbl" unicode="&#x2021;" horiz-adv-x="1028" 
d="M514 -635q-18 0 -36.5 5.5t-42 20.5t-38 50t-14.5 85q0 24 2.5 49t9 52.5t11 46.5t14.5 49t14 41t15.5 41t12.5 33l1 4q-31 -5 -130.5 -44t-153.5 -39q-18 0 -36.5 5.5t-38.5 18.5t-32.5 41t-12.5 66q0 42 15.5 70t40 39.5t41 15t30.5 3.5q52 0 151.5 -34.5t119.5 -38.5
q-41 102 -36 237q2 19 2 171.5t-2 171.5q-4 136 36 237q-19 -4 -119 -38t-152 -34q-11 0 -23 1.5t-32 9t-34.5 20t-26 37.5t-11.5 59q0 39 12.5 66.5t32.5 40.5t38 18.5t37 5.5q54 0 153.5 -39t130.5 -44l-1 4q-1 3 -12.5 33t-15.5 41t-14 41t-14.5 49t-11 46.5t-9 52.5
t-2.5 49q0 50 14.5 85t38 50t42 20.5t36.5 5.5q51 0 91.5 -37t40.5 -113q0 -16 -1.5 -33.5t-5 -38t-6.5 -35.5t-10 -39.5t-10 -36t-11.5 -39t-11 -35t-12.5 -36.5t-11 -32l-3 -2q24 6 123.5 42.5t158.5 36.5q61 0 92 -37.5t31 -89.5q0 -53 -30.5 -91t-92.5 -38
q-53 0 -155.5 37t-115.5 39q38 -72 34 -241q-3 -53 -2.5 -171t2.5 -168q4 -169 -34 -240q13 2 115.5 38.5t155.5 36.5q62 0 92.5 -38t30.5 -91q0 -52 -31 -89.5t-92 -37.5q-44 0 -88 12.5t-99 34t-95 32.5l3 -2q1 -3 11 -32t12.5 -36.5t11 -35t11.5 -39t10 -36t10 -39.5
t6.5 -35.5t5 -38t1.5 -33.5q0 -76 -40.5 -113t-91.5 -37z" />
    <glyph glyph-name="bullet" unicode="&#x2022;" horiz-adv-x="786" 
d="M393 400q-113 0 -193.5 80.5t-80.5 193.5q0 114 80.5 192.5t193.5 78.5q111 0 191 -78.5t80 -192.5q0 -113 -79.5 -193.5t-191.5 -80.5z" />
    <glyph glyph-name="twodotenleader" unicode="&#x2025;" horiz-adv-x="1248" 
d="M300 -36q-66 0 -113 47t-47 113q0 65 47 111.5t113 46.5q64 0 111 -47t47 -111q0 -66 -46.5 -113t-111.5 -47zM947 -36q-66 0 -112 47t-46 113q0 65 46 111.5t112 46.5q65 0 112 -46.5t47 -111.5q0 -66 -47 -113t-112 -47z" />
    <glyph glyph-name="ellipsis" unicode="&#x2026;" horiz-adv-x="1897" 
d="M300 -36q-66 0 -113 47t-47 113q0 65 47 111.5t113 46.5q64 0 111 -47t47 -111q0 -66 -46.5 -113t-111.5 -47zM947 -36q-66 0 -112 47t-46 113q0 65 46 111.5t112 46.5q65 0 112 -46.5t47 -111.5q0 -66 -47 -113t-112 -47zM1597 -36q-66 0 -113 47t-47 113q0 65 47 111.5
t113 46.5t112 -46.5t46 -111.5q0 -66 -46 -113t-112 -47z" />
    <glyph glyph-name="perthousand" unicode="&#x2030;" horiz-adv-x="2495" 
d="M380 669q-73 0 -130.5 25t-90.5 63t-55 87t-29.5 91.5t-7.5 82.5q0 167 82 264t227 97q81 0 142.5 -28.5t93.5 -68.5t52 -93t25 -91.5t5 -74.5q0 -48 -9.5 -95t-33 -94.5t-58.5 -83.5t-90 -58.5t-123 -22.5zM481 0l692 1352h124l-694 -1352h-122zM383 733q103 0 103 259
q0 102 -8 168.5t-24 99t-34 44t-44 11.5q-57 0 -79 -66t-22 -222q0 -67 3.5 -112t13.5 -90.5t33 -68.5t58 -23zM1370 -27q-73 0 -130 25t-90.5 63t-55.5 87t-29.5 91.5t-7.5 82.5q0 167 82.5 263.5t227.5 96.5q68 0 122.5 -19t87.5 -52t56 -70t33.5 -80t14.5 -74.5t4 -60.5
q0 -48 -9.5 -95t-33 -94.5t-58.5 -83t-90.5 -58t-123.5 -22.5zM2114 -27q-73 0 -130.5 25t-90.5 63t-55 87t-29.5 91.5t-7.5 82.5q0 167 82 263.5t227 96.5q68 0 122.5 -19t87.5 -52t56 -70t33.5 -80t14.5 -74.5t4 -60.5q0 -48 -9.5 -95t-33 -94.5t-58.5 -83t-90 -58
t-123 -22.5zM1374 36q103 0 103 260q0 102 -8 168.5t-24 99t-34 44t-44 11.5q-57 0 -79.5 -66t-22.5 -222q0 -66 3.5 -112t14 -91.5t33.5 -68.5t58 -23zM2117 36q103 0 103 260q0 102 -8 168.5t-24 99t-34 44t-44 11.5q-57 0 -79 -66t-22 -222q0 -66 3.5 -112t14 -91.5
t33 -68.5t57.5 -23z" />
    <glyph glyph-name="guilsinglleft" unicode="&#x2039;" horiz-adv-x="539" 
d="M375 0l-369 440l368 441h99l-231 -441l231 -440h-98z" />
    <glyph glyph-name="guilsinglright" unicode="&#x203a;" horiz-adv-x="539" 
d="M164 0h-98l231 440l-231 441h99l368 -441z" />
    <glyph glyph-name="Euro" unicode="&#x20ac;" horiz-adv-x="1174" 
d="M644 -27q-96 0 -177.5 44t-138.5 120.5t-93.5 174.5t-50.5 210h-100l14 95h79q-2 17 -2 52q0 42 2 65h-93l14 95h88q16 115 53 212.5t94 173t138 118t179 42.5q177 0 274 -142l6 105h94l3 -393h-94q-32 161 -87 247.5t-154 86.5q-63 0 -109.5 -36t-74 -101.5t-42 -142
t-18.5 -170.5h408l-14 -95h-395q0 -9 -0.5 -26.5t-0.5 -26.5t-0.5 -30t-0.5 -34h378l-14 -95h-363q4 -105 17.5 -182t40 -140t72 -95t109.5 -32q69 0 127.5 54t92.5 129t47 158l82 -13q-67 -428 -390 -428z" />
    <glyph glyph-name="uni2113" unicode="&#x2113;" horiz-adv-x="835" 
d="M462 -24q-120 0 -185 86.5t-65 223.5l-1 91q-11 -15 -53 -60.5t-50 -55.5l-45 65q4 4 67 69.5t81 91.5l-2 458q0 95 19 182.5t55.5 160.5t98.5 116.5t140 43.5q93 0 136.5 -53.5t43.5 -162.5q0 -236 -140 -477q-57 -103 -95 -149l1 -315q0 -185 68 -185q34 0 55.5 46.5
t34.5 151.5l81 -20q-23 -159 -82 -233.5t-163 -74.5zM466 753q32 55 59 113q41 78 69.5 179t28.5 176q0 140 -66 140q-93 0 -93 -287z" />
    <glyph glyph-name="trademark" unicode="&#x2122;" horiz-adv-x="2158" 
d="M88 1352h773l2 -227h-58l-6 44q-10 41 -22.5 66.5t-31 37t-35.5 14.5t-45 3h-103v-604q0 -22 1.5 -33.5t9 -26t25.5 -21t47 -6.5h35v-56h-411v56h35q28 0 46 6.5t25.5 20.5t9.5 26.5t2 33.5v604h-107q-25 0 -41 -3t-37.5 -14t-35.5 -38t-20 -70l-3 -40h-57zM1989 599h38
v-56h-412v56h34q50 0 66 19t16 68v511h-12l-291 -654h-46l-293 654h-8v-473q0 -125 80 -125h32v-56h-280v56h30q22 0 37.5 9.5t22.5 21.5t11 32t4.5 30.5t0.5 27.5v3.5v2.5v480q0 23 -2 35.5t-9 26.5t-23.5 20.5t-43.5 6.5h-28v57h290l261 -582l263 582h299v-57h-37
q-29 0 -47 -6t-25 -20.5t-9 -26.5t-2 -35v-521q0 -21 2 -33t9 -26.5t25 -21t47 -6.5z" />
    <glyph glyph-name="uni2126" unicode="&#x2126;" horiz-adv-x="1451" 
d="M142 0v363h68v-68q0 -132 127 -132h223v105q-82 33 -148.5 80.5t-123.5 117t-89 167.5t-32 217q0 169 63.5 299t191.5 205t303 75q132 0 239.5 -46.5t177.5 -126t107.5 -183.5t37.5 -220q0 -201 -106.5 -357.5t-283.5 -217.5v-115h219q128 0 128 129v71h68v-363h-518v347
q100 62 148 202.5t48 298.5q0 502 -265 502q-137 0 -206 -132t-69 -367q0 -191 55 -329t158 -185v-337h-521z" />
    <glyph glyph-name="partialdiff" unicode="&#x2202;" horiz-adv-x="1010" 
d="M379 -22q-144 0 -221.5 100.5t-77.5 283.5q0 109 32 214t88.5 187t142 132.5t183.5 50.5q52 0 93 -17t66 -46t39.5 -58.5t22.5 -62.5h1q8 70 8 183q0 66 -12.5 131.5t-38 124t-69 94.5t-99.5 36q-135 0 -236 -141l-36 43q131 250 351 250q80 0 136 -35.5t86.5 -102.5
t44 -149.5t13.5 -190.5q0 -112 -30 -271.5t-70 -267.5q-103 -273 -197.5 -380.5t-219.5 -107.5zM471 81q47 0 90 50t75.5 133.5t56.5 179.5t40 201q-15 205 -144 205q-72 0 -133.5 -78t-95.5 -203.5t-34 -264.5q0 -108 41 -165.5t104 -57.5z" />
    <glyph glyph-name="uni2206" unicode="&#x2206;" horiz-adv-x="1002" 
d="M623 1448l309 -1448h-862l313 1448h240zM434 1149l-234 -1054h456z" />
    <glyph glyph-name="product" unicode="&#x220f;" horiz-adv-x="1315" 
d="M127 -261v68h42q63 0 63 150v1254q0 150 -61 150h-49v68h1073v-68h-47q-65 0 -65 -150v-1254q0 -150 63 -150h44v-68h-468v68h41q64 0 64 150v1375h-340v-1375q0 -150 59 -150h44v-68h-463z" />
    <glyph glyph-name="summation" unicode="&#x2211;" horiz-adv-x="964" 
d="M791 160l70 -7l-25 -415h-752v83l324 714l-316 811v83h716l21 -338l-66 -1l-14 119q-8 73 -30.5 97.5t-61.5 24.5h-336l258 -661l-338 -732h443q38 0 63.5 20t32.5 79z" />
    <glyph glyph-name="minus" unicode="&#x2212;" horiz-adv-x="1509" 
d="M200 590v172h1110v-172h-1110z" />
    <glyph glyph-name="radical" unicode="&#x221a;" horiz-adv-x="706" 
d="M504 1496h72l-161 -1515h-112l-168 660l-64 -51l-45 61l188 141l145 -627z" />
    <glyph glyph-name="infinity" unicode="&#x221e;" horiz-adv-x="1285" 
d="M898 830q106 0 175 -71t69 -183q0 -110 -68.5 -184t-170.5 -74q-85 0 -141 38t-105 120q-50 -74 -114 -117t-157 -43q-106 0 -175.5 71.5t-69.5 181.5q0 111 68.5 184.5t175.5 73.5q85 0 142 -43.5t100 -116.5q101 163 271 163zM901 401q74 0 117 51t43 124q0 76 -39 123
t-114 47q-17 0 -33 -3.5t-28.5 -7.5t-26 -15t-22 -16.5t-20.5 -22t-17.5 -23t-17 -27t-14 -25.5t-14.5 -28.5t-14 -26.5q73 -150 200 -150zM381 398q37 0 68 16t55.5 48t39 56t34.5 64q2 4 3.5 7.5t3.5 6.5q-79 147 -197 147q-71 0 -118.5 -46t-47.5 -127q0 -77 41.5 -124.5
t117.5 -47.5z" />
    <glyph glyph-name="integral" unicode="&#x222b;" horiz-adv-x="623" 
d="M205 -425q-54 0 -89 34t-35 85q0 35 17.5 58.5t52.5 23.5q29 0 51 -37q12 -31 48 -31q35 0 37 61q1 23 -9 75t-25.5 128t-23.5 132q-32 203 -32 450q0 213 14 402q15 295 54 411q24 76 66 117t88 41q60 0 92 -31t34 -81q3 -80 -56 -80q-38 -2 -58 32q-17 27 -54 27
q-34 0 -38 -37q-4 -33 1.5 -80.5t20 -125t20.5 -120.5q16 -81 29.5 -225.5t13.5 -245.5q0 -357 -19 -506q-27 -248 -52 -325q-23 -72 -57 -112t-91 -40z" />
    <glyph glyph-name="approxequal" unicode="&#x2248;" horiz-adv-x="1273" 
d="M216 684l-114 128q68 92 141 141t180 49q122 0 240 -64q121 -67 199 -67q55 0 99 37t85 99l114 -128q-61 -87 -130.5 -133t-163.5 -46q-115 0 -231 65q-114 66 -205 66q-65 0 -115 -39.5t-99 -107.5zM216 210l-114 130q68 92 141 141t180 49q124 0 240 -66
q121 -67 199 -67q94 0 184 137l114 -129q-62 -87 -131.5 -133t-162.5 -46q-116 0 -231 66q-116 67 -205 67q-65 0 -115 -40t-99 -109z" />
    <glyph glyph-name="notequal" unicode="&#x2260;" horiz-adv-x="1340" 
d="M1225 828h-351l-156 -304h507v-171h-595l-199 -386h-234l199 386h-281v171h370l157 304h-527v171h615l184 356h231l-183 -356h263v-171z" />
    <glyph glyph-name="lessequal" unicode="&#x2264;" horiz-adv-x="1315" 
d="M1156 1237v-186l-802 -264l802 -264v-185l-1049 366v167zM117 0v171h1039v-171h-1039z" />
    <glyph glyph-name="greaterequal" unicode="&#x2265;" horiz-adv-x="1315" 
d="M159 1237l1049 -366v-167l-1049 -366v185l802 264l-802 264v186zM159 0v171h1039v-171h-1039z" />
    <glyph glyph-name="a.sc" horiz-adv-x="1287" 
d="M1208 80l32 -3v-77h-539v77l76 3q26 2 40.5 13t5.5 28l-64 136h-409l-50 -104q-18 -37 6.5 -54t62.5 -19l62 -2v-78h-382v78l26 7q46 21 78 47.5t45.5 46t31.5 53.5l363 735h99l366 -735q2 -3 11.5 -22t12 -23t11.5 -20t14 -21t14.5 -17t17.5 -17t19 -12.5t23.5 -12
t26.5 -7.5zM388 337h333l-150 319h-31z" />
    <glyph glyph-name="aacute.sc" horiz-adv-x="1287" 
d="M1085 1411l-438 -318h-76l176 322h338v-4zM1208 80l32 -3v-77h-539v77l76 3q26 2 40.5 13t5.5 28l-64 136h-409l-50 -104q-18 -37 6.5 -54t62.5 -19l62 -2v-78h-382v78l26 7q46 21 78 47.5t45.5 46t31.5 53.5l363 735h99l366 -735q2 -3 11.5 -22t12 -23t11.5 -20t14 -21
t14.5 -17t17.5 -17t19 -12.5t23.5 -12t26.5 -7.5zM388 337h333l-150 319h-31z" />
    <glyph glyph-name="acircumflex.sc" horiz-adv-x="1287" 
d="M647 1300l-280 -207h-76l240 322h231l240 -322h-76zM1208 80l32 -3v-77h-539v77l76 3q26 2 40.5 13t5.5 28l-64 136h-409l-50 -104q-18 -37 6.5 -54t62.5 -19l62 -2v-78h-382v78l26 7q46 21 78 47.5t45.5 46t31.5 53.5l363 735h99l366 -735q2 -3 11.5 -22t12 -23
t11.5 -20t14 -21t14.5 -17t17.5 -17t19 -12.5t23.5 -12t26.5 -7.5zM388 337h333l-150 319h-31z" />
    <glyph glyph-name="adieresis.sc" horiz-adv-x="1287" 
d="M441 1169q-50 0 -86.5 36.5t-36.5 86.5t36 86.5t87 36.5t87 -36t36 -87q0 -53 -36 -88t-87 -35zM845 1169q-50 0 -86.5 36t-36.5 87t36 87t87 36t87 -36.5t36 -86.5q0 -52 -36 -87.5t-87 -35.5zM1208 80l32 -3v-77h-539v77l76 3q26 2 40.5 13t5.5 28l-64 136h-409
l-50 -104q-18 -37 6.5 -54t62.5 -19l62 -2v-78h-382v78l26 7q46 21 78 47.5t45.5 46t31.5 53.5l363 735h99l366 -735q2 -3 11.5 -22t12 -23t11.5 -20t14 -21t14.5 -17t17.5 -17t19 -12.5t23.5 -12t26.5 -7.5zM388 337h333l-150 319h-31z" />
    <glyph glyph-name="agrave.sc" horiz-adv-x="1287" 
d="M723 1093h-76l-438 318v4h338zM1208 80l32 -3v-77h-539v77l76 3q26 2 40.5 13t5.5 28l-64 136h-409l-50 -104q-18 -37 6.5 -54t62.5 -19l62 -2v-78h-382v78l26 7q46 21 78 47.5t45.5 46t31.5 53.5l363 735h99l366 -735q2 -3 11.5 -22t12 -23t11.5 -20t14 -21t14.5 -17
t17.5 -17t19 -12.5t23.5 -12t26.5 -7.5zM388 337h333l-150 319h-31z" />
    <glyph glyph-name="aring.sc" horiz-adv-x="1287" 
d="M647 1039q-79 0 -135.5 56.5t-56.5 135.5q0 80 56 135.5t136 55.5t136.5 -55.5t56.5 -135.5t-56.5 -136t-136.5 -56zM647 1354q-50 0 -85 -35.5t-35 -87.5q0 -51 35 -86.5t85 -35.5q52 0 87.5 35.5t35.5 86.5q0 52 -35.5 87.5t-87.5 35.5zM1208 80l32 -3v-77h-539v77
l76 3q26 2 40.5 13t5.5 28l-64 136h-409l-50 -104q-18 -37 6.5 -54t62.5 -19l62 -2v-78h-382v78l26 7q46 21 78 47.5t45.5 46t31.5 53.5l363 735h99l366 -735q2 -3 11.5 -22t12 -23t11.5 -20t14 -21t14.5 -17t17.5 -17t19 -12.5t23.5 -12t26.5 -7.5zM388 337h333l-150 319
h-31z" />
    <glyph glyph-name="atilde.sc" horiz-adv-x="1287" 
d="M375 1091h-73q-4 128 50.5 202.5t158.5 74.5q10 0 20.5 -1t22 -3t19.5 -3.5t21.5 -6t20 -6.5t21.5 -7.5t20 -7.5l22.5 -9t21.5 -9q9 -4 27.5 -12t25.5 -11t20 -7.5t23.5 -6t22.5 -1.5q39 0 66 28t31 84h75q8 -120 -45.5 -208.5t-157.5 -88.5q-73 0 -191 54
q-88 40 -132 40q-43 0 -65 -29.5t-25 -65.5zM1208 80l32 -3v-77h-539v77l76 3q26 2 40.5 13t5.5 28l-64 136h-409l-50 -104q-18 -37 6.5 -54t62.5 -19l62 -2v-78h-382v78l26 7q46 21 78 47.5t45.5 46t31.5 53.5l363 735h99l366 -735q2 -3 11.5 -22t12 -23t11.5 -20t14 -21
t14.5 -17t17.5 -17t19 -12.5t23.5 -12t26.5 -7.5zM388 337h333l-150 319h-31z" />
    <glyph glyph-name="b.sc" horiz-adv-x="1328" 
d="M864 505q38 -4 75.5 -11t86.5 -26t84.5 -45.5t60.5 -72t24 -102.5q0 -51 -20 -91.5t-48 -66t-74.5 -44t-83 -27t-90.5 -13.5t-81 -5.5t-70 -0.5h-601v77h65q54 0 72 29.5t18 87.5v556q0 54 -16.5 85t-61.5 31h-77l1 83l686 -3q155 -1 242 -62.5t85 -156.5q0 -46 -22 -84
t-52 -61t-71 -40.5t-71.5 -25t-60.5 -11.5zM671 874h-132v-329h112q113 0 163 38.5t51 122.5q1 83 -51 125.5t-143 42.5zM913 271q0 40 -8.5 70.5t-20 50t-35 33.5t-41 20.5t-51 10t-52.5 4t-57 0.5h-109v-268q0 -107 74 -107h94q57 0 99 17.5t64 46.5t32 59t11 63z" />
    <glyph glyph-name="c.sc" horiz-adv-x="1431" 
d="M708 -21q-142 0 -256 39.5t-185.5 107.5t-109.5 155t-38 185q0 74 23.5 145.5t72.5 136t118 113.5t167.5 77.5t213.5 28.5q214 0 382 -131l29 101h85l8 -351h-81q-8 27 -24.5 59.5t-50 74.5t-75 75t-104.5 56t-135 23q-82 0 -144.5 -27.5t-98 -69.5t-58 -102t-29.5 -115
t-7 -119q0 -369 347 -369q88 0 163.5 29.5t137 97.5t89.5 168h84v-359h-84l-41 101q-44 -38 -87.5 -63t-126 -46t-185.5 -21z" />
    <glyph glyph-name="ccedilla.sc" horiz-adv-x="1431" 
d="M1148 367h84v-359h-84l-41 101q-43 -37 -84.5 -61.5t-119 -45.5t-173.5 -23l-18 -87q106 -1 173.5 -46.5t67.5 -123.5q0 -37 -17.5 -72t-53 -66t-99.5 -50t-148 -19q-108 0 -202 23l17 95q70 -12 150 -12q107 0 157 27t50 65q0 16 -11 28t-34 18.5t-41.5 11t-51.5 6
t-45 1.5h-39l37 205q-122 11 -219 55t-158.5 109.5t-93.5 147t-32 171.5q0 74 23.5 145.5t72.5 136t118 113.5t167.5 77.5t213.5 28.5q214 0 382 -131l29 101h85l8 -351h-81q-8 27 -24.5 59.5t-50 74.5t-75 75t-104.5 56t-135 23q-82 0 -144.5 -27.5t-98 -69.5t-58 -102
t-29.5 -115t-7 -119q0 -369 347 -369q88 0 163.5 29.5t137 97.5t89.5 168z" />
    <glyph glyph-name="d.sc" horiz-adv-x="1503" 
d="M125 0v78h73q51 0 69.5 30.5t18.5 87.5v558q0 58 -18 87.5t-73 29.5h-70v75h492q146 0 259.5 -13.5t210.5 -47t160.5 -87.5t98.5 -136.5t35 -192.5q0 -113 -36 -196t-98.5 -135t-161 -83t-209.5 -43t-259 -12h-492zM671 85h112q100 0 171 55.5t103 140.5t32 189
q0 406 -412 406h-134v-653q0 -37 2.5 -56t14 -41t39 -31.5t72.5 -9.5z" />
    <glyph glyph-name="e.sc" horiz-adv-x="1344" 
d="M1107 310l86 1l-13 -311h-1056v78h62q62 0 82.5 29.5t20.5 88.5v555q0 64 -23.5 90.5t-97.5 26.5h-44v78h990l17 -245l-85 1l-26 67q-40 59 -74 75.5t-101 16.5h-300v-325h173q26 0 43 2t36 8t28.5 20t9.5 36v50h87v-320h-87v41q0 26 -8.5 42.5t-26.5 24t-35 9.5t-44 2
h-176v-230q0 -36 2.5 -56t13 -41t34.5 -30t63 -9h193q72 0 114.5 13.5t60 33t39.5 61.5z" />
    <glyph glyph-name="eacute.sc" horiz-adv-x="1344" 
d="M1110 1348l-438 -318h-76l176 322h338v-4zM1107 310l86 1l-13 -311h-1056v78h62q62 0 82.5 29.5t20.5 88.5v555q0 64 -23.5 90.5t-97.5 26.5h-44v78h990l17 -245l-85 1l-26 67q-40 59 -74 75.5t-101 16.5h-300v-325h173q26 0 43 2t36 8t28.5 20t9.5 36v50h87v-320h-87v41
q0 26 -8.5 42.5t-26.5 24t-35 9.5t-44 2h-176v-230q0 -36 2.5 -56t13 -41t34.5 -30t63 -9h193q72 0 114.5 13.5t60 33t39.5 61.5z" />
    <glyph glyph-name="ecircumflex.sc" horiz-adv-x="1344" 
d="M672 1237l-280 -207h-76l240 322h231l240 -322h-76zM1107 310l86 1l-13 -311h-1056v78h62q62 0 82.5 29.5t20.5 88.5v555q0 64 -23.5 90.5t-97.5 26.5h-44v78h990l17 -245l-85 1l-26 67q-40 59 -74 75.5t-101 16.5h-300v-325h173q26 0 43 2t36 8t28.5 20t9.5 36v50h87
v-320h-87v41q0 26 -8.5 42.5t-26.5 24t-35 9.5t-44 2h-176v-230q0 -36 2.5 -56t13 -41t34.5 -30t63 -9h193q72 0 114.5 13.5t60 33t39.5 61.5z" />
    <glyph glyph-name="edieresis.sc" horiz-adv-x="1344" 
d="M466 1106q-50 0 -86.5 36.5t-36.5 86.5t36 86.5t87 36.5t87 -36t36 -87q0 -53 -36 -88t-87 -35zM870 1106q-50 0 -86.5 36t-36.5 87t36 87t87 36t87 -36.5t36 -86.5q0 -52 -36 -87.5t-87 -35.5zM1107 310l86 1l-13 -311h-1056v78h62q62 0 82.5 29.5t20.5 88.5v555
q0 64 -23.5 90.5t-97.5 26.5h-44v78h990l17 -245l-85 1l-26 67q-40 59 -74 75.5t-101 16.5h-300v-325h173q26 0 43 2t36 8t28.5 20t9.5 36v50h87v-320h-87v41q0 26 -8.5 42.5t-26.5 24t-35 9.5t-44 2h-176v-230q0 -36 2.5 -56t13 -41t34.5 -30t63 -9h193q72 0 114.5 13.5
t60 33t39.5 61.5z" />
    <glyph glyph-name="egrave.sc" horiz-adv-x="1344" 
d="M748 1030h-76l-438 318v4h338zM1107 310l86 1l-13 -311h-1056v78h62q62 0 82.5 29.5t20.5 88.5v555q0 64 -23.5 90.5t-97.5 26.5h-44v78h990l17 -245l-85 1l-26 67q-40 59 -74 75.5t-101 16.5h-300v-325h173q26 0 43 2t36 8t28.5 20t9.5 36v50h87v-320h-87v41
q0 26 -8.5 42.5t-26.5 24t-35 9.5t-44 2h-176v-230q0 -36 2.5 -56t13 -41t34.5 -30t63 -9h193q72 0 114.5 13.5t60 33t39.5 61.5z" />
    <glyph glyph-name="f.sc" horiz-adv-x="1195" 
d="M126 0v78h44q71 0 94 26.5t23 91.5v555q0 66 -23.5 91.5t-99.5 25.5h-42v78h978l10 -251l-88 1l-14 54q-24 37 -50 61t-52 34t-44 13t-42 3h-276v-322h158q54 0 81.5 20t27.5 73v21h86v-324h-86v21q0 54 -24 79t-86 25h-157v-258q0 -61 24.5 -89.5t102.5 -28.5h48v-78
h-593z" />
    <glyph glyph-name="g.sc" horiz-adv-x="1480" 
d="M725 -21q-118 0 -219.5 27.5t-172.5 75t-121.5 109t-74.5 130t-24 139.5q0 76 27.5 150.5t80 138.5t123.5 113t165 77t198 28q70 0 133 -10.5t115 -31.5t76.5 -33t60.5 -32l27 96h82l10 -330h-83q-17 31 -28 50t-45.5 59.5t-70.5 65t-97 45t-132 20.5q-62 0 -113 -15
t-86.5 -39.5t-63 -59.5t-43.5 -72t-26.5 -80t-14 -79.5t-3.5 -74.5q0 -55 7.5 -102.5t30 -99.5t58.5 -88.5t99 -60t146 -23.5q245 0 261 173q0 64 -28.5 90.5t-99.5 26.5h-137v77h633v-77h-34q-47 0 -62 -30t-15 -95v-237h-93l-79 68q-88 -54 -169.5 -71.5t-197.5 -17.5z
" />
    <glyph glyph-name="h.sc" horiz-adv-x="1630" 
d="M122 0v78h55q71 0 92.5 27.5t21.5 90.5v555q0 62 -21.5 89.5t-92.5 27.5h-55v78h591v-78h-54q-70 0 -90.5 -28t-20.5 -89v-207h534v207q0 61 -21 89t-90 28h-55v78h592v-78h-56q-70 0 -92 -27.5t-22 -89.5v-555q0 -63 22 -90.5t92 -27.5h56v-78h-592v78h65q63 0 82 29.5
t19 88.5v258h-534v-258q0 -29 2.5 -47t12 -36t30.5 -26.5t54 -8.5h66v-78h-591z" />
    <glyph glyph-name="i.sc" horiz-adv-x="843" 
d="M122 0v78h46q78 0 101.5 27.5t23.5 90.5v558q0 63 -23.5 90t-101.5 27h-46v78h599v-78h-45q-79 0 -102.5 -25t-23.5 -92v-558q0 -67 23.5 -92.5t102.5 -25.5h45v-78h-599z" />
    <glyph glyph-name="iacute.sc" horiz-adv-x="843" 
d="M422 1093h-76l176 322h338v-4zM122 0v78h46q78 0 101.5 27.5t23.5 90.5v558q0 63 -23.5 90t-101.5 27h-46v78h599v-78h-45q-79 0 -102.5 -25t-23.5 -92v-558q0 -67 23.5 -92.5t102.5 -25.5h45v-78h-599z" />
    <glyph glyph-name="icircumflex.sc" horiz-adv-x="843" 
d="M66 1093l240 322h231l240 -322h-76l-279 207l-280 -207h-76zM122 0v78h46q78 0 101.5 27.5t23.5 90.5v558q0 63 -23.5 90t-101.5 27h-46v78h599v-78h-45q-79 0 -102.5 -25t-23.5 -92v-558q0 -67 23.5 -92.5t102.5 -25.5h45v-78h-599z" />
    <glyph glyph-name="idieresis.sc" horiz-adv-x="843" 
d="M216 1169q-50 0 -86.5 36.5t-36.5 86.5t36 86.5t87 36.5t87 -36t36 -87q0 -53 -36 -88t-87 -35zM620 1169q-50 0 -86.5 36t-36.5 87t36 87t87 36t87 -36.5t36 -86.5q0 -52 -36 -87.5t-87 -35.5zM122 0v78h46q78 0 101.5 27.5t23.5 90.5v558q0 63 -23.5 90t-101.5 27h-46
v78h599v-78h-45q-79 0 -102.5 -25t-23.5 -92v-558q0 -67 23.5 -92.5t102.5 -25.5h45v-78h-599z" />
    <glyph glyph-name="igrave.sc" horiz-adv-x="843" 
d="M422 1093l-438 318v4h338l176 -322h-76zM122 0v78h46q78 0 101.5 27.5t23.5 90.5v558q0 63 -23.5 90t-101.5 27h-46v78h599v-78h-45q-79 0 -102.5 -25t-23.5 -92v-558q0 -67 23.5 -92.5t102.5 -25.5h45v-78h-599z" />
    <glyph glyph-name="j.sc" horiz-adv-x="811" 
d="M104 -338q-120 0 -193.5 43.5t-73.5 110.5q0 36 23 63t70 27q49 0 81.5 -22t32.5 -65q0 -11 -10 -27t-8 -25q14 -36 107 -36q96 0 130.5 68t34.5 211v741q0 29 -2.5 44.5t-13 35t-37.5 28.5t-70 9h-88v78h629v-78h-44q-72 0 -94.5 -27t-22.5 -90v-670q0 -130 -34 -209
q-92 -210 -417 -210z" />
    <glyph glyph-name="k.sc" horiz-adv-x="1569" 
d="M120 0v78h60q65 0 88 24.5t23 93.5v555q0 66 -23.5 91.5t-97.5 25.5h-50v78h600v-78h-54q-42 0 -68 -9t-36.5 -29t-13 -36t-2.5 -47v-256l364 241q78 45 78 94q0 21 -17 31.5t-42 10.5h-59v78h516v-78h-46q-46 0 -93.5 -17t-75.5 -34.5t-76.5 -53.5t-66.5 -48l-130 -100
l327 -381q8 -9 26.5 -30.5t25.5 -29t22 -24t22 -22.5t20.5 -17t22.5 -15t22 -9.5t25.5 -7t26.5 -1.5h64v-78h-636v78h59q82 0 82 43q0 20 -27.5 58.5t-61.5 72.5l-214 230l-158 -106v-180q0 -64 19 -89.5t74 -28.5l66 -1l4 -77h-589z" />
    <glyph glyph-name="l.sc" horiz-adv-x="1276" 
d="M120 0v78h56q67 0 92 23.5t25 94.5v555q0 64 -23 90.5t-97 26.5h-53v78h605v-78h-52q-77 0 -101 -24.5t-24 -92.5v-536q0 -30 1.5 -46t8 -35t19.5 -27.5t37.5 -15t60.5 -6.5h135q282 0 279 190l7 40l83 1l-11 -316h-1048z" />
    <glyph glyph-name="lslash.sc" horiz-adv-x="1276" 
d="M1096 315l83 1l-11 -316h-1048v78h56q67 0 92 23.5t25 94.5v57l-123 -95v137l123 95v361q0 64 -23 90.5t-97 26.5h-53v78h605v-78h-52q-77 0 -101 -24.5t-24 -92.5v-165l263 202v-137l-263 -202v-234q0 -30 1.5 -46t8 -35t19.5 -27.5t37.5 -15t60.5 -6.5h135
q282 0 279 190z" />
    <glyph glyph-name="m.sc" horiz-adv-x="1896" 
d="M1722 78h57v-78h-611v78h52q75 0 98.5 25t23.5 93v527h-18l-433 -723h-69l-435 723h-10v-471q0 -174 119 -174h47v-78h-417v78h46q114 0 114 160v8v7v496q0 30 -2.5 46.5t-13 36t-35.5 28t-65 8.5h-44v78h430l387 -641l392 641h441v-78h-54q-42 0 -68.5 -8.5t-37.5 -27.5
t-14 -35.5t-3 -45.5v-555q0 -29 3 -45.5t13.5 -35.5t37 -28t69.5 -9z" />
    <glyph glyph-name="n.sc" horiz-adv-x="1508" 
d="M990 946h419v-78h-46q-59 0 -84.5 -45.5t-25.5 -113.5v-725h-99l-768 709v-449q0 -24 1 -41t8.5 -43t20 -42t38 -28t61.5 -12h42v-78h-433v78h44q122 0 122 166v478q0 66 -33 106t-98 40h-40v78h371l668 -585v349q0 23 -3.5 44t-14.5 50t-38 46.5t-68 17.5h-44v78z" />
    <glyph glyph-name="ntilde.sc" horiz-adv-x="1508" 
d="M493 1091h-73q-4 128 50.5 202.5t158.5 74.5q10 0 20.5 -1t22 -3t19.5 -3.5t21.5 -6t20 -6.5t21.5 -7.5t20 -7.5l22.5 -9t21.5 -9q9 -4 27.5 -12t25.5 -11t20 -7.5t23.5 -6t22.5 -1.5q39 0 66 28t31 84h75q8 -120 -45.5 -208.5t-157.5 -88.5q-73 0 -191 54
q-88 40 -132 40q-43 0 -65 -29.5t-25 -65.5zM990 946h419v-78h-46q-59 0 -84.5 -45.5t-25.5 -113.5v-725h-99l-768 709v-449q0 -24 1 -41t8.5 -43t20 -42t38 -28t61.5 -12h42v-78h-433v78h44q122 0 122 166v478q0 66 -33 106t-98 40h-40v78h371l668 -585v349q0 23 -3.5 44
t-14.5 50t-38 46.5t-68 17.5h-44v78z" />
    <glyph glyph-name="o.sc" horiz-adv-x="1487" 
d="M745 -21q-289 0 -460 140.5t-171 358.5q0 66 23.5 133t74.5 131t122.5 114t176.5 80.5t228 30.5q130 0 239 -32t180 -83t121 -117t71.5 -133t21.5 -132q0 -70 -24 -139t-75 -133t-123 -112.5t-177 -77.5t-228 -29zM739 72q169 0 250.5 93t81.5 307q0 113 -23 192
t-67.5 124.5t-103 65.5t-137.5 20q-87 0 -151.5 -30t-102 -84.5t-55.5 -122.5t-18 -152q0 -53 7.5 -104t30 -109t57 -100.5t94.5 -71t137 -28.5z" />
    <glyph glyph-name="oacute.sc" horiz-adv-x="1487" 
d="M743 1093h-76l176 322h338v-4zM745 -21q-289 0 -460 140.5t-171 358.5q0 66 23.5 133t74.5 131t122.5 114t176.5 80.5t228 30.5q130 0 239 -32t180 -83t121 -117t71.5 -133t21.5 -132q0 -70 -24 -139t-75 -133t-123 -112.5t-177 -77.5t-228 -29zM739 72q169 0 250.5 93
t81.5 307q0 113 -23 192t-67.5 124.5t-103 65.5t-137.5 20q-87 0 -151.5 -30t-102 -84.5t-55.5 -122.5t-18 -152q0 -53 7.5 -104t30 -109t57 -100.5t94.5 -71t137 -28.5z" />
    <glyph glyph-name="ocircumflex.sc" horiz-adv-x="1487" 
d="M387 1093l240 322h231l240 -322h-76l-279 207l-280 -207h-76zM745 -21q-289 0 -460 140.5t-171 358.5q0 66 23.5 133t74.5 131t122.5 114t176.5 80.5t228 30.5q130 0 239 -32t180 -83t121 -117t71.5 -133t21.5 -132q0 -70 -24 -139t-75 -133t-123 -112.5t-177 -77.5
t-228 -29zM739 72q169 0 250.5 93t81.5 307q0 113 -23 192t-67.5 124.5t-103 65.5t-137.5 20q-87 0 -151.5 -30t-102 -84.5t-55.5 -122.5t-18 -152q0 -53 7.5 -104t30 -109t57 -100.5t94.5 -71t137 -28.5z" />
    <glyph glyph-name="odieresis.sc" horiz-adv-x="1487" 
d="M537 1169q-50 0 -86.5 36.5t-36.5 86.5t36 86.5t87 36.5t87 -36t36 -87q0 -53 -36 -88t-87 -35zM941 1169q-50 0 -86.5 36t-36.5 87t36 87t87 36t87 -36.5t36 -86.5q0 -52 -36 -87.5t-87 -35.5zM745 -21q-289 0 -460 140.5t-171 358.5q0 66 23.5 133t74.5 131t122.5 114
t176.5 80.5t228 30.5q130 0 239 -32t180 -83t121 -117t71.5 -133t21.5 -132q0 -70 -24 -139t-75 -133t-123 -112.5t-177 -77.5t-228 -29zM739 72q169 0 250.5 93t81.5 307q0 113 -23 192t-67.5 124.5t-103 65.5t-137.5 20q-87 0 -151.5 -30t-102 -84.5t-55.5 -122.5
t-18 -152q0 -53 7.5 -104t30 -109t57 -100.5t94.5 -71t137 -28.5z" />
    <glyph glyph-name="ograve.sc" horiz-adv-x="1487" 
d="M743 1093l-438 318v4h338l176 -322h-76zM745 -21q-289 0 -460 140.5t-171 358.5q0 66 23.5 133t74.5 131t122.5 114t176.5 80.5t228 30.5q130 0 239 -32t180 -83t121 -117t71.5 -133t21.5 -132q0 -70 -24 -139t-75 -133t-123 -112.5t-177 -77.5t-228 -29zM739 72
q169 0 250.5 93t81.5 307q0 113 -23 192t-67.5 124.5t-103 65.5t-137.5 20q-87 0 -151.5 -30t-102 -84.5t-55.5 -122.5t-18 -152q0 -53 7.5 -104t30 -109t57 -100.5t94.5 -71t137 -28.5z" />
    <glyph glyph-name="oslash.sc" horiz-adv-x="1487" 
d="M1145 861q113 -73 170 -179.5t57 -211.5q0 -70 -24 -139t-75 -133t-123 -112.5t-177 -77.5t-228 -29q-178 0 -318 58l-67 -77l-71 62l51 59q-109 67 -167.5 170t-58.5 227q0 66 23.5 133t74.5 131t122.5 114t176.5 80.5t228 30.5q183 0 321 -61l69 79l69 -63zM413 485
q0 -149 56 -256l499 572q-80 73 -228 73q-87 0 -151.5 -30t-102 -84.5t-55.5 -122.5t-18 -152zM739 72q169 0 250.5 93t81.5 307q0 159 -46 251l-498 -572q82 -79 212 -79z" />
    <glyph glyph-name="oslashacute.sc" horiz-adv-x="1487" 
d="M1181 1411l-438 -318h-76l176 322h338v-4zM1145 861q113 -73 170 -179.5t57 -211.5q0 -70 -24 -139t-75 -133t-123 -112.5t-177 -77.5t-228 -29q-178 0 -318 58l-67 -77l-71 62l51 59q-109 67 -167.5 170t-58.5 227q0 66 23.5 133t74.5 131t122.5 114t176.5 80.5
t228 30.5q183 0 321 -61l69 79l69 -63zM413 485q0 -149 56 -256l499 572q-80 73 -228 73q-87 0 -151.5 -30t-102 -84.5t-55.5 -122.5t-18 -152zM739 72q169 0 250.5 93t81.5 307q0 159 -46 251l-498 -572q82 -79 212 -79z" />
    <glyph glyph-name="otilde.sc" horiz-adv-x="1487" 
d="M398 1091q-4 128 50.5 202.5t158.5 74.5q10 0 20.5 -1t22 -3t19.5 -3.5t21.5 -6t20 -6.5t21.5 -7.5t20 -7.5l22.5 -9t21.5 -9q9 -4 27.5 -12t25.5 -11t20 -7.5t23.5 -6t22.5 -1.5q39 0 66 28t31 84h75q8 -120 -45.5 -208.5t-157.5 -88.5q-73 0 -191 54q-88 40 -132 40
q-43 0 -65 -29.5t-25 -65.5h-73zM745 -21q-289 0 -460 140.5t-171 358.5q0 66 23.5 133t74.5 131t122.5 114t176.5 80.5t228 30.5q130 0 239 -32t180 -83t121 -117t71.5 -133t21.5 -132q0 -70 -24 -139t-75 -133t-123 -112.5t-177 -77.5t-228 -29zM739 72q169 0 250.5 93
t81.5 307q0 113 -23 192t-67.5 124.5t-103 65.5t-137.5 20q-87 0 -151.5 -30t-102 -84.5t-55.5 -122.5t-18 -152q0 -53 7.5 -104t30 -109t57 -100.5t94.5 -71t137 -28.5z" />
    <glyph glyph-name="p.sc" horiz-adv-x="1260" 
d="M126 0v78h47q71 0 94 26.5t23 91.5v558q0 28 -3 44t-13.5 35.5t-37 28.5t-69.5 9h-48v75h492q88 0 141 -2t128 -9t119 -24t88.5 -44.5t65 -73t20.5 -106.5q0 -64 -25.5 -111.5t-68.5 -77t-107.5 -47.5t-134 -25t-156.5 -7h-134v-223q0 -29 3 -45.5t14 -35.5t38 -28t70 -9
h46v-78h-592zM547 504h111q34 0 56.5 1.5t53 6.5t51 17t39.5 30.5t28.5 50t9.5 72.5q0 47 -12.5 82t-32.5 55.5t-51.5 33t-64 16.5t-74.5 4h-114v-369z" />
    <glyph glyph-name="q.sc" horiz-adv-x="1412" 
d="M706 -21q-289 0 -460 140.5t-171 358.5q0 66 23.5 133t74.5 131t122.5 114t176.5 80.5t227 30.5q131 0 240 -32t180 -83t121 -117t71.5 -133t21.5 -132q0 -70 -24 -139t-75 -133t-123 -112.5t-177 -77.5t-228 -29zM699 72q170 0 251.5 93t81.5 307q0 113 -23 192
t-67.5 124.5t-103 65.5t-137.5 20q-87 0 -151.5 -30t-102 -84.5t-55.5 -122.5t-18 -152q0 -53 7.5 -104t29.5 -109t57 -100.5t94.5 -71t136.5 -28.5zM874 -80q57 -4 114 -23t95 -40t89.5 -38t101.5 -17q87 0 154 30l90 -115q-101 -83 -285 -83q-50 0 -95 8.5t-71.5 16
t-66 31t-50 31t-50.5 38.5q-10 7 -15 11q-114 88 -200 88q-51 0 -104.5 -25t-134.5 -80l-50 47q141 97 245 119q101 24 233 1z" />
    <glyph glyph-name="r.sc" horiz-adv-x="1444" 
d="M122 0v78h45q75 0 99 25t24 93v558q0 63 -22.5 88.5t-92.5 25.5h-53v78h618q79 0 141.5 -6.5t121 -24.5t97.5 -46.5t62 -75.5t23 -109q0 -96 -69 -155.5t-175 -63.5q27 -18 47.5 -38t54 -58t51.5 -57l134 -150q85 -84 130 -84h34v-78h-325l-223 292q-58 77 -97 101.5
t-102 24.5h-98v-222q0 -65 23.5 -91.5t97.5 -26.5h43v-78h-589zM547 504h111q47 0 79 2.5t69 13t59 29.5t37 54t15 84q0 53 -17 88.5t-52 54t-77 26t-102 7.5h-122v-359z" />
    <glyph glyph-name="s.sc" horiz-adv-x="1137" 
d="M625 -21q-219 0 -331 113l-25 -76h-91v326h91q10 -45 34.5 -89t65.5 -86.5t107 -68.5t147 -26q73 0 118.5 25.5t45.5 81.5q0 50 -42.5 82t-147.5 74q-203 87 -264 123q-111 65 -139 148q-11 35 -11 77q0 120 105 201.5t244 81.5q169 0 266 -81l25 64h87v-279h-87
q-24 107 -102 159t-170 52q-84 0 -127.5 -35.5t-43.5 -69.5q0 -54 50 -85t207 -92q24 -9 36 -14q76 -29 129 -56t101.5 -64t73 -84.5t24.5 -105.5q0 -87 -57.5 -156.5t-142.5 -104.5t-176 -35z" />
    <glyph glyph-name="scaron.sc" horiz-adv-x="1137" 
d="M459 1093l-240 322h75l280 -208l280 208h76l-240 -322h-231zM625 -21q-219 0 -331 113l-25 -76h-91v326h91q10 -45 34.5 -89t65.5 -86.5t107 -68.5t147 -26q73 0 118.5 25.5t45.5 81.5q0 50 -42.5 82t-147.5 74q-203 87 -264 123q-111 65 -139 148q-11 35 -11 77
q0 120 105 201.5t244 81.5q169 0 266 -81l25 64h87v-279h-87q-24 107 -102 159t-170 52q-84 0 -127.5 -35.5t-43.5 -69.5q0 -54 50 -85t207 -92q24 -9 36 -14q76 -29 129 -56t101.5 -64t73 -84.5t24.5 -105.5q0 -87 -57.5 -156.5t-142.5 -104.5t-176 -35z" />
    <glyph glyph-name="t.sc" horiz-adv-x="1327" 
d="M359 0v78h51q43 0 70 9t38.5 28t15 36t3.5 45v665h-160q-23 0 -34.5 -0.5t-35.5 -3.5t-38 -9t-33 -18.5t-30 -30t-20 -45.5t-11 -64l-2 -14l-86 1l4 269h1145l4 -269l-86 -1v17q-6 34 -15.5 60.5t-20.5 44t-27.5 30t-30.5 19t-35.5 10t-37 4t-40.5 0.5h-155v-665
q0 -29 2.5 -45t13.5 -35.5t38 -28.5t71 -9h53v-78h-611z" />
    <glyph glyph-name="u.sc" horiz-adv-x="1448" 
d="M732 -21q-243 0 -368.5 101t-125.5 301v370q0 63 -22.5 90t-99.5 27h-38v78h591v-78h-53q-74 0 -98 -25.5t-24 -91.5v-370q0 -145 70.5 -223t233.5 -78q92 0 156 23t100 68t51.5 102.5t15.5 135.5v311q0 65 -32 106.5t-102 41.5h-39v78h419v-78h-40q-59 0 -85.5 -40.5
t-26.5 -103.5v-319q0 -211 -118 -318.5t-365 -107.5z" />
    <glyph glyph-name="uacute.sc" horiz-adv-x="1448" 
d="M725 1094h-76l176 322h338v-4zM732 -21q-243 0 -368.5 101t-125.5 301v370q0 63 -22.5 90t-99.5 27h-38v78h591v-78h-53q-74 0 -98 -25.5t-24 -91.5v-370q0 -145 70.5 -223t233.5 -78q92 0 156 23t100 68t51.5 102.5t15.5 135.5v311q0 65 -32 106.5t-102 41.5h-39v78h419
v-78h-40q-59 0 -85.5 -40.5t-26.5 -103.5v-319q0 -211 -118 -318.5t-365 -107.5z" />
    <glyph glyph-name="ucircumflex.sc" horiz-adv-x="1448" 
d="M369 1094l240 322h231l240 -322h-76l-279 207l-280 -207h-76zM732 -21q-243 0 -368.5 101t-125.5 301v370q0 63 -22.5 90t-99.5 27h-38v78h591v-78h-53q-74 0 -98 -25.5t-24 -91.5v-370q0 -145 70.5 -223t233.5 -78q92 0 156 23t100 68t51.5 102.5t15.5 135.5v311
q0 65 -32 106.5t-102 41.5h-39v78h419v-78h-40q-59 0 -85.5 -40.5t-26.5 -103.5v-319q0 -211 -118 -318.5t-365 -107.5z" />
    <glyph glyph-name="udieresis.sc" horiz-adv-x="1448" 
d="M519 1170q-50 0 -86.5 36.5t-36.5 86.5t36 86.5t87 36.5t87 -36t36 -87q0 -53 -36 -88t-87 -35zM923 1170q-50 0 -86.5 36t-36.5 87t36 87t87 36t87 -36.5t36 -86.5q0 -52 -36 -87.5t-87 -35.5zM732 -21q-243 0 -368.5 101t-125.5 301v370q0 63 -22.5 90t-99.5 27h-38v78
h591v-78h-53q-74 0 -98 -25.5t-24 -91.5v-370q0 -145 70.5 -223t233.5 -78q92 0 156 23t100 68t51.5 102.5t15.5 135.5v311q0 65 -32 106.5t-102 41.5h-39v78h419v-78h-40q-59 0 -85.5 -40.5t-26.5 -103.5v-319q0 -211 -118 -318.5t-365 -107.5z" />
    <glyph glyph-name="ugrave.sc" horiz-adv-x="1448" 
d="M725 1094l-438 318v4h338l176 -322h-76zM732 -21q-243 0 -368.5 101t-125.5 301v370q0 63 -22.5 90t-99.5 27h-38v78h591v-78h-53q-74 0 -98 -25.5t-24 -91.5v-370q0 -145 70.5 -223t233.5 -78q92 0 156 23t100 68t51.5 102.5t15.5 135.5v311q0 65 -32 106.5t-102 41.5
h-39v78h419v-78h-40q-59 0 -85.5 -40.5t-26.5 -103.5v-319q0 -211 -118 -318.5t-365 -107.5z" />
    <glyph glyph-name="v.sc" horiz-adv-x="1377" 
d="M924 946h404v-78h-34q-49 0 -77.5 -32.5t-85.5 -136.5q-15 -28 -24 -44l-351 -677h-104l-396 725q-11 19 -28.5 51.5t-24.5 44t-20.5 29.5t-24.5 24t-27.5 11t-38.5 5h-45v78h593v-78h-62q-142 0 -65 -123l276 -476l239 431q27 45 33.5 82t-15.5 61.5t-74 24.5h-48v78z
" />
    <glyph glyph-name="w.sc" horiz-adv-x="1804" 
d="M1375 946h375v-78h-28q-34 0 -59.5 -26.5t-39.5 -57t-41 -106.5q-5 -13 -7 -19l-242 -680h-127l-310 661l-268 -661h-132l-288 751q-33 86 -56 112t-72 26h-27v78h518v-78h-55q-59 0 -70.5 -33t17.5 -92l185 -442l259 645h125l304 -641l138 360q17 40 25 74t6 64
t-22.5 47.5t-59.5 17.5h-48v78z" />
    <glyph glyph-name="wacute.sc" horiz-adv-x="1804" 
d="M1340 1411l-438 -318h-76l176 322h338v-4zM1375 946h375v-78h-28q-34 0 -59.5 -26.5t-39.5 -57t-41 -106.5q-5 -13 -7 -19l-242 -680h-127l-310 661l-268 -661h-132l-288 751q-33 86 -56 112t-72 26h-27v78h518v-78h-55q-59 0 -70.5 -33t17.5 -92l185 -442l259 645h125
l304 -641l138 360q17 40 25 74t6 64t-22.5 47.5t-59.5 17.5h-48v78z" />
    <glyph glyph-name="wcircumflex.sc" horiz-adv-x="1804" 
d="M902 1300l-280 -207h-76l240 322h231l240 -322h-76zM1375 946h375v-78h-28q-34 0 -59.5 -26.5t-39.5 -57t-41 -106.5q-5 -13 -7 -19l-242 -680h-127l-310 661l-268 -661h-132l-288 751q-33 86 -56 112t-72 26h-27v78h518v-78h-55q-59 0 -70.5 -33t17.5 -92l185 -442
l259 645h125l304 -641l138 360q17 40 25 74t6 64t-22.5 47.5t-59.5 17.5h-48v78z" />
    <glyph glyph-name="wdieresis.sc" horiz-adv-x="1804" 
d="M696 1169q-50 0 -86.5 36.5t-36.5 86.5t36 86.5t87 36.5t87 -36t36 -87q0 -53 -36 -88t-87 -35zM1100 1169q-50 0 -86.5 36t-36.5 87t36 87t87 36t87 -36.5t36 -86.5q0 -52 -36 -87.5t-87 -35.5zM1375 946h375v-78h-28q-34 0 -59.5 -26.5t-39.5 -57t-41 -106.5
q-5 -13 -7 -19l-242 -680h-127l-310 661l-268 -661h-132l-288 751q-33 86 -56 112t-72 26h-27v78h518v-78h-55q-59 0 -70.5 -33t17.5 -92l185 -442l259 645h125l304 -641l138 360q17 40 25 74t6 64t-22.5 47.5t-59.5 17.5h-48v78z" />
    <glyph glyph-name="wgrave.sc" horiz-adv-x="1804" 
d="M978 1093h-76l-438 318v4h338zM1375 946h375v-78h-28q-34 0 -59.5 -26.5t-39.5 -57t-41 -106.5q-5 -13 -7 -19l-242 -680h-127l-310 661l-268 -661h-132l-288 751q-33 86 -56 112t-72 26h-27v78h518v-78h-55q-59 0 -70.5 -33t17.5 -92l185 -442l259 645h125l304 -641
l138 360q17 40 25 74t6 64t-22.5 47.5t-59.5 17.5h-48v78z" />
    <glyph glyph-name="x.sc" horiz-adv-x="1562" 
d="M105 0v78h38q64 0 226 125l296 238l-292 274q-25 23 -57.5 56t-46 45.5t-34 27.5t-38.5 19.5t-43 4.5h-55v78h628v-78h-61q-53 0 -59.5 -27t40.5 -70l188 -172l198 163q59 46 50 76t-73 30h-60v78h465v-78h-36q-80 0 -248 -129l-236 -195l304 -295q20 -20 49.5 -52.5
t46 -48.5t40 -35t47.5 -27t52 -8h49v-78h-676v78h69q79 0 90.5 31.5t-51.5 91.5l-196 182l-219 -185q-59 -48 -46 -84t86 -36h68v-78h-503z" />
    <glyph glyph-name="y.sc" horiz-adv-x="1299" 
d="M347 0v78h61q76 0 97.5 27.5t21.5 88.5v195l-292 359q-9 10 -27 32.5t-25 31t-21 22.5t-23.5 19.5t-23 10t-27.5 4.5h-41v78h565v-78h-65q-38 0 -51.5 -17t-4.5 -41t33 -50l226 -256l197 221q54 55 41.5 99t-81.5 44h-51v78h396v-78h-21q-10 0 -19 -1.5t-18.5 -6
t-16.5 -8t-17.5 -13t-16 -14t-17.5 -18t-17 -18.5t-19.5 -22t-19.5 -23l-285 -339l-1 -209q-2 -63 20.5 -90.5t98.5 -27.5h59v-78h-615z" />
    <glyph glyph-name="yacute.sc" horiz-adv-x="1299" 
d="M650 1093h-76l176 322h338v-4zM347 0v78h61q76 0 97.5 27.5t21.5 88.5v195l-292 359q-9 10 -27 32.5t-25 31t-21 22.5t-23.5 19.5t-23 10t-27.5 4.5h-41v78h565v-78h-65q-38 0 -51.5 -17t-4.5 -41t33 -50l226 -256l197 221q54 55 41.5 99t-81.5 44h-51v78h396v-78h-21
q-10 0 -19 -1.5t-18.5 -6t-16.5 -8t-17.5 -13t-16 -14t-17.5 -18t-17 -18.5t-19.5 -22t-19.5 -23l-285 -339l-1 -209q-2 -63 20.5 -90.5t98.5 -27.5h59v-78h-615z" />
    <glyph glyph-name="ycircumflex.sc" horiz-adv-x="1299" 
d="M294 1093l240 322h231l240 -322h-76l-279 207l-280 -207h-76zM347 0v78h61q76 0 97.5 27.5t21.5 88.5v195l-292 359q-9 10 -27 32.5t-25 31t-21 22.5t-23.5 19.5t-23 10t-27.5 4.5h-41v78h565v-78h-65q-38 0 -51.5 -17t-4.5 -41t33 -50l226 -256l197 221q54 55 41.5 99
t-81.5 44h-51v78h396v-78h-21q-10 0 -19 -1.5t-18.5 -6t-16.5 -8t-17.5 -13t-16 -14t-17.5 -18t-17 -18.5t-19.5 -22t-19.5 -23l-285 -339l-1 -209q-2 -63 20.5 -90.5t98.5 -27.5h59v-78h-615z" />
    <glyph glyph-name="ydieresis.sc" horiz-adv-x="1299" 
d="M444 1169q-50 0 -86.5 36.5t-36.5 86.5t36 86.5t87 36.5t87 -36t36 -87q0 -53 -36 -88t-87 -35zM848 1169q-50 0 -86.5 36t-36.5 87t36 87t87 36t87 -36.5t36 -86.5q0 -52 -36 -87.5t-87 -35.5zM347 0v78h61q76 0 97.5 27.5t21.5 88.5v195l-292 359q-9 10 -27 32.5
t-25 31t-21 22.5t-23.5 19.5t-23 10t-27.5 4.5h-41v78h565v-78h-65q-38 0 -51.5 -17t-4.5 -41t33 -50l226 -256l197 221q54 55 41.5 99t-81.5 44h-51v78h396v-78h-21q-10 0 -19 -1.5t-18.5 -6t-16.5 -8t-17.5 -13t-16 -14t-17.5 -18t-17 -18.5t-19.5 -22t-19.5 -23
l-285 -339l-1 -209q-2 -63 20.5 -90.5t98.5 -27.5h59v-78h-615z" />
    <glyph glyph-name="ygrave.sc" horiz-adv-x="1299" 
d="M650 1093l-438 318v4h338l176 -322h-76zM347 0v78h61q76 0 97.5 27.5t21.5 88.5v195l-292 359q-9 10 -27 32.5t-25 31t-21 22.5t-23.5 19.5t-23 10t-27.5 4.5h-41v78h565v-78h-65q-38 0 -51.5 -17t-4.5 -41t33 -50l226 -256l197 221q54 55 41.5 99t-81.5 44h-51v78h396
v-78h-21q-10 0 -19 -1.5t-18.5 -6t-16.5 -8t-17.5 -13t-16 -14t-17.5 -18t-17 -18.5t-19.5 -22t-19.5 -23l-285 -339l-1 -209q-2 -63 20.5 -90.5t98.5 -27.5h59v-78h-615z" />
    <glyph glyph-name="z.sc" horiz-adv-x="1313" 
d="M1098 282h87l-24 -282h-1038v61l691 800h-288q-103 0 -158 -25t-98 -73l-37 -70l-84 1l21 252h978v-64l-700 -797h363h14q41 0 60.5 0.5t50.5 5.5t49.5 15.5t40 30.5t39.5 50z" />
    <glyph glyph-name="zcaron.sc" horiz-adv-x="1313" 
d="M771 1093h-231l-240 322h75l280 -208l280 208h76zM1098 282h87l-24 -282h-1038v61l691 800h-288q-103 0 -158 -25t-98 -73l-37 -70l-84 1l21 252h978v-64l-700 -797h363h14q41 0 60.5 0.5t50.5 5.5t49.5 15.5t40 30.5t39.5 50z" />
    <glyph glyph-name="zero.sc" horiz-adv-x="1108" 
d="M553 -21q-57 0 -112 10t-121.5 43t-115.5 85.5t-82.5 147t-33.5 218.5q0 147 63.5 258t168.5 167t233 56q68 0 132 -15.5t126 -52.5t107.5 -91.5t73.5 -140t28 -191.5q0 -230 -130.5 -362t-336.5 -132zM559 66q110 0 150.5 81.5t40.5 290.5q0 249 -41 344t-158 95
q-58 0 -97.5 -30.5t-59.5 -88.5t-28 -124t-8 -155q0 -222 42 -317.5t159 -95.5z" />
    <glyph glyph-name="one.sc" horiz-adv-x="1108" 
d="M816 83h161v-83h-813v83h175q65 0 87 21t22 69v644q-110 -12 -284 -12v80q178 6 273.5 21t175.5 58h96v-786q0 -24 2.5 -38t12.5 -29t32.5 -21.5t59.5 -6.5z" />
    <glyph glyph-name="two.sc" horiz-adv-x="1108" 
d="M950 245h91l-128 -283h-94q9 20 1 29t-46 9h-662v68q79 36 190 123.5t210 189.5q61 61 105.5 145t44.5 168q0 72 -50.5 126t-143.5 54q-81 0 -134.5 -31.5t-53.5 -75.5q0 -50 42 -96l-150 -63q-19 22 -29.5 37t-19.5 39t-9 51q0 70 58.5 123t151.5 79.5t203 26.5
q177 0 291 -70.5t114 -188.5q0 -20 -3 -39t-12.5 -38.5t-16 -34t-24 -35.5t-26.5 -32.5t-33 -35t-33.5 -32.5t-39.5 -35.5t-39 -35.5q-74 -69 -129.5 -113.5t-83 -62t-78.5 -46.5q-9 -5 -14 -8h401q93 0 125 46z" />
    <glyph glyph-name="three.sc" horiz-adv-x="1108" 
d="M441 -21q-149 0 -241.5 41t-99.5 104q-1 45 31.5 72t73.5 26q30 -1 53 -18t32 -33t20 -40q2 -5 3 -7q36 -58 153 -58q126 0 186 60.5t60 163.5q0 58 -12.5 97t-34.5 57t-44 24.5t-50 6.5q-41 0 -86 -26l-61 -41l-64 65l136 75q90 46 142.5 94t52.5 107q0 48 -30 77.5
t-66.5 38t-82.5 8.5q-71 0 -127 -24.5t-56 -57.5t46 -77l-163 -68q-57 42 -57 102q0 62 63 112.5t159.5 77t202.5 26.5q65 0 125.5 -9t116 -28t88.5 -54t33 -82q0 -49 -36.5 -94.5t-86.5 -73t-94.5 -44.5t-67.5 -18q61 2 117 -10t103.5 -39t75.5 -75t28 -112
q0 -107 -78.5 -187.5t-200 -119.5t-262.5 -39z" />
    <glyph glyph-name="four.sc" horiz-adv-x="1108" 
d="M380 0v83h73q40 0 63.5 6.5t34 22.5t13 31.5t2.5 46.5v132h-478v114l593 523h146v-530h179v-107h-179v-135q0 -24 2.5 -38t12.5 -31.5t35.5 -26t66.5 -8.5h64v-83h-628zM204 429h362v314h-9l-353 -306v-8z" />
    <glyph glyph-name="five.sc" horiz-adv-x="1108" 
d="M559 644q56 0 111.5 -9t112.5 -32.5t100 -58t70.5 -90t27.5 -125.5q0 -91 -48 -161.5t-125.5 -110t-164 -59t-176.5 -19.5q-86 0 -164 17.5t-133 53.5t-63 83q-1 35 29 61.5t69 26.5q23 0 43.5 -10t31.5 -21t28 -32q80 -89 188 -89q97 0 156 70.5t59 173.5
q0 98 -56.5 166t-154.5 68q-45 0 -83.5 -13.5t-52.5 -24t-38 -31.5h-109l24 468h653l-69 -160h-497l-12 -208q41 32 108.5 49t134.5 17z" />
    <glyph glyph-name="six.sc" horiz-adv-x="1108" 
d="M570 -21q-66 0 -127 11.5t-121 41.5t-104 75.5t-71 119t-27 167.5q0 146 48.5 258.5t131 179t182 99.5t211.5 33q110 0 186 -33t87 -80q1 -33 -25 -61t-66 -27q-13 0 -28 6.5t-24.5 13t-29.5 21t-28 20.5q-65 49 -136 49q-54 0 -97.5 -22t-71 -56t-47 -81.5t-29 -91.5
t-14.5 -93q88 91 246 86q156 -5 268 -91t112 -217q0 -82 -37.5 -147t-99.5 -103t-136 -58t-153 -20zM567 66q88 0 123.5 51t35.5 147q0 47 -4.5 83.5t-16.5 70t-31 55t-50 34.5t-72 13t-71 -14t-47.5 -34.5t-28.5 -53t-15.5 -60t-6.5 -64.5q5 -113 49 -170.5t135 -57.5z" />
    <glyph glyph-name="seven.sc" horiz-adv-x="1108" 
d="M460 -21q-71 -1 -98 31t-11.5 83t64.5 111l410 550h-485q-96 0 -125 -46l-23 -43h-90l133 319h93q-9 -20 -1 -29t46 -9h626l-395 -828q-35 -77 -64 -108.5t-80 -30.5z" />
    <glyph glyph-name="eight.sc" horiz-adv-x="1107" 
d="M557 -21q-63 0 -119.5 6t-120.5 24t-109.5 47t-76 79.5t-30.5 117.5q0 45 12.5 82t31.5 62t48.5 44t55.5 29.5t61.5 18t58 10.5t51.5 5q-31 3 -53 7t-59 13t-63 24t-52.5 37t-40 56t-13.5 77q0 57 25.5 101.5t66 71t97 44t110.5 23.5t114 6q63 0 120 -7t112 -25t95 -45.5
t64.5 -70.5t24.5 -98q0 -48 -20.5 -86t-50 -60t-69 -37.5t-70 -21.5t-61.5 -9q34 -3 54.5 -6t57 -11t60 -18t52.5 -29t46 -43t29 -60t12 -80q0 -76 -39 -132.5t-106 -87t-143 -44.5t-163 -14zM555 540q86 0 121 45.5t35 139.5q0 65 -35.5 110t-123.5 45q-47 0 -80 -14.5
t-48.5 -38.5t-22 -47.5t-6.5 -49.5q0 -92 33 -141t127 -49zM555 63q184 0 184 189q0 111 -40 158t-148 47q-55 0 -92.5 -15t-56 -42.5t-25.5 -56.5t-7 -66q0 -103 38.5 -158.5t146.5 -55.5z" />
    <glyph glyph-name="nine.sc" horiz-adv-x="1108" 
d="M415 -21q-110 0 -184 33t-87 80q-2 33 23.5 61t65.5 27q14 0 29.5 -6.5t23 -11t28 -21t23.5 -19.5q64 -52 142 -52q68 0 119 30.5t79 81.5t41.5 108t13.5 118q-81 -81 -222 -81q-104 0 -194.5 38t-147 110t-56.5 161q0 82 37.5 147t99.5 103t136 58t153 20
q66 0 127 -11.5t121 -41.5t104 -75.5t71 -119t27 -167.5q0 -146 -48.5 -258.5t-131 -179t-182 -99.5t-211.5 -33zM557 423q41 0 71 14t47 34.5t28 53t15.5 59.5t6.5 65q-5 113 -49 170.5t-135 57.5q-87 0 -123 -51t-36 -147q0 -80 13.5 -133.5t53.5 -88t108 -34.5z" />
    <glyph glyph-name="uni0308.case" 
d="M-619 1483q-50 0 -86.5 36.5t-36.5 86.5t36 86.5t87 36.5t87 -36t36 -87q0 -53 -36 -88t-87 -35zM-215 1483q-50 0 -86.5 36t-36.5 87t36 87t87 36t87 -36.5t36 -86.5q0 -52 -36 -87.5t-87 -35.5z" />
    <glyph glyph-name="gravecomb.case" 
d="M-126 1438l-438 317v4h338l176 -321h-76z" />
    <glyph glyph-name="acutecomb.case" 
d="M-515 1438l176 321h338v-4l-438 -317h-76z" />
    <glyph glyph-name="uni0302.case" 
d="M-761 1470l224 322h263l224 -322h-76l-279 208l-280 -208h-76z" />
    <glyph glyph-name="uni030C.case" 
d="M-522 1456l-240 322h75l280 -208l280 208h76l-240 -322h-231z" />
    <glyph glyph-name="uni030A.case" 
d="M-270 1436q-80 0 -136 56t-56 136q0 79 56 135t136 56q79 0 135.5 -56t56.5 -135t-56.5 -135.5t-135.5 -56.5zM-270 1506q50 0 86 35.5t36 86.5t-36 87t-86 36q-51 0 -86 -36t-35 -87t35 -86.5t86 -35.5z" />
    <glyph glyph-name="tildecomb.case" 
d="M-779 1440q-4 128 50.5 202.5t158.5 74.5q10 0 20.5 -1t22 -3t19.5 -3.5t21.5 -6t20 -6.5t21.5 -7.5t20 -7.5l22.5 -9t21.5 -9q9 -4 27.5 -12t25.5 -11t20 -7.5t23.5 -6t22.5 -1.5q39 0 66 28t31 84h75q8 -120 -45.5 -208.5t-157.5 -88.5q-73 0 -191 54q-88 40 -132 40
q-43 0 -65 -29.5t-25 -65.5h-73z" />
    <glyph glyph-name="uni0335.case" 
d="M-941 633v103h817v-103h-817z" />
    <glyph glyph-name="uni0337.case" 
d="M-808 293v153l814 625v-153z" />
    <glyph glyph-name="uni0338.case" 
d="M-1121 -14l-74 62l1178 1338l69 -64z" />
    </font>
</defs>
</svg>
