<?xml version="1.0" standalone="no"?>
<!DOCTYPE svg PUBLIC "-//W3C//DTD SVG 1.1//EN" "http://www.w3.org/Graphics/SVG/1.1/DTD/svg11.dtd" >
<svg xmlns="http://www.w3.org/2000/svg" xmlns:xlink="http://www.w3.org/1999/xlink" version="1.1">
<metadata>
Created by FontForge 20170731 at Wed Dec 13 17:12:55 2017
 By ,,,
Copyright (c)2017 HK CartaTM by Alfredo Marco Pradil
</metadata>
<defs>
<font id="HKCarta-BoldItalic" horiz-adv-x="0" >
  <font-face 
    font-family="HK Carta"
    font-weight="700"
    font-style="italic"
    font-stretch="normal"
    units-per-em="2048"
    panose-1="0 0 8 0 0 0 0 0 0 0"
    ascent="1393"
    descent="-655"
    x-height="883"
    cap-height="1355"
    bbox="-1015 -635 2410.57 1819"
    underline-thickness="50"
    underline-position="-200"
    slope="-12"
    unicode-range="U+0020-FB02"
  />
<missing-glyph horiz-adv-x="1158" 
d="M111 0l288 1352h748l-288 -1352h-748zM198 73h606l256 1206h-606z" />
    <glyph glyph-name="fi" unicode="fi" horiz-adv-x="1188" 
d="M842 1388q173 0 269 -63t65 -176q-13 -46 -48.5 -74t-87.5 -28q-31 0 -50.5 10.5t-27 30t-9.5 37.5t-2.5 43.5t-2.5 36.5q-5 85 -119 85q-112 0 -169.5 -66.5t-84.5 -187.5l-35 -153h587l-167 -730q-7 -30 11.5 -44t63.5 -14h47l-21 -95h-399l185 788h-330l-306 -1309
h-258l307 1309h-179l23 95h178l33 135q30 128 109 212.5t183.5 121t234.5 36.5z" />
    <glyph glyph-name="fl" unicode="fl" horiz-adv-x="1204" 
d="M-47 -521l307 1309h-179l23 95h178l32 135q23 96 74 169t120 116t147 64t163 21q143 0 215 -55l219 60l-286 -1240q-7 -29 12 -43.5t63 -14.5h47l-21 -95h-399l249 1060q9 40 13.5 66.5t6.5 55.5t-4 46.5t-18.5 32.5t-35 22t-55.5 7q-49 0 -89.5 -16.5t-65.5 -41t-45 -61
t-30 -67t-19 -68.5l-36 -153h213l-23 -95h-212l-306 -1309h-258z" />
    <glyph glyph-name="f_f" unicode="ff" horiz-adv-x="1240" 
d="M1395 1388q56 0 105 -14t88.5 -41t57 -75t5.5 -109q-10 -42 -49 -72t-84 -30q-48 -1 -75.5 38.5t-21.5 99.5q1 49 -15 77t-61 28q-65 0 -112 -70t-73 -184l-36 -153h212l-22 -95h-213l-306 -1309h-257l306 1309h-327l-306 -1309h-258l307 1309h-179l23 95h178l33 135
q22 96 72.5 169t118.5 115.5t144.5 64t159.5 21.5q81 0 147.5 -28.5t95.5 -84.5q137 113 342 113zM867 883l32 135q1 5 3.5 16t4.5 16q-37 10 -56.5 47t-13.5 88q2 105 -76 105q-65 0 -112.5 -70t-73.5 -184l-35 -153h327z" />
    <glyph glyph-name="f_f_i" unicode="ffi" horiz-adv-x="1773" 
d="M1411 1388q186 0 280 -58t70 -181q-10 -43 -48.5 -72.5t-84.5 -29.5q-26 0 -44 7.5t-27.5 16t-14.5 29t-6 32t-1.5 39t-0.5 36.5q-6 41 -34.5 62t-92.5 21q-55 0 -98 -19t-71.5 -55.5t-46.5 -79.5t-31 -100l-36 -153h588l-168 -730q-7 -30 12 -44t64 -14h46l-20 -95h-399
l184 788h-330l-306 -1309h-257l306 1309h-327l-306 -1309h-258l307 1309h-179l23 95h178l33 135q22 96 72.5 169t118.5 115.5t144.5 64t159.5 21.5q81 0 148 -28.5t96 -85.5q140 114 357 114zM867 883l32 135q1 5 3.5 16t4.5 16q-37 10 -56.5 47t-13.5 88q2 105 -76 105
q-65 0 -112.5 -70t-73.5 -184l-35 -153h327z" />
    <glyph glyph-name="f_f_l" unicode="ffl" horiz-adv-x="1789" 
d="M1551 153q-7 -30 12 -44t63 -14h47l-21 -95h-399l248 1060q11 48 16 78.5t4 62.5t-12 49.5t-36 28.5t-64 11q-49 0 -89.5 -16.5t-66 -41t-45 -61t-30 -67t-18.5 -68.5l-36 -153h212l-22 -95h-213l-306 -1309h-257l306 1309h-327l-306 -1309h-258l307 1309h-179l23 95h178
l33 135q22 95 73 168.5t119 116t142.5 64t153.5 21.5q97 0 160.5 -31t90.5 -83q140 114 349 114q143 0 215 -55l219 60zM867 883l32 135q8 30 9 32q-23 6 -39 23t-23 38t-10 40t-1 34q3 26 -1.5 48t-23 39.5t-49.5 17.5q-65 0 -112.5 -70t-73.5 -184l-35 -153h327z" />
    <glyph glyph-name=".notdef" horiz-adv-x="1158" 
d="M111 0l288 1352h748l-288 -1352h-748zM198 73h606l256 1206h-606z" />
    <glyph glyph-name=".null" 
 />
    <glyph glyph-name="nonmarkingreturn" horiz-adv-x="682" 
 />
    <glyph glyph-name="space" unicode=" " horiz-adv-x="496" 
 />
    <glyph glyph-name="exclam" unicode="!" horiz-adv-x="580" 
d="M246 446l72 660q19 152 23 171q4 20 8.5 31.5t18.5 31t42.5 29.5t70.5 10q138 0 104 -148q-4 -17 -42 -132l-204 -653h-93zM226 -33q-64 0 -110.5 46.5t-46.5 113.5q0 66 46 112t111 46t110.5 -46t45.5 -112q0 -67 -45.5 -113.5t-110.5 -46.5z" />
    <glyph glyph-name="quotedbl" unicode="&#x22;" horiz-adv-x="931" 
d="M275 714l9 424q0 72 14 139q9 45 46.5 73.5t85.5 28.5q57 0 84 -43t13 -102q-4 -18 -22.5 -67t-19.5 -52l-162 -401h-48zM729 714l9 424q0 70 13 139q9 45 47 73.5t86 28.5q57 0 83.5 -43t13.5 -102q-4 -18 -22.5 -67t-19.5 -52l-163 -401h-47z" />
    <glyph glyph-name="numbersign" unicode="#" horiz-adv-x="1400" 
d="M99 -41l167 395h-191l34 157h223l141 334h-294l34 157h324l167 395h158l-167 -395h385l167 395h158l-167 -395h185l-33 -157h-215l-139 -334h283l-34 -157h-315l-169 -395h-157l168 395h-389l-167 -395h-157zM490 511h388l138 334h-386z" />
    <glyph glyph-name="dollar" unicode="$" horiz-adv-x="1136" 
d="M925 1338q36 -17 69 -44t52.5 -48.5t51.5 -60.5l-34 -173q-7 -31 -19 -43.5t-32 -12.5q-54 0 -52 83q-13 116 -84 181l-165 -400q2 -1 31 -17q38 -17 69 -33t62.5 -36t55.5 -42t45.5 -48.5t35 -56.5t21.5 -65t7 -76t-11 -87q-19 -91 -72.5 -166.5t-124 -122t-148.5 -72
t-153 -25.5q-84 0 -158 22l-65 -157h-75l75 182q-130 62 -228 213l39 198q6 31 19.5 43.5t35.5 12.5q56 0 51 -83q2 -89 33.5 -162t93.5 -114l187 452q-51 26 -88 47.5t-74 47.5t-60.5 51t-43 56.5t-27.5 66.5t-7.5 77.5t11.5 91.5q21 103 93.5 187t170 129t196.5 45
q86 0 151 -17l46 111h75zM650 852l167 405q-42 19 -92 19q-102 0 -167 -62.5t-81 -138.5t21.5 -119t151.5 -104zM617 540q-14 7 -17 8l-186 -450q45 -14 97 -14q95 0 172 66.5t98 162.5q14 67 -25 120t-139 107z" />
    <glyph glyph-name="percent" unicode="%" horiz-adv-x="1752" 
d="M436 669q-74 0 -126.5 26.5t-78.5 66.5t-37.5 92t-10 97.5t10.5 89.5q35 159 133 248.5t241 89.5q69 0 120 -20t77.5 -54.5t42 -74t17 -85t-1 -80t-9.5 -66.5q-13 -57 -40.5 -111t-72 -105t-113.5 -82.5t-152 -31.5zM387 0l979 1352h127l-983 -1352h-123zM437 733
q110 0 172 283q17 79 23.5 134.5t5 87t-12 49.5t-22.5 23t-32 5q-60 0 -101 -73.5t-76 -237.5q-13 -63 -18.5 -103.5t-5 -83t17 -63.5t49.5 -21zM1280 -27q-74 0 -127 26.5t-79 66.5t-37.5 92t-9.5 97.5t11 89.5q34 158 132 247.5t241 89.5q60 0 106 -15.5t73.5 -40.5
t45.5 -59.5t24.5 -69t7 -72.5t-3 -66.5t-9.5 -55.5q-12 -56 -39 -110.5t-71 -105.5t-113 -82.5t-152 -31.5zM1280 36q109 0 173 283q17 79 23.5 135t4.5 87.5t-12 49.5t-22.5 23t-32.5 5q-60 0 -100.5 -73.5t-76.5 -237.5q-9 -42 -14 -70.5t-9 -62.5t-2 -56.5t8.5 -43
t21.5 -30t38 -9.5z" />
    <glyph glyph-name="ampersand" unicode="&#x26;" horiz-adv-x="1564" 
d="M367 -27q-170 0 -264.5 110t-62.5 263q14 66 53 125t101 110t128 92t154 86q-19 37 -28 55t-22.5 51.5t-17.5 58.5t-4.5 60t7.5 71q26 126 127.5 195.5t244.5 69.5q140 0 208 -73t44 -190q-15 -72 -83 -147.5t-202 -144.5q134 -202 210 -365q208 233 249 352
q8 21 -3.5 30t-47.5 9h-54l19 92h424l-19 -92h-42q-32 0 -74 -30.5t-74.5 -66t-84.5 -96.5q-9 -11 -14 -17q-23 -29 -64.5 -82t-65.5 -83.5t-53.5 -65.5t-49.5 -55q51 -99 84.5 -134.5t87.5 -35.5q65 0 111 50t67 132l94 -23q-16 -74 -48 -131t-69 -90t-83.5 -53.5
t-86.5 -27.5t-82 -7q-52 0 -92 12.5t-69 37t-50.5 50t-45.5 60.5q-1 3 -2 4t-2.5 3t-2.5 4q-79 -64 -201 -118.5t-249 -54.5zM696 865q180 111 207 248q12 51 -19.5 81.5t-101.5 30.5q-67 0 -113.5 -40.5t-56.5 -102.5q-11 -88 84 -217zM506 125q116 0 253 117
q-90 196 -237 415q-109 -62 -165 -116t-73 -132q-5 -33 -3 -70t20.5 -75t44 -69t67.5 -50.5t93 -19.5z" />
    <glyph glyph-name="quotesingle" unicode="'" horiz-adv-x="477" 
d="M275 714l9 424q0 72 14 139q9 45 46.5 73.5t85.5 28.5q57 0 84 -43t13 -102q-4 -18 -22.5 -67t-19.5 -52l-162 -401h-48z" />
    <glyph glyph-name="parenleft" unicode="(" horiz-adv-x="507" 
d="M176 -485q-107 200 -133 442t31 502q21 101 58 209.5t94.5 233.5t146.5 252.5t196 233.5l134 -20q-388 -418 -503 -953q-54 -258 -29.5 -472t129.5 -448z" />
    <glyph glyph-name="parenright" unicode=")" horiz-adv-x="509" 
d="M-195 -485q207 237 325.5 457.5t175.5 488.5q109 510 -99 927l124 -20q63 -106 97.5 -234.5t40 -256t-3.5 -241.5t-32 -223q-53 -248 -179.5 -484.5t-315.5 -433.5z" />
    <glyph glyph-name="asterisk" unicode="*" horiz-adv-x="1090" 
d="M418 435q-46 0 -85 35t-39 78q0 53 69 108q13 10 70 51q27 18 49.5 36.5t48 41.5t38.5 34q13 13 10 25q-5 10 -21 15q-39 10 -121 15q-16 2 -79 0.5t-77 0.5q-58 1 -90.5 27.5t-32.5 77.5q0 47 30.5 84.5t73.5 37.5q34 0 70.5 -20t101.5 -72q64 -51 140 -88q18 -9 28 -1
q9 11 7 24q-34 153 -41 173q-25 71 -32 98t-7 56q-1 40 26.5 71t83.5 31q51 0 80.5 -28.5t29.5 -71.5q-1 -54 -34 -146q-23 -68 -43 -183q-2 -15 8 -25q7 -7 26 1q28 13 56.5 32t52 37t29.5 22q13 10 34 25t30.5 22t24 17t22.5 13.5t19 8.5t20.5 6.5t20.5 1.5q49 0 79 -39
t30 -86q0 -50 -34.5 -76t-76.5 -27q-16 -2 -78.5 -2t-77.5 -1q-91 -5 -131 -14q-16 -4 -21 -15q-4 -17 8 -27q16 -13 43.5 -35.5t41.5 -34t39 -30t54 -39.5q31 -25 45.5 -38t32.5 -40t18 -53q0 -44 -40 -79t-85 -35q-28 0 -49 13.5t-33.5 38t-19 44.5t-12.5 47
q-24 69 -32 88q-33 79 -54 118q-9 16 -20 16q-13 0 -22 -16q-34 -63 -54 -127q-1 -3 -16.5 -46t-23.5 -65q-5 -19 -9.5 -31t-16.5 -34t-33 -34t-49 -12z" />
    <glyph glyph-name="plus" unicode="+" horiz-adv-x="1241" 
d="M585 121v469h-469v172h469v469h171v-469h470v-172h-470v-469h-171z" />
    <glyph glyph-name="comma" unicode="," horiz-adv-x="626" 
d="M-19 -381l9 102q79 10 143.5 50.5t99 88t44.5 93.5q4 13 -2.5 18.5t-20.5 4.5q-12 0 -33 -6t-38 -6q-51 0 -86 48t-20 124q12 55 60.5 97.5t123.5 42.5q95 0 134.5 -78.5t11.5 -206.5q-15 -73 -49.5 -134t-78 -102t-96.5 -71t-103 -45t-99 -20z" />
    <glyph glyph-name="hyphen" unicode="-" horiz-adv-x="853" 
d="M101 298l46 219h592l-46 -219h-592z" />
    <glyph glyph-name="period" unicode="." horiz-adv-x="598" 
d="M232 -33q-64 0 -110.5 46.5t-46.5 113.5q0 66 46 112t111 46t110.5 -46t45.5 -112q0 -67 -45.5 -113.5t-110.5 -46.5z" />
    <glyph glyph-name="slash" unicode="/" horiz-adv-x="863" 
d="M-146 -33l1011 1388h236l-1010 -1388h-237z" />
    <glyph glyph-name="zero" unicode="0" horiz-adv-x="1051" 
d="M433 -27q-34 0 -68.5 7.5t-74 29t-72 55.5t-59 91.5t-38.5 132t-6 182.5t33 238q37 171 99 302t138.5 209t159.5 116.5t171 38.5q51 0 97.5 -15.5t90.5 -47.5t74.5 -89.5t48 -134.5t13 -188.5t-33.5 -246.5q-38 -177 -99 -310t-137 -212.5t-160.5 -118.5t-176.5 -39z
M444 71q95 0 162.5 138.5t133.5 454.5q24 114 39 198t23.5 155.5t6.5 118t-13 79.5t-32.5 47.5t-54.5 14.5q-51 0 -95.5 -45t-81.5 -132.5t-67 -192.5t-60 -248q-22 -104 -35.5 -181.5t-21.5 -146.5t-6 -115t13 -80t33 -49.5t56 -15.5z" />
    <glyph glyph-name="one" unicode="1" horiz-adv-x="1051" 
d="M634 196q-7 -32 -8.5 -54.5t19 -34.5t68.5 -12h121l-21 -95h-713l21 95h121q63 0 94 31t43 89l205 967q-58 -21 -110 -29t-144 -8l12 92q146 5 247 36.5t198 108.5l96 -7z" />
    <glyph glyph-name="two" unicode="2" horiz-adv-x="1051" 
d="M1005 987q-21 -105 -96.5 -206t-223.5 -252q-288 -264 -404 -361h416q96 0 136 78l32 58h92l-190 -355l-92 12q14 26 10.5 32.5t-41.5 6.5h-655l18 98q70 57 111.5 92t116.5 102.5t139.5 137.5t118.5 141q85 93 156 212t97 240q23 107 -8 179t-121 72q-83 0 -151 -63
t-87 -152q-11 -50 13 -128l-156 -48q-9 28 -13 41.5t-9 40t-3.5 52.5t8.5 56q28 135 163 218.5t299 83.5q176 0 269 -107t55 -281z" />
    <glyph glyph-name="three" unicode="3" horiz-adv-x="1051" 
d="M319 -27q-148 0 -227.5 68.5t-65.5 165.5q7 42 40 62.5t73 21.5q24 0 39.5 -6.5t23 -21t10.5 -27t6 -35t5 -33.5q12 -43 40 -70t86 -27q126 0 209 102t119 269q25 122 0.5 180t-79.5 58q-39 0 -96 -33l-71 -42l-49 75l153 107q222 141 262 319q8 49 1 81t-30 51
t-48.5 26.5t-55.5 7.5q-89 0 -152 -55.5t-69 -136.5q-3 -46 18 -93l-169 -54q-45 76 -28 154q26 120 168 204t307 84q63 0 122 -17t107 -49t70 -86.5t8 -121.5q-11 -51 -46.5 -100t-75 -82t-90.5 -64.5t-80.5 -45.5t-57.5 -26q59 3 110.5 -16.5t90 -62.5t50.5 -111t-6 -162
q-30 -138 -128.5 -244.5t-228 -160t-265.5 -53.5z" />
    <glyph glyph-name="four" unicode="4" horiz-adv-x="1051" 
d="M256 0l21 95h67q74 0 102 33t42 104l52 235h-470l26 134l748 770h146l-168 -787h176l-24 -117h-177l-56 -262q-5 -31 -8 -55.5t20 -39.5t77 -15h66l-22 -95h-618zM209 584h355l104 490h-8l-447 -476z" />
    <glyph glyph-name="five" unicode="5" horiz-adv-x="1051" 
d="M623 905q55 0 108 -16.5t102.5 -51t81 -89t43.5 -130.5t-10 -175q-21 -100 -71 -182t-113 -134.5t-139 -88t-146.5 -50.5t-138.5 -15q-129 0 -222 61t-82 163q6 31 37 53t67 24q26 0 43 -6.5t25 -20.5t12 -26.5t8 -33.5t7 -32q35 -82 139 -82q63 0 116 36.5t90 99
t62 131.5t42 149q8 38 12.5 69.5t6 69t-6 66t-22.5 53t-45 37.5t-72 13q-68 0 -115 -34t-88 -91l-108 10l167 670h643l-105 -172h-490l-85 -354q94 79 247 79z" />
    <glyph glyph-name="six" unicode="6" horiz-adv-x="1051" 
d="M451 -27q-65 0 -122.5 21t-108 66.5t-79 117t-35 173t23.5 234.5q34 161 93.5 293.5t132 223.5t157.5 153.5t170.5 91t171.5 28.5q112 0 177 -51t60 -128q-5 -28 -33 -52t-66 -25q-32 -2 -52.5 20.5t-36.5 75.5q-44 57 -120 57q-207 0 -349 -525q82 112 223 112
q49 0 97 -14t95 -46.5t76 -84.5t40.5 -128.5t-11.5 -178.5q-23 -105 -77.5 -190t-125 -137t-148 -79.5t-153.5 -27.5zM453 71q89 0 144.5 88.5t89.5 251.5q19 85 25 144.5t-0.5 108.5t-34.5 73t-77 24q-41 0 -76 -20t-59.5 -51.5t-47 -81.5t-37 -96.5t-30.5 -110.5
q-32 -163 -8 -246.5t111 -83.5z" />
    <glyph glyph-name="seven" unicode="7" horiz-adv-x="1051" 
d="M341 -25q-195 0 -16 258l613 914h-471q-42 0 -72.5 -18.5t-61.5 -59.5l-34 -57h-91l203 385h93q-14 -31 -10.5 -38t41.5 -7h620l-655 -1241q-39 -79 -73.5 -108t-85.5 -28z" />
    <glyph glyph-name="eight" unicode="8" horiz-adv-x="1051" 
d="M437 -27q-49 0 -96.5 8.5t-96.5 28.5t-86.5 51t-65.5 77t-33.5 106.5t8.5 138.5q10 48 27.5 89t41 71.5t48 55.5t56 43.5t57 31.5t58 23t52.5 15.5t48 11.5q-261 76 -208 329q19 88 69.5 153.5t118.5 100.5t138 51.5t142 16.5q62 0 117.5 -13t104 -41t79.5 -71.5
t43.5 -104.5t-5.5 -139q-45 -216 -330 -292q22 -5 42.5 -11.5t45.5 -17t46 -26t41.5 -36t34 -48.5t22 -61.5t7.5 -78t-12 -95.5q-20 -97 -74 -170.5t-126.5 -115t-151.5 -61.5t-162 -20zM588 761q86 0 138.5 74.5t83.5 221.5q11 61 12.5 110.5t-26.5 81t-86 31.5
q-162 0 -218 -264q-13 -63 -16.5 -104.5t4 -78.5t34.5 -54.5t74 -17.5zM440 68q56 0 100 25.5t73.5 72.5t48 98.5t32.5 117.5q20 96 19.5 159.5t-33 94t-102.5 30.5q-55 0 -97.5 -23.5t-71 -68.5t-47 -95t-32.5 -118q-12 -56 -17.5 -96.5t-3 -79.5t16 -63.5t42 -39
t72.5 -14.5z" />
    <glyph glyph-name="nine" unicode="9" horiz-adv-x="1051" 
d="M294 -27q-112 0 -176 51.5t-59 128.5q3 27 31 51.5t66 25.5q24 0 40 -9.5t22.5 -21.5t15.5 -32t15 -30q33 -61 116 -61q205 0 350 525q-82 -111 -223 -111q-49 0 -97 14t-95 46.5t-76 84.5t-40.5 128t11.5 178q23 106 77.5 191t125 136.5t148 79t153.5 27.5
q65 0 122.5 -21t107.5 -66.5t78 -117t35 -173t-22 -234.5q-34 -161 -94 -293.5t-132 -223.5t-157.5 -153.5t-171 -91t-171.5 -28.5zM549 588q42 0 76.5 20t59.5 51t47 80.5t36.5 96.5t30.5 111q31 163 8 246.5t-110 83.5q-89 0 -144.5 -88t-90.5 -251q-18 -85 -24 -144.5
t0.5 -108.5t34 -73t76.5 -24z" />
    <glyph glyph-name="colon" unicode=":" horiz-adv-x="597" 
d="M364 593q-64 0 -110 46.5t-46 113.5q0 66 45.5 112t110.5 46t111 -46t46 -112q0 -67 -46 -113.5t-111 -46.5zM229 -33q-64 0 -110.5 46.5t-46.5 113.5q0 66 46 112t111 46t110.5 -46t45.5 -112q0 -67 -45.5 -113.5t-110.5 -46.5z" />
    <glyph glyph-name="semicolon" unicode=";" horiz-adv-x="616" 
d="M363 593q-64 0 -110 46.5t-46 113.5q0 66 45.5 112t110.5 46t110.5 -46t45.5 -112q0 -67 -45.5 -113.5t-110.5 -46.5zM-20 -381l8 102q79 10 144 50.5t99.5 88t44.5 93.5q3 13 -3.5 18.5t-19.5 4.5q-12 0 -33.5 -6t-37.5 -6q-51 0 -86 48t-20 124q12 55 60.5 97.5
t123.5 42.5q95 0 134.5 -78.5t11.5 -206.5q-15 -73 -49.5 -134t-78 -102t-96.5 -71t-103 -45t-99 -20z" />
    <glyph glyph-name="less" unicode="&#x3c;" horiz-adv-x="1275" 
d="M1167 1204v-187l-830 -343l830 -343v-185l-1049 445v167z" />
    <glyph glyph-name="equal" unicode="=" horiz-adv-x="1469" 
d="M201 828v171h1110v-171h-1110zM201 353v171h1110v-171h-1110z" />
    <glyph glyph-name="greater" unicode="&#x3e;" horiz-adv-x="1275" 
d="M206 1204l1049 -446v-167l-1049 -445v185l830 343l-830 343v187z" />
    <glyph glyph-name="question" unicode="?" horiz-adv-x="863" 
d="M589 1379q132 0 217.5 -59.5t113.5 -154t4 -208.5q-17 -82 -60.5 -148t-100 -105t-116.5 -59.5t-116 -20.5q-60 0 -122 26l-42 -201h-106l69 320l78 -10q16 -21 63 -21q44 0 82 27.5t62 70.5t38 80t21 70q8 39 10.5 82t-3 95t-36 85.5t-82.5 33.5q-50 0 -100 -35.5
t-79 -104.5l-4 -8q-5 -8 -6.5 -10.5t-7 -10.5t-9 -11.5l-10 -10t-13.5 -9.5t-15.5 -6.5t-19 -4.5t-21.5 -1q-35 0 -59.5 30t-14.5 76q25 79 131.5 141t253.5 62zM245 285q65 0 111 -46t46 -112q0 -67 -46 -113.5t-111 -46.5q-64 0 -110 46.5t-46 113.5q0 66 45.5 112
t110.5 46z" />
    <glyph glyph-name="at" unicode="@" horiz-adv-x="1910" 
d="M791 -449q-149 0 -277 42t-221 120t-153 188.5t-73 246.5t18 295q32 150 103 289.5t177.5 257t238 204.5t294 136t336.5 49q103 0 190 -19t152.5 -53.5t115.5 -83t80.5 -108t46 -128.5t14 -143.5t-17.5 -153.5q-28 -128 -95 -252.5t-160.5 -224t-216.5 -161t-251 -61.5
q-72 0 -112.5 20.5t-50.5 61t0 91.5t40 121q-222 -294 -389 -294q-68 0 -103.5 45.5t-35 114t20.5 147.5q32 128 110 252.5t169 211t184.5 139.5t160.5 53q45 0 74.5 -19t40 -48.5t14.5 -65t-3 -68.5l77 167l204 8l-339 -679q-23 -46 -34 -78.5t-12 -60t16.5 -41t53.5 -13.5
q49 0 115.5 31t139.5 91.5t139 139.5t120 185.5t78 219.5q18 99 12.5 188t-45 164.5t-103 130t-160.5 85.5t-218 31q-203 0 -390.5 -78.5t-328 -210.5t-239.5 -304t-139 -360q-37 -175 -4.5 -316.5t118 -241.5t218 -153.5t295.5 -53.5q116 0 242 34t252.5 100t244 177
t201.5 252l54 -23q-68 -111 -149.5 -202t-159 -151t-163 -106t-156.5 -70.5t-144.5 -39.5t-122 -19.5t-94.5 -4.5zM713 141q58 0 150.5 89t176 224t115.5 256q27 92 13.5 135.5t-57.5 43.5q-55 0 -128 -72t-135.5 -172t-111 -198t-66.5 -158q-22 -71 -9 -109.5t52 -38.5z
" />
    <glyph glyph-name="A" unicode="A" horiz-adv-x="1290" 
d="M1189 95h39l-21 -95h-593l20 95h80q39 0 60 19.5t15 55.5l-31 225h-423l-127 -227q-22 -40 -1.5 -56.5t59.5 -16.5h72l-21 -95h-418l18 95h30q43 0 107 69.5t95 123.5l647 1091h106l164 -1114q14 -90 29 -118q27 -52 94 -52zM389 493h356l-64 464h-33z" />
    <glyph glyph-name="B" unicode="B" horiz-adv-x="1306" 
d="M1298 1011q-48 -216 -370 -294q22 -4 45 -10.5t52.5 -18.5t54.5 -28t51 -39t43.5 -51t31 -64t13 -78.5t-9.5 -94.5q-14 -64 -46.5 -116t-72.5 -86t-92.5 -59.5t-99.5 -38.5t-102 -21t-91.5 -10t-75.5 -2h-668l21 95h69q59 0 89.5 41t45.5 114l191 874q16 56 5.5 92.5
t-59.5 36.5h-88l21 101l749 -3q171 -1 249 -96t44 -244zM997 1035q27 114 -15.5 171t-142.5 57h-151l-107 -492h122q117 0 189 61t105 203zM915 408q11 51 11 91t-8 67t-26.5 46.5t-38.5 30t-51 16.5t-56.5 7.5t-61.5 1.5h-125l-97 -445q-5 -23 -7 -38.5t0 -37t17.5 -33
t42.5 -11.5h104q64 0 115.5 26t86.5 71.5t57 96t37 111.5z" />
    <glyph glyph-name="C" unicode="C" horiz-adv-x="1434" 
d="M619 -27q-105 0 -191.5 29t-146.5 79.5t-101.5 119t-60.5 149t-19 167.5t19 175q22 100 68.5 198t119.5 186.5t163 156t205 107t239 39.5q244 0 375 -224l75 176h93l-97 -489l-88 12q4 47 -3.5 100t-30.5 109.5t-59 101.5t-97 74t-137 29q-379 0 -521 -650
q-33 -164 -22.5 -283t81 -185t198.5 -66q147 0 294 117t239 328l92 -11l-108 -499h-92l-7 167q-65 -81 -193.5 -147t-286.5 -66z" />
    <glyph glyph-name="D" unicode="D" horiz-adv-x="1507" 
d="M-42 0l21 95h77q100 0 134 154l192 880q8 41 9 70.5t-17.5 45t-59.5 15.5h-81l20 92h537q93 0 173 -8t154.5 -26t134.5 -47t109 -69t81 -94.5t49 -121.5t15 -152.5t-23 -184.5q-25 -116 -70 -210t-101 -160.5t-129.5 -116.5t-149.5 -80.5t-168 -49.5t-177 -25.5
t-184 -6.5h-546zM579 103h122q84 0 160.5 47.5t135.5 130t103.5 188.5t70.5 228q24 108 25 196.5t-18.5 149t-52 105t-79 69.5t-95.5 36.5t-105 11.5h-154l-220 -1009q-1 -3 -2 -9q-15 -75 -6 -100q16 -44 115 -44z" />
    <glyph glyph-name="E" unicode="E" horiz-adv-x="1316" 
d="M1023 1249h-334l-107 -491h187q54 0 97.5 22.5t54.5 74.5l17 77h96l-99 -459h-96l20 93q3 16 3.5 29t-3 22.5t-7 16t-13 10.5t-16 6.5t-20 3.5t-21.5 1h-24h-199l-87 -400q-10 -44 -12.5 -66t4 -45t30 -32t66.5 -9h213q60 0 102.5 9t72.5 30t49.5 45t41.5 63l94 195
l94 -1l-110 -444h-1163l21 95h64q120 0 151 154l192 877q8 43 9 72t-24.5 44t-85.5 15h-54l21 95h1089l-59 -350l-91 -1l-4 139q-5 32 -14.5 53t-19.5 32.5t-32 16.5t-37 6t-48 1h-3h-3h-3z" />
    <glyph glyph-name="F" unicode="F" horiz-adv-x="1169" 
d="M-43 0l21 95h45q76 0 113 36.5t54 117.5l192 877q19 74 0 102.5t-104 28.5h-51l21 95h1076l-66 -356l-96 -1l4 125q-2 23 -7 42.5t-13.5 32.5t-16.5 23t-21 15.5t-22 9.5t-24.5 5t-22.5 1.5t-23 0t-20 -0.5h-307l-107 -488h171q122 0 151 127l10 46h95l-101 -464h-94
l16 72q14 65 -5 90.5t-88 25.5h-175l-95 -432q-9 -43 -8 -72t28 -44t87 -15h57l-21 -95h-653z" />
    <glyph glyph-name="G" unicode="G" horiz-adv-x="1496" 
d="M643 -27q-110 0 -201 28t-153 77.5t-107 117t-63 146.5t-20.5 166.5t19.5 176.5q29 134 103 259.5t177.5 222t238.5 154.5t276 58q79 0 146 -20t112 -54t74 -69t48 -74l76 192h90l-93 -469l-87 12q-1 46 -8.5 89t-29.5 94.5t-56 89t-93 63t-136 25.5q-95 0 -176.5 -40.5
t-136.5 -102.5t-100.5 -150t-72 -169.5t-46.5 -174.5q-15 -70 -22 -128.5t-7 -122.5t16.5 -113t47 -89.5t86 -62t131.5 -21.5q275 0 361 305q16 72 -11.5 96t-101.5 24h-154l21 95h697l-21 -95h-34q-50 0 -78.5 -42t-45.5 -120l-82 -374h-101l-72 133
q-103 -78 -196.5 -105.5t-214.5 -27.5z" />
    <glyph glyph-name="H" unicode="H" horiz-adv-x="1636" 
d="M-42 0l21 95h57q71 0 108 36.5t55 117.5l191 877q10 44 9.5 73t-24.5 43.5t-78 14.5h-65l21 95h649l-21 -95h-54q-76 0 -109.5 -39.5t-50.5 -114.5l-74 -336h588l80 359q9 43 9 72t-23 44t-76 15h-66l21 95h651l-21 -95h-56q-74 0 -109.5 -37.5t-52.5 -116.5l-192 -877
q-19 -68 -1 -99.5t94 -31.5h64l-21 -95h-651l22 95h68q65 0 98.5 39.5t49.5 114.5l90 411h-589l-94 -434q-9 -42 -10 -71t19.5 -44.5t68.5 -15.5h74l-21 -95h-649z" />
    <glyph glyph-name="I" unicode="I" horiz-adv-x="769" 
d="M-42 0l21 95h48q80 0 119 37t55 117l191 880q10 45 8.5 74.5t-27 43t-85.5 13.5h-55l20 95h658l-19 -95h-46q-84 0 -121.5 -35.5t-55.5 -118.5l-192 -880q-20 -74 -0.5 -102.5t107.5 -28.5h53l-20 -95h-659z" />
    <glyph glyph-name="J" unicode="J" horiz-adv-x="735" 
d="M-162 -488q-145 0 -229.5 66.5t-59.5 180.5q10 42 54.5 71.5t104.5 29.5q56 0 87 -34t19 -94q-1 -6 -16 -33.5t-17 -42.5q-1 -31 23.5 -40t69.5 -9q110 0 173 101t110 316l240 1102q6 28 8 42.5t-0.5 34.5t-13.5 29.5t-35.5 17t-62.5 7.5h-102l21 95h693l-21 -95h-45
q-77 0 -113 -38.5t-53 -115.5l-224 -1025q-33 -150 -61 -222q-139 -344 -550 -344z" />
    <glyph glyph-name="K" unicode="K" horiz-adv-x="1569" 
d="M-45 0l21 95h62q69 0 105 36t53 118l192 877q19 76 0.5 103.5t-99.5 27.5h-60l20 95h660l-21 -95h-54q-44 0 -75.5 -12t-50 -36.5t-28 -49t-17.5 -61.5l-100 -445l502 433q56 49 80 76.5t32 61.5q3 19 -12 26t-43 7h-70l21 95h567l-21 -95h-44q-41 0 -80.5 -10.5
t-83 -36.5t-69.5 -43.5t-77 -57.5t-68 -53l-208 -168l248 -616q37 -94 75.5 -135.5t109.5 -41.5h74l-22 -95h-700l21 95h62q38 0 70.5 21.5t39.5 57.5q2 11 -5.5 32.5t-27.5 61.5t-25 52l-157 382l-216 -190l-63 -286q-18 -74 -4 -100.5t75 -28.5l77 -2l-20 -95h-646z" />
    <glyph glyph-name="L" unicode="L" horiz-adv-x="1257" 
d="M-44 0l21 95h58q72 0 109.5 34.5t56.5 119.5l191 877q10 44 9.5 73t-25.5 43.5t-83 14.5h-63l21 95h665l-21 -95h-52q-78 0 -117 -34t-57 -120l-187 -855q-11 -49 -13 -81t24.5 -48t92.5 -16h147q243 0 355 236l41 111l89 -1l-110 -449h-1152z" />
    <glyph glyph-name="M" unicode="M" horiz-adv-x="1924" 
d="M1582 1352h487l-21 -95h-54q-85 0 -122 -41t-52 -113l-191 -877q-7 -38 -9.5 -67t24.5 -46.5t89 -17.5h66l-21 -95h-672l21 95h53q77 0 115.5 34.5t56.5 119.5l185 849h-19l-716 -1098h-75l-238 1098h-15l-177 -810q-9 -40 -11 -69.5t3.5 -60t29 -47t64.5 -16.5h55
l-21 -95h-459l21 95h47q133 0 175 218l178 810q8 41 10 70.5t-22 46.5t-81 17h-54l21 95h472l211 -979z" />
    <glyph glyph-name="N" unicode="N" horiz-adv-x="1500" 
d="M1204 1352h460l-21 -95h-45q-63 0 -107 -59t-62 -142l-234 -1079h-108l-614 1066l-167 -763q-5 -22 -7 -34.5t-4 -35t0 -36t8.5 -30.5t18.5 -26.5t33 -16t49 -6.5h50l-21 -95h-476l21 95h45q41 0 74 19.5t51 43.5t32.5 59.5t18 51t7.5 34.5l173 791q32 163 -105 163h-48
l21 95h407l531 -928l146 657q5 23 7.5 40.5t1 45t-10.5 45.5t-32 31.5t-59 13.5h-55z" />
    <glyph glyph-name="O" unicode="O" horiz-adv-x="1517" 
d="M665 -27q-213 0 -353 96t-187.5 261t-2.5 374q21 97 67 192t120 182.5t166.5 154t215 106.5t256.5 40q122 0 219.5 -30.5t161.5 -84t107.5 -124t61 -153t17 -167.5t-19.5 -172q-22 -101 -68.5 -197.5t-121 -183.5t-167.5 -152t-215 -103.5t-257 -38.5zM666 84
q377 0 507 614q123 570 -231 570q-98 0 -180.5 -46t-143 -129t-104 -189.5t-72.5 -237.5q-13 -58 -21 -112t-10.5 -113.5t3.5 -110t23.5 -97t46 -78.5t75 -51.5t107.5 -19.5z" />
    <glyph glyph-name="P" unicode="P" horiz-adv-x="1240" 
d="M-43 0l21 95h49q76 0 112.5 36.5t53.5 117.5l192 880q7 38 9.5 67t-24.5 46.5t-89 17.5h-55l19 92h537q53 0 96 -1.5t95.5 -6.5t91.5 -14.5t83.5 -24t72 -35.5t56.5 -50t37.5 -66.5t15.5 -85.5t-11 -107q-14 -63 -41.5 -114.5t-63.5 -87.5t-84 -63t-96.5 -43.5
t-107 -26.5t-110.5 -13.5t-111 -3.5h-151l-84 -383q-7 -38 -9.5 -67t25 -46.5t90.5 -17.5h54l-22 -95h-651zM575 712h119q40 0 73.5 5t75.5 23t74 48.5t61 85.5t45 129q10 47 10.5 85.5t-6.5 65t-22.5 46t-34 31.5t-44 18.5t-49 9t-52.5 2.5h-130z" />
    <glyph glyph-name="Q" unicode="Q" horiz-adv-x="1517" 
d="M665 -27q-213 0 -353 96t-187.5 261t-2.5 374q21 97 67 192t120 182.5t166.5 154t215 106.5t256.5 40q122 0 220 -30.5t162 -84.5t107 -124t60.5 -153t17 -168t-19.5 -171q-22 -101 -68.5 -197.5t-121 -183.5t-167.5 -152t-215 -103.5t-257 -38.5zM666 84q375 0 507 614
q124 570 -231 570q-98 0 -180.5 -46t-143 -129t-104 -189.5t-72.5 -237.5q-13 -58 -21 -112t-10.5 -113.5t3.5 -110t23.5 -97t46 -78.5t75 -51.5t107.5 -19.5zM1147 -496q-69 0 -127.5 23.5t-91 51t-74.5 72.5q-6 6 -30 33t-32 35t-29.5 29t-35 28t-35 18.5t-44 15.5
t-47.5 4q-57 0 -124.5 -38t-166.5 -119l-46 76q115 94 203 137t181 43q74 0 141.5 -27t149.5 -78q50 -30 83 -47.5t85 -32.5t104 -15q95 0 195 57l74 -145q-132 -121 -333 -121z" />
    <glyph glyph-name="R" unicode="R" horiz-adv-x="1443" 
d="M-48 0l21 95h45q79 0 117.5 34.5t56.5 119.5l191 880q9 43 9.5 71t-23.5 42.5t-80 14.5h-63l21 95h675q84 0 152.5 -13t126.5 -41.5t91.5 -74.5t46.5 -111.5t-8 -152.5q-14 -63 -43.5 -112t-77 -85.5t-96 -61.5t-120.5 -54q36 -30 58.5 -70.5t58.5 -129.5l102 -255
q39 -96 128 -96h40l-20 -95h-367l-152 442q-34 100 -68 132.5t-110 32.5h-112l-84 -381q-17 -76 1.5 -103.5t99.5 -27.5h53l-22 -95h-648zM574 712h118q291 0 354 295q10 44 10 79.5t-8 60.5t-24 43.5t-35.5 30t-46.5 18t-53.5 9t-58.5 2.5h-139z" />
    <glyph glyph-name="S" unicode="S" horiz-adv-x="1105" 
d="M520 -27q-101 0 -191 51t-136 147l-60 -149h-101l101 465l97 -12q-6 -74 5.5 -140.5t41 -124.5t87 -92t137.5 -34q93 0 167.5 66.5t96.5 163.5q15 68 -22.5 122t-131.5 101q-57 30 -84.5 45t-72.5 41.5t-66 43t-52 43t-44 47.5t-28.5 51.5t-18.5 60.5t-1.5 68t10.5 81
q22 103 94 187t167.5 129t192.5 45q77 0 149.5 -40t113.5 -112l58 128h97l-86 -399l-92 12q6 152 -61.5 230t-163.5 78q-52 0 -96 -19t-73 -50t-47 -65t-26 -69q-4 -21 -4 -39t2 -33t12.5 -30.5t18.5 -26.5t29 -26.5t35 -24.5t46 -26.5t51.5 -27.5t62.5 -31q3 -1 4 -2
q43 -21 75.5 -40.5t67 -44.5t58.5 -51t44 -59.5t29.5 -70t9.5 -82.5t-11 -98q-26 -121 -108 -211.5t-182.5 -133t-200.5 -42.5z" />
    <glyph glyph-name="T" unicode="T" horiz-adv-x="1331" 
d="M230 0l22 95h54q83 0 121 40t54 114l218 1000h-173q-30 0 -50.5 -2t-55 -13.5t-60.5 -32.5t-54.5 -63.5t-48.5 -102.5l-18 -61l-94 1l87 377h1259l-77 -377l-94 -1l10 87q0 39 -4.5 69t-11 50t-21 33.5t-26 20.5t-34 10.5t-37 4t-43.5 0.5h-173l-222 -1023
q-5 -23 -6.5 -31t-3.5 -26.5t1 -25.5t10 -19t20 -16.5t33.5 -8.5t49.5 -4h63l-21 -95h-674z" />
    <glyph glyph-name="U" unicode="U" horiz-adv-x="1452" 
d="M638 -27q-266 0 -377 145.5t-51 421.5l128 586q7 40 9 69.5t-23.5 45.5t-86.5 16h-48l22 95h650l-21 -95h-53q-81 0 -118.5 -37.5t-54.5 -116.5l-129 -586q-28 -135 -20 -229.5t71 -145t184 -50.5q86 0 156 25.5t118.5 67.5t87 105t62 129.5t41.5 149.5l116 523
q9 48 6 85t-31 58.5t-82 21.5h-48l21 95h461l-21 -95h-38q-64 0 -108 -54t-60 -131l-116 -530q-61 -286 -218.5 -427.5t-428.5 -141.5z" />
    <glyph glyph-name="V" unicode="V" horiz-adv-x="1390" 
d="M1148 1352h446l-21 -95h-33q-59 0 -106 -51.5t-148 -211.5l-623 -1024h-111l-205 1101q-23 114 -36 140q-20 40 -70 45q-10 1 -23 1h-55l21 95h652l-21 -95h-63q-156 0 -121 -170l144 -751l431 726q14 23 23 38.5t19 35.5t14.5 33.5t7 28.5t-2 24.5t-13.5 18t-26.5 12.5
t-41.5 4h-59z" />
    <glyph glyph-name="W" unicode="W" horiz-adv-x="1853" 
d="M1641 1352h413l-21 -95h-27q-57 0 -104.5 -61.5t-110.5 -194.5l-497 -1028h-139l-120 1008l-516 -1008h-143l-75 1130q-7 93 -24 123.5t-77 30.5h-35l21 95h570l-62 -95h-56q-3 0 -10.5 -7.5t-17.5 -23t-19 -35.5t-14 -47.5t-2 -55.5l51 -721l499 989h137l120 -984
l306 653q55 119 61 159q3 70 -73 73h-56z" />
    <glyph glyph-name="X" unicode="X" horiz-adv-x="1558" 
d="M-65 0l21 95h40q60 0 124.5 42t150.5 120l416 383l-228 439q-29 58 -45.5 86.5t-39 52.5t-46 31.5t-59.5 7.5h-66l21 95h690l-21 -95h-60q-61 0 -80.5 -40t13.5 -102l151 -275l289 279q69 67 73 101t-69 37h-71l21 95h511l-21 -95h-47q-27 0 -54 -8t-45.5 -16.5t-49 -32
t-43.5 -34.5t-50.5 -46.5t-50.5 -47.5l-341 -313l239 -471q26 -53 43 -82t42 -58t54 -41t68 -12h58l-22 -95h-744l22 95h72q87 0 113 45.5t-17 127.5l-159 288l-322 -311q-72 -70 -68 -110t83 -40h79l-21 -95h-554z" />
    <glyph glyph-name="Y" unicode="Y" horiz-adv-x="1302" 
d="M219 0l21 95h63q79 0 113.5 37t52.5 116l63 281l-198 590q-26 77 -50.5 107.5t-71.5 30.5h-50l21 95h608l-21 -95h-53q-42 0 -63.5 -23.5t-20 -57t12.5 -70.5l155 -441l320 417q30 40 46.5 69.5t20 54.5t-15 38t-59.5 13h-49l22 95h422l-21 -95h-30q-65 0 -194 -161
l-444 -550l-72 -320q-9 -42 -10 -71t24.5 -44.5t84.5 -15.5h69l-21 -95h-675z" />
    <glyph glyph-name="Z" unicode="Z" horiz-adv-x="1301" 
d="M1388 1356l-19 -90l-1041 -1163h414q42 0 67 2t63 11.5t67 28t64 54t68 86.5l59 129l94 -1l-115 -413h-1141l17 90l1032 1163h-331q-48 0 -79.5 -2t-74 -11t-73 -26t-62 -49t-54.5 -78l-38 -92l-94 1l103 360h1074z" />
    <glyph glyph-name="bracketleft" unicode="[" horiz-adv-x="703" 
d="M-27 -476l389 1828h531l-19 -92h-179q-72 0 -101.5 -32t-40.5 -87l-305 -1441q-6 -27 -5.5 -45.5t25 -28.5t78.5 -10h178l-19 -92h-532z" />
    <glyph glyph-name="backslash" unicode="\" horiz-adv-x="824" 
d="M571 -33l-420 1388h196l422 -1388h-198z" />
    <glyph glyph-name="bracketright" unicode="]" horiz-adv-x="701" 
d="M-193 -476l20 92h171q76 0 106 28.5t42 79.5l306 1440q6 30 6.5 51t-22 33t-73.5 12h-186l19 92h532l-389 -1828h-532z" />
    <glyph glyph-name="asciicircum" unicode="^" horiz-adv-x="1018" 
d="M1005 636h-198l-158 459l-358 -459h-197l560 719h99z" />
    <glyph glyph-name="underscore" unicode="_" horiz-adv-x="1303" 
d="M-14 -223l33 152h1048l-32 -152h-1049z" />
    <glyph glyph-name="grave" unicode="`" horiz-adv-x="812" 
d="M838 1030l-438 318v4h337l177 -322h-76z" />
    <glyph glyph-name="a" unicode="a" horiz-adv-x="1167" 
d="M342 -25q-89 0 -153.5 38t-97 103t-41.5 153t15 188q24 112 74 198t104.5 133.5t118 77.5t109 39t82.5 9q61 0 136 -31t121 -98l23 98h260l-146 -670q-5 -24 -7 -37.5t-1.5 -30.5t7.5 -25t22 -14t39 -6h52l-23 -100h-362l12 107q-46 -31 -74.5 -48.5t-74.5 -40t-94 -33
t-101 -10.5zM450 103q52 0 122.5 38.5t122.5 110.5l101 441q-51 93 -168 93q-59 0 -108.5 -29.5t-85 -81t-60 -112.5t-40.5 -134q-34 -142 -5.5 -234t121.5 -92z" />
    <glyph glyph-name="b" unicode="b" horiz-adv-x="1138" 
d="M580 -25q-90 0 -164.5 43t-124.5 117l-175 -152h-75l249 1140q8 38 9 63t-15.5 36.5t-57.5 8.5l-57 -9l17 93l420 75l-130 -584q134 108 299 108q82 0 149 -35t109 -99.5t56 -155t-10 -201.5q-45 -203 -190.5 -325.5t-308.5 -122.5zM517 95q62 0 115 37.5t89 98t59 119.5
t36 118q15 83 14 155t-37.5 120.5t-104.5 48.5q-119 0 -237 -129l-102 -448q21 -50 62.5 -85t105.5 -35z" />
    <glyph glyph-name="c" unicode="c" horiz-adv-x="937" 
d="M417 -32q-205 0 -308.5 133.5t-57.5 349.5q46 207 213 335t373 128q43 0 85.5 -7.5t83 -25.5t69 -43.5t43 -64.5t7.5 -87q-8 -40 -37.5 -66.5t-74.5 -27.5q-25 0 -43 11t-27 25.5t-13.5 38t-5.5 38t-1 35.5q-3 17 -8 28.5t-15.5 24.5t-30.5 19.5t-49 6.5q-52 0 -97.5 -26
t-76.5 -64.5t-56.5 -90t-39.5 -94.5t-24 -86q-81 -375 151 -375q56 0 106 20.5t86 54t58.5 62.5t40.5 60l77 -63q-37 -55 -72 -94t-86 -77t-119 -58t-151 -20z" />
    <glyph glyph-name="d" unicode="d" horiz-adv-x="1169" 
d="M342 -25q-89 0 -153.5 38t-97 103t-41.5 153t15 188q24 112 74 198t104.5 133.5t118 77.5t109 39t82.5 9q61 0 136 -31t121 -98l78 335q8 35 8 60t-19 38t-61 12l-51 -8l17 90l421 78l-256 -1177q-5 -24 -7 -37.5t-1.5 -30.5t7.5 -25t22 -14t39 -6h52l-23 -100h-362
l12 107q-46 -31 -74.5 -48.5t-74.5 -40t-94 -33t-101 -10.5zM450 103q52 0 122.5 38.5t122.5 110.5l101 441q-51 93 -168 93q-59 0 -108.5 -29.5t-85 -81t-60 -112.5t-40.5 -134q-34 -142 -5.5 -234t121.5 -92z" />
    <glyph glyph-name="e" unicode="e" horiz-adv-x="932" 
d="M407 -32q-195 0 -294.5 140t-52.5 360q44 204 194.5 325t332.5 121q129 0 224.5 -70t95.5 -177q0 -271 -584 -281q-28 -163 10.5 -235.5t151.5 -72.5q69 0 140 46t129 122l72 -69q-77 -98 -187.5 -153.5t-231.5 -55.5zM338 477q182 8 271.5 60t89.5 140q0 60 -31 99.5
t-85 39.5q-89 0 -154.5 -97.5t-90.5 -241.5z" />
    <glyph glyph-name="f" unicode="f" horiz-adv-x="641" 
d="M-29 -521l287 1309h-175l19 95h175l31 135q21 95 70 167.5t115.5 116t142.5 65t159 21.5q55 0 104 -14t88.5 -41t57.5 -75t7 -109q-9 -42 -47.5 -71.5t-83.5 -30.5q-49 -1 -77 37t-24 99q1 51 -15 79t-58 28q-131 0 -186 -254l-34 -153h216l-20 -95h-215l-288 -1309h-249
z" />
    <glyph glyph-name="g" unicode="g" horiz-adv-x="1054" 
d="M275 -537q-44 0 -89.5 4.5t-106.5 22t-103.5 45.5t-65.5 80.5t-8 121.5q15 73 72.5 116t153.5 70q-123 39 -114 141q4 82 77 159t187 109q-51 16 -85.5 45.5t-50 62t-21 70.5t-3 66.5t8.5 54.5q27 130 149.5 206t306.5 76t282 -104q60 54 103.5 79t85.5 25
q44 0 65.5 -32.5t13.5 -85.5q-8 -50 -58 -50q-25 -1 -35 28q-5 12 -8.5 17.5t-11.5 11t-19 5.5q-43 0 -100 -79q28 -50 8 -145q-15 -68 -52 -120.5t-83 -83.5t-106.5 -51.5t-112.5 -28.5t-110 -10q-96 -2 -161.5 -32.5t-73.5 -70.5q-14 -57 98 -64q62 -3 265 -3q65 0 114 -9
t90.5 -31t62 -58t28 -90.5t-10.5 -129.5q-15 -69 -56.5 -128t-110.5 -107t-175.5 -75.5t-239.5 -27.5zM465 392q74 0 129 63t81 183q5 23 5.5 50t-7 58t-33.5 51.5t-68 20.5q-45 0 -83 -24t-62 -61.5t-39 -73t-23 -69.5q-6 -28 -6 -58t7 -63.5t32.5 -55t66.5 -21.5z
M292 -442q159 0 271.5 53.5t132.5 144.5q17 78 -39.5 111t-224.5 33q-342 0 -383 -176q-9 -42 1 -73t31.5 -48.5t58 -28t71.5 -13.5t81 -3z" />
    <glyph glyph-name="h" unicode="h" horiz-adv-x="1143" 
d="M46 0l242 1116q7 31 8.5 48t-3 33.5t-21.5 22.5t-47 3l-56 -9l17 93l421 83l-150 -672q81 91 170.5 143.5t174.5 52.5q134 0 194 -87.5t25 -243.5l-83 -378q-12 -60 2 -85t65 -25h48l-21 -95h-397l131 602q10 49 10.5 86.5t-20 59.5t-64.5 22q-105 0 -268 -225l-120 -545
h-258z" />
    <glyph glyph-name="i" unicode="i" horiz-adv-x="606" 
d="M496 1148q-62 0 -107 45.5t-45 109.5t44.5 109t107.5 45q62 0 106.5 -45t44.5 -109q0 -65 -44 -110t-107 -45zM80 0l141 646q17 66 3.5 89.5t-77.5 18.5l-60 -9l18 93l435 79l-163 -740q-10 -44 8 -63t67 -19h47l-21 -95h-398z" />
    <glyph glyph-name="j" unicode="j" horiz-adv-x="580" 
d="M496 1148q-62 0 -107 45.5t-45 109.5t44.5 109t107.5 45q62 0 106.5 -45t44.5 -109q0 -65 -44 -110t-107 -45zM-185 -538q-107 0 -168 54.5t-44 150.5q6 35 37 57.5t70 23.5q39 0 61 -28t24 -76q0 -82 72 -82q68 0 112 80.5t73 216.5l172 785q7 36 8.5 62t-21 38.5
t-74.5 8.5l-55 -10l19 94l441 80l-208 -956q-29 -134 -67 -223.5t-98.5 -153.5t-146.5 -93t-207 -29z" />
    <glyph glyph-name="k" unicode="k" horiz-adv-x="1146" 
d="M44 0l244 1121q17 59 4.5 86.5t-72.5 22.5l-56 -10l19 94l422 76l-208 -946l566 439h199l-19 -95h-34q-48 0 -96.5 -22.5t-116.5 -71.5l-142 -100l165 -364q28 -68 51.5 -101.5t55.5 -33.5h41l-21 -95h-298l-207 455l-166 -129l-71 -326h-260z" />
    <glyph glyph-name="l" unicode="l" horiz-adv-x="565" 
d="M44 0l244 1121q17 59 4.5 86.5t-72.5 22.5l-56 -10l19 94l422 76l-258 -1185q-6 -25 -7.5 -42.5t1.5 -34t14.5 -25t32.5 -8.5h61l-22 -95h-383z" />
    <glyph glyph-name="m" unicode="m" horiz-adv-x="1888" 
d="M104 0l139 632q5 25 7.5 38.5t1.5 30t-8.5 24t-23 11.5t-40.5 2l-57 -9l18 94l420 83l-43 -189q91 88 198.5 142.5t193.5 54.5q104 0 163 -57t59 -161q93 99 207 158.5t207 59.5q133 0 194 -87t26 -244l-83 -378q-14 -58 0 -84t67 -26h47l-21 -95h-398l130 602
q11 50 11.5 87t-20.5 59t-65 22q-73 0 -160 -65.5t-149 -149.5l-123 -555h-259l131 602q21 74 5.5 121t-81.5 47q-74 0 -163 -69.5t-150 -155.5l-120 -545h-261z" />
    <glyph glyph-name="n" unicode="n" horiz-adv-x="1174" 
d="M75 0l138 632q5 25 7.5 38.5t1.5 30t-8.5 24t-23 11.5t-40.5 2l-56 -9l17 94l421 83l-44 -188q81 90 170.5 143t174.5 53q133 0 193.5 -86t25.5 -245l-83 -378q-12 -60 1.5 -85t64.5 -25h49l-21 -95h-395l129 602q21 74 5 121t-81 47q-108 0 -266 -225l-119 -545h-261z
" />
    <glyph glyph-name="o" unicode="o" horiz-adv-x="1039" 
d="M425 -32q-29 0 -60 4.5t-69.5 15t-72 29t-68 45.5t-57.5 64.5t-39.5 87.5t-15 112.5t16.5 140.5q20 95 65.5 173t102 128t125 83.5t133 48t127.5 14.5q58 0 115.5 -15.5t115.5 -51t94.5 -92.5t52.5 -140t-10 -194q-26 -121 -89 -213t-143.5 -142t-162 -74t-161.5 -24z
M431 67q102 0 175 111t111 287q79 351 -108 351q-57 0 -105 -33.5t-82 -91.5t-57.5 -123t-40.5 -141q-21 -102 -23 -182t30.5 -129t99.5 -49z" />
    <glyph glyph-name="p" unicode="p" horiz-adv-x="1171" 
d="M-35 -521l255 1170q17 56 2.5 82t-84.5 25l-43 -8l18 92l402 77l-17 -142q73 66 159.5 102.5t167.5 36.5q160 0 247 -136t40 -355q-22 -102 -74 -189t-119.5 -144.5t-145 -89.5t-153.5 -32q-156 0 -257 135l-139 -624h-259zM544 97q53 0 100.5 27t79.5 66t58.5 91
t41 94.5t23.5 83.5q14 63 15.5 119t-10.5 104t-45.5 76t-86.5 28q-60 0 -127 -45.5t-117 -109.5l-97 -434q28 -50 75 -75t90 -25z" />
    <glyph glyph-name="q" unicode="q" horiz-adv-x="1135" 
d="M530 -521l132 601q-143 -112 -301 -112q-178 0 -262.5 136.5t-37.5 350.5q24 112 77.5 202t123 144.5t146 83t152.5 28.5q58 0 106 -14.5t82.5 -41t55 -48t41.5 -51.5l177 150h74l-309 -1429h-257zM449 92q38 0 104 31t133 97l104 453q-57 123 -170 123q-98 0 -176 -97.5
t-118 -280.5q-12 -56 -14.5 -107.5t6 -104t42 -83.5t89.5 -31z" />
    <glyph glyph-name="r" unicode="r" horiz-adv-x="873" 
d="M77 0l138 636q16 59 6 86t-61 23l-66 -10l17 94l387 88l-28 -236q161 233 338 233q43 0 73.5 -17t45 -45t19 -59t0.5 -64q-7 -37 -36.5 -68.5t-81.5 -32.5q-20 0 -33.5 7.5t-18.5 15t-13 25t-11 23.5q-22 44 -83 44q-49 0 -94 -41t-76.5 -104.5t-52 -123.5t-32.5 -115
l-77 -359h-260z" />
    <glyph glyph-name="s" unicode="s" horiz-adv-x="966" 
d="M518 829q-85 0 -143 -31t-62 -85q-2 -26 7.5 -45t26.5 -31t43.5 -21t55.5 -14.5t65 -11.5l9 -1.5t8 -1t9 -1.5q57 -10 95.5 -20t86.5 -31t76 -49t46.5 -74.5t15.5 -107.5q-7 -154 -124.5 -245t-299.5 -91q-177 0 -272 78l-70 -78h-77l58 286h78q41 -93 128.5 -146.5
t185.5 -53.5q82 0 136.5 36.5t59.5 102.5q2 30 -10 53t-27 36t-51.5 24.5t-57 16t-70.5 12.5q-7 1 -11 2q-55 10 -91 18.5t-81.5 28.5t-71 45.5t-43 69t-14.5 100.5q5 147 118 231t286 84q156 0 256 -76l61 76h71l-52 -266h-64q-24 88 -104.5 134.5t-185.5 46.5z" />
    <glyph glyph-name="t" unicode="t" horiz-adv-x="731" 
d="M329 -32q-125 0 -182 78.5t-23 232.5l111 509h-140l20 95h61q103 0 189.5 71t110.5 178l17 76h90l-70 -325h264l-19 -95h-265l-108 -493q-12 -56 -16.5 -91t-1.5 -63t18 -40t43 -12q40 0 79.5 33t60.5 93l70 -23q-14 -54 -42.5 -96t-60.5 -65.5t-72 -38t-71.5 -19.5
t-62.5 -5z" />
    <glyph glyph-name="u" unicode="u" horiz-adv-x="1176" 
d="M342 -32q-135 0 -194 87t-24 245l82 377q12 61 -1.5 86t-64.5 25h-47l19 95h397l-131 -602q-10 -48 -11 -85t20.5 -60t66.5 -23q109 0 266 225l76 339q13 47 4.5 79t-47.5 32h-52l19 95h380l-147 -677q-5 -25 -7 -39t-1 -29.5t8 -22.5t22.5 -11.5t40.5 -2.5l58 9l-20 -95
l-413 -42l44 192q-79 -90 -168.5 -143.5t-174.5 -53.5z" />
    <glyph glyph-name="v" unicode="v" horiz-adv-x="963" 
d="M755 883h320l-607 -901h-151l-142 680q-18 80 -35 103t-55 23h-35l20 95h314l141 -661l282 442q20 31 30.5 51.5t15.5 38.5t-3 26t-28 8h-87z" />
    <glyph glyph-name="w" unicode="w" horiz-adv-x="1469" 
d="M1231 883h336l-533 -902h-151l-113 642l-369 -642h-123l-101 699q-11 68 -27 88t-54 20h-44l20 95h326l86 -589l348 595h147l114 -642l222 401q46 80 44 110t-62 30h-86z" />
    <glyph glyph-name="x" unicode="x" horiz-adv-x="1047" 
d="M-79 0l494 416l-191 305q-41 67 -93 67h-46l20 95h318l184 -327l154 147q21 21 29 40.5t-1 32t-33 12.5h-63l20 95h403l-468 -392l189 -304q31 -53 54.5 -72.5t52.5 -19.5h26l-22 -95h-305l-190 341l-171 -158q-20 -19 -31.5 -38t-5 -34.5t37.5 -15.5h72l-22 -95h-412z
" />
    <glyph glyph-name="y" unicode="y" horiz-adv-x="955" 
d="M2 -525q-50 -1 -77 27.5t-27 75.5q0 30 10 52t31 35t39.5 19.5t47.5 13.5q83 19 150.5 62t130.5 133l68 101l-202 689q-16 55 -33.5 80t-50.5 25h-41l20 95h321l165 -628l236 387q22 38 33.5 61t17 44.5t-4.5 31t-34 9.5h-89l19 95h331l-698 -1085
q-112 -174 -187.5 -245.5t-175.5 -77.5z" />
    <glyph glyph-name="z" unicode="z" horiz-adv-x="975" 
d="M979 883l-19 -96l-645 -692h254q40 0 76.5 24.5t82.5 93.5l46 84l91 -1l-89 -296h-806l17 89l646 699h-249q-33 0 -58 -21t-69 -90l-35 -68l-93 2l82 272h768z" />
    <glyph glyph-name="braceleft" unicode="{" horiz-adv-x="570" 
d="M281 1064q5 22 17.5 52.5t47.5 78t83 85.5t132 67t186 32l-1 -48q-117 -15 -189.5 -79t-93.5 -161q-11 -52 -10 -173t-12 -184q-10 -47 -36 -92.5t-70 -89.5t-114 -76t-157 -45q132 -30 200.5 -119t40.5 -228q-9 -38 -61.5 -154t-68.5 -196q-11 -56 1.5 -96.5t43.5 -62
t63.5 -31.5t71.5 -13l-1 -46q-69 -2 -126.5 12.5t-95 41.5t-66 62.5t-39.5 76t-15.5 83t6.5 82.5q12 54 68 176t69 186q35 170 -143 193l7 71q52 8 94 30t67 47.5t43.5 59.5t26.5 57.5t14 49.5q10 48 6 167t11 184z" />
    <glyph glyph-name="bar" unicode="|" horiz-adv-x="634" 
d="M13 -483l391 1835h214l-391 -1835h-214z" />
    <glyph glyph-name="braceright" unicode="}" horiz-adv-x="572" 
d="M414 667q-4 -18 -6 -35.5t2.5 -46t18 -50.5t45.5 -41.5t80 -27.5l-7 -71q-29 -4 -61 -16t-69.5 -37.5t-67.5 -72.5t-43 -110q-10 -46 -7 -168t-12 -195q-9 -42 -32.5 -85t-64 -85t-93 -74t-125 -50.5t-153.5 -16.5l3 49q39 3 79 17t82 41t75 76t46 113q14 61 11.5 176
t9.5 173q26 125 129 202t251 104q-80 14 -136 50.5t-79 83.5t-31 102.5t6 107.5q9 44 61.5 166t66.5 192q17 79 -27 130t-153 66v45q74 -2 132.5 -19.5t94 -43t60 -60t35 -67.5t14 -68.5t2 -59t-5.5 -43.5q-10 -50 -63.5 -167t-67.5 -184z" />
    <glyph glyph-name="asciitilde" unicode="~" horiz-adv-x="1342" 
d="M193 498q1 25 3.5 50.5t10.5 62.5t20 69.5t34 66.5t51 58t72 39.5t96 15.5q57 0 127.5 -21t214.5 -89q84 -42 120 -55.5t73 -13.5q70 0 114.5 47t51.5 133h71q0 -71 -17.5 -134.5t-51.5 -115t-91.5 -82t-130.5 -30.5q-72 0 -136 22.5t-207 91.5q-123 63 -189 63
q-73 0 -115 -46t-50 -132h-71z" />
    <glyph glyph-name="uni00A0" unicode="&#xa0;" horiz-adv-x="538" 
 />
    <glyph glyph-name="exclamdown" unicode="&#xa1;" horiz-adv-x="579" 
d="M353 916q64 0 110.5 -46.5t46.5 -113.5q0 -66 -46 -112t-111 -46t-110.5 46t-45.5 112q0 67 45.5 113.5t110.5 46.5zM333 437l-72 -660q-19 -152 -23 -171q-4 -20 -8.5 -31.5t-18.5 -31t-42.5 -29.5t-70.5 -10q-138 0 -104 148q4 17 42 132l204 653h93z" />
    <glyph glyph-name="cent" unicode="&#xa2;" horiz-adv-x="1013" 
d="M833 1104q87 -22 137 -75.5t38 -137.5q-7 -40 -36.5 -67t-74.5 -28q-100 0 -89 149q-9 30 -22 45l-287 -696q25 -7 59 -7q56 0 107 20.5t88 54t60 62.5t42 61l76 -63q-36 -54 -72 -93.5t-87.5 -77.5t-121 -58t-153.5 -20q-17 0 -47 2l-147 -357h-74l152 368
q-156 36 -228 161.5t-33 308.5q44 206 213.5 334.5t378.5 128.5q26 0 53 -3l138 336h74zM397 663q-56 -257 41 -339l288 698q-20 2 -31 2q-53 0 -99.5 -26t-78 -65t-57.5 -90t-40 -94.5t-23 -85.5z" />
    <glyph glyph-name="sterling" unicode="&#xa3;" horiz-adv-x="1473" 
d="M94 -39q-36 0 -68 41q-28 38 -19 77q15 39 61 81t110.5 86t73.5 52q86 112 188 316h-312l62 130h301q116 241 135 278q54 93 113.5 159t112.5 103t116.5 58t114.5 27t119 6q134 0 208 -60.5t63 -152.5q-6 -33 -37 -55t-68 -24q-78 0 -96 108q-36 81 -131 81
q-32 0 -60.5 -9t-50.5 -22t-45.5 -39.5t-39 -47.5t-37 -61.5t-34.5 -66.5t-36 -76q-16 -29 -52 -100t-55 -106h330l-58 -130h-352q-102 -163 -201 -263q50 34 122 34q31 0 59 -8.5t47 -18.5t43 -32.5t35 -35t34.5 -41.5t31.5 -39q44 -53 85.5 -80.5t103.5 -27.5q63 0 100 25
t47.5 66t14 95t-1.5 112q-1 37 26.5 57.5t69.5 22.5q46 0 69.5 -28.5t23.5 -76.5q3 -86 -56 -172q-62 -104 -180.5 -171.5t-237.5 -67.5q-36 0 -67.5 5.5t-59 20t-45 25t-41 35.5t-32 34.5t-30.5 38.5l-12 15q-39 49 -71 73t-79 24q-54 0 -118 -66q-22 -24 -57.5 -69
t-57 -70.5t-55 -47t-67.5 -21.5z" />
    <glyph glyph-name="currency" unicode="&#xa4;" horiz-adv-x="1232" 
d="M295 279l-73 76l131 129q-79 131 -79 240q0 113 80 242l-132 131l73 76l137 -132q126 82 242 82q120 0 245 -82l137 132l73 -76l-132 -131q81 -130 81 -242q0 -108 -81 -240l132 -129l-73 -76l-137 132q-125 -82 -245 -82q-119 0 -242 81zM674 434q122 0 209 86t87 206
q0 122 -88.5 207t-207.5 85t-205 -86t-86 -206t85.5 -206t205.5 -86z" />
    <glyph glyph-name="yen" unicode="&#xa5;" horiz-adv-x="1448" 
d="M306 0l21 95h75q70 0 104.5 38.5t51.5 115.5l19 91h-421l18 87h421l23 102l-17 49h-396l20 87h346l-154 457q-27 79 -49 108.5t-69 29.5h-49l19 95h580l-19 -95h-53q-61 0 -81.5 -46t2.5 -105l167 -444l333 432q36 49 49 84.5t-2 57t-61 21.5h-57l20 95h411l-19 -95h-20
q-71 0 -191 -159l-352 -436h356l-19 -87h-400l-33 -38l-25 -113h427l-18 -87h-427l-24 -114q-19 -68 -3.5 -99.5t83.5 -31.5h87l-20 -95h-654z" />
    <glyph glyph-name="brokenbar" unicode="&#xa6;" horiz-adv-x="637" 
d="M570 1122l-168 -791l-123 -580h-214l167 790h1l123 581h214z" />
    <glyph glyph-name="section" unicode="&#xa7;" horiz-adv-x="1083" 
d="M328 -500q-151 0 -240 76t-65 193q6 32 28 53t43.5 27.5t43.5 6.5q33 0 58.5 -28t26.5 -93q2 -74 34.5 -106.5t112.5 -32.5q79 0 140.5 48t76.5 125q4 17 4 33t-3 29.5t-11 27.5t-17 25.5t-23.5 25.5t-29.5 26t-36 28.5t-40.5 31.5t-46.5 36t-51 40q-148 104 -205.5 203
t-30.5 225q9 39 27.5 76t53 77.5t94.5 72.5t139 48q-149 120 -111 302q21 95 90 164t163 102t202 33q157 0 241.5 -78t64.5 -186q-8 -41 -43.5 -63t-75.5 -22q-26 0 -43 10t-25.5 30t-11.5 39.5t-4 50.5q-4 61 -36.5 92.5t-111.5 31.5q-88 0 -149 -49.5t-77 -124.5
q-7 -32 1 -59t33.5 -55t55 -52t78.5 -61q31 -23 47 -35q41 -27 71.5 -48t63 -47t55 -49t43.5 -51t32.5 -57t19 -62.5t6 -71.5t-10.5 -80q-16 -72 -49 -125t-79 -83.5t-85.5 -46.5t-90.5 -28q66 -55 92.5 -135t7.5 -168q-20 -95 -92 -163.5t-163.5 -98.5t-191.5 -30zM611 189
q74 -5 128.5 40.5t68.5 110.5q12 55 -41.5 132.5t-138.5 139.5t-161 78q-78 6 -131.5 -39t-68.5 -113q-11 -52 39.5 -128.5t136.5 -140.5t168 -80z" />
    <glyph glyph-name="dieresis" unicode="&#xa8;" horiz-adv-x="835" 
d="M382 1106q-50 0 -86.5 36.5t-36.5 86.5t36 86.5t87 36.5t87 -36t36 -87q0 -53 -36 -88t-87 -35zM786 1106q-50 0 -86.5 36t-36.5 87t36 87t87 36t87 -36.5t36 -86.5q0 -52 -36 -87.5t-87 -35.5z" />
    <glyph glyph-name="copyright" unicode="&#xa9;" horiz-adv-x="1620" 
d="M858 -33q-191 0 -353.5 94.5t-257 257t-94.5 354.5q0 144 56.5 275t151 225.5t225 150t272.5 55.5q191 0 354 -94t258.5 -257t95.5 -355q0 -144 -56 -274.5t-151 -225t-226 -150.5t-275 -56zM858 44q128 0 244.5 50t200.5 134.5t134 201t50 243.5q0 128 -50 244.5
t-134.5 200.5t-201 133.5t-243.5 49.5q-169 0 -313 -83.5t-228.5 -228.5t-84.5 -316t83.5 -315.5t228 -229t314.5 -84.5zM861 251q-82 0 -157 27t-133.5 78t-93.5 130.5t-35 177.5q0 194 125.5 315.5t307.5 121.5q53 0 101 -11t90 -27.5t51 -18.5q48 -8 50 45h40v-241h-40
q-15 60 -47 103.5t-71.5 64t-74 29.5t-66.5 9q-64 0 -114.5 -24.5t-81 -62.5t-51 -89t-28 -98.5t-7.5 -95.5q0 -176 72 -277t207 -101q99 0 170 49t106 108l9 -59q-57 -74 -143.5 -113.5t-185.5 -39.5z" />
    <glyph glyph-name="guillemotleft" unicode="&#xab;" horiz-adv-x="1061" 
d="M283 0l-278 440l461 441h103l-327 -441l138 -440h-97zM805 0l-279 440l460 441h104l-326 -441l136 -440h-95z" />
    <glyph glyph-name="logicalnot" unicode="&#xac;" horiz-adv-x="1437" 
d="M1105 334v494h-920v171h1091v-665h-171z" />
    <glyph glyph-name="uni00AD" unicode="&#xad;" horiz-adv-x="853" 
d="M101 298l46 219h592l-46 -219h-592z" />
    <glyph glyph-name="registered" unicode="&#xae;" horiz-adv-x="1619" 
d="M858 1382q191 0 354 -94t258.5 -257t95.5 -355q0 -143 -56 -274t-151 -225.5t-226 -150.5t-275 -56q-191 0 -353.5 94.5t-257 257t-94.5 354.5q0 144 56.5 275t151 225.5t225 150t272.5 55.5zM858 48q128 0 244.5 50t200.5 134t134 200.5t50 243.5q0 128 -50 244.5
t-134.5 200.5t-201 133.5t-243.5 49.5q-169 0 -313 -83.5t-228.5 -228t-84.5 -316.5q0 -128 49.5 -244t133.5 -200.5t200 -134t243 -49.5zM1203 398q31 -47 65 -47h32v-51h-178l-157 252q-34 55 -59.5 74t-64.5 19h-94v-228q0 -37 12.5 -51.5t49.5 -14.5h47v-51h-350v51h45
q40 0 52.5 14t12.5 52v532q0 36 -12 51.5t-48 15.5h-50v49h390q123 0 197 -50t74 -158q0 -75 -42 -118.5t-118 -68.5q41 -33 84 -101zM857 697q174 0 174 155q0 153 -168 153h-116v-308h110z" />
    <glyph glyph-name="macron" unicode="&#xaf;" horiz-adv-x="848" 
d="M244 1070l76 186h588l-75 -186h-589z" />
    <glyph glyph-name="degree" unicode="&#xb0;" horiz-adv-x="978" 
d="M611 654q-151 0 -257.5 106.5t-106.5 257.5t106.5 257.5t257.5 106.5t257 -106.5t106 -257.5t-106 -257.5t-257 -106.5zM611 784q97 0 165 68.5t68 165.5t-68 165.5t-165 68.5t-165.5 -68.5t-68.5 -165.5q0 -98 68.5 -166t165.5 -68z" />
    <glyph glyph-name="plusminus" unicode="&#xb1;" horiz-adv-x="1398" 
d="M630 358v470h-470v171h470v469h171v-469h469v-171h-469v-470h-171zM160 0v171h1110v-171h-1110z" />
    <glyph glyph-name="acute" unicode="&#xb4;" horiz-adv-x="378" 
d="M129 1030h-76l177 322h337v-4z" />
    <glyph glyph-name="uni00B5" unicode="&#xb5;" horiz-adv-x="1317" 
d="M48 -422l235 1099q12 61 -2 86t-66 25h-50l20 95h401l-128 -602q-20 -77 -2 -122.5t84 -45.5q116 0 273 225l74 339q13 47 4 79t-48 32h-56l20 95h385l-144 -677q-7 -35 -8.5 -60t16 -37t57.5 -8l61 9l-20 -95l-418 -42l43 192q-118 -142 -221 -168q-82 -23 -158 -4
l-91 -415h-261z" />
    <glyph glyph-name="paragraph" unicode="&#xb6;" horiz-adv-x="1160" 
d="M351 -510l216 1002q-89 4 -159.5 22t-127.5 53.5t-88.5 89t-42 128.5t11.5 172q22 100 65.5 171.5t102.5 115t146.5 69t179.5 34.5t219 9h444l-8 -43h-42q-52 0 -89 -15.5t-59.5 -48t-35 -66.5t-24.5 -87l-341 -1606h-85l381 1798h-196l-381 -1798h-87z" />
    <glyph glyph-name="periodcentered" unicode="&#xb7;" horiz-adv-x="602" 
d="M350 516q-66 0 -113 46t-47 114q0 66 46.5 112t113.5 46q65 0 111.5 -46t46.5 -112q0 -68 -46.5 -114t-111.5 -46z" />
    <glyph glyph-name="cedilla" unicode="&#xb8;" horiz-adv-x="592" 
d="M79 -485q-108 0 -203 23l17 95q70 -12 151 -12q107 0 156.5 27t49.5 65q0 16 -11 28t-34 18.5t-41.5 11t-51 6t-45 1.5h-39.5l47 254l107 -6l-27 -134q107 -1 174 -46t67 -124q0 -37 -17.5 -72t-53 -66t-99 -50t-147.5 -19z" />
    <glyph glyph-name="guillemotright" unicode="&#xbb;" horiz-adv-x="1060" 
d="M-28 0l324 440l-134 441h97l276 -441l-464 -440h-99zM492 0l326 440l-134 441h95l276 -441l-462 -440h-101z" />
    <glyph glyph-name="questiondown" unicode="&#xbf;" horiz-adv-x="865" 
d="M618 916q64 0 110 -46.5t46 -113.5q0 -66 -45.5 -112t-110.5 -46t-111 46t-46 112q0 67 46 113.5t111 46.5zM585 -187q35 0 59.5 -30t14.5 -76q-25 -79 -131.5 -141t-253.5 -62q-132 0 -217.5 59.5t-113.5 154t-4 208.5q17 82 60.5 148t100 105t116.5 59.5t116 20.5
q60 0 122 -26l42 201h106l-69 -320l-78 10q-16 21 -63 21q-44 0 -82 -27.5t-62 -70.5t-38 -80t-21 -70q-8 -39 -10.5 -82t3 -95t36 -85.5t82.5 -33.5q50 0 100 35.5t79 104.5l5 8q4 8 5.5 10.5t7 10.5t9 11.5l10 10t13.5 9.5t15.5 6.5t19 4.5t21.5 1z" />
    <glyph glyph-name="Agrave" unicode="&#xc0;" horiz-adv-x="1290" 
d="M887 1438h-76l-438 317v4h337zM1189 95h39l-21 -95h-593l20 95h80q39 0 60 19.5t15 55.5l-31 225h-423l-127 -227q-22 -40 -1.5 -56.5t59.5 -16.5h72l-21 -95h-418l18 95h30q43 0 107 69.5t95 123.5l647 1091h106l164 -1114q14 -90 29 -118q27 -52 94 -52zM389 493h356
l-64 464h-33z" />
    <glyph glyph-name="Aacute" unicode="&#xc1;" horiz-adv-x="1290" 
d="M987 1759h338v-4l-438 -317h-76zM1066 265q14 -90 29 -118q27 -52 94 -52h39l-21 -95h-593l20 95h80q39 0 60 19.5t15 55.5l-31 225h-423l-127 -227q-22 -40 -1.5 -56.5t59.5 -16.5h72l-21 -95h-418l18 95h30q43 0 107 69.5t95 123.5l647 1091h106zM389 493h356l-64 464
h-33z" />
    <glyph glyph-name="Acircumflex" unicode="&#xc2;" horiz-adv-x="1290" 
d="M919 1678l-296 -208h-71l270 322h238l133 -322h-65zM1189 95h39l-21 -95h-593l20 95h80q39 0 60 19.5t15 55.5l-31 225h-423l-127 -227q-22 -40 -1.5 -56.5t59.5 -16.5h72l-21 -95h-418l18 95h30q43 0 107 69.5t95 123.5l647 1091h106l164 -1114q14 -90 29 -118
q27 -52 94 -52zM389 493h356l-64 464h-33z" />
    <glyph glyph-name="Atilde" unicode="&#xc3;" horiz-adv-x="1290" 
d="M731 1535q-40 0 -69 -34.5t-40 -72.5l-62 23q23 127 84.5 196.5t153.5 69.5q13 0 27.5 -2.5t24 -5t25 -9.5t21.5 -10t23 -12.5t21 -11.5q57 -40 110 -40q42 0 75 32t51 92l63 -24q-18 -119 -82.5 -202t-157.5 -83q-17 0 -32.5 2.5t-33 10.5t-25 11.5t-29.5 16.5t-25 15
q-62 38 -123 38zM1066 265q14 -90 29 -118q27 -52 94 -52h39l-21 -95h-593l20 95h80q39 0 60 19.5t15 55.5l-31 225h-423l-127 -227q-22 -40 -1.5 -56.5t59.5 -16.5h72l-21 -95h-418l18 95h30q43 0 107 69.5t95 123.5l647 1091h106zM389 493h356l-64 464h-33z" />
    <glyph glyph-name="Adieresis" unicode="&#xc4;" horiz-adv-x="1290" 
d="M647 1483q-50 0 -86.5 36.5t-36.5 86.5t36 86.5t87 36.5t87 -36t36 -87q0 -53 -36 -88t-87 -35zM1051 1483q-50 0 -86.5 36t-36.5 87q0 52 36 87.5t87 35.5t87 -36.5t36 -86.5q0 -51 -36 -87t-87 -36zM1189 95h39l-21 -95h-593l20 95h80q39 0 60 19.5t15 55.5l-31 225
h-423l-127 -227q-22 -40 -1.5 -56.5t59.5 -16.5h72l-21 -95h-418l18 95h30q43 0 107 69.5t95 123.5l647 1091h106l164 -1114q14 -90 29 -118q27 -52 94 -52zM389 493h356l-64 464h-33z" />
    <glyph glyph-name="Aring" unicode="&#xc5;" horiz-adv-x="1290" 
d="M890 1436q-80 0 -136 56t-56 136q0 79 56 135t136 56t136 -56t56 -135q0 -80 -56 -136t-136 -56zM890 1751q-51 0 -86 -36t-35 -87t35 -86.5t86 -35.5t86.5 35.5t35.5 86.5t-35.5 87t-86.5 36zM1189 95h39l-21 -95h-593l20 95h80q39 0 60 19.5t15 55.5l-31 225h-423
l-127 -227q-22 -40 -1.5 -56.5t59.5 -16.5h72l-21 -95h-418l18 95h30q43 0 107 69.5t95 123.5l647 1091h106l164 -1114q14 -90 29 -118q27 -52 94 -52zM389 493h356l-64 464h-33z" />
    <glyph glyph-name="AE" unicode="&#xc6;" horiz-adv-x="1900" 
d="M1600 1249h-334l-101 -491h187q55 0 98 23t54 74l15 77h96l-94 -459h-96l18 93q3 16 4 29t-2.5 22.5t-7.5 16t-13 10.5t-16 6.5t-20.5 3.5t-21.5 1h-25h-198l-83 -400q-6 -31 -8.5 -45.5t-3.5 -36.5t4.5 -31.5t16.5 -20t31 -14.5t50 -4h213q79 0 130.5 18.5t79 47.5
t54.5 81l91 195l95 -1l-106 -444h-1163l20 95h64q68 0 101.5 41t49.5 113l29 146h-445l-154 -227q-13 -22 -14.5 -35.5t12 -21.5t27.5 -11t32 -3l72 -2l-21 -95h-418l18 95l30 13q41 19 74.5 42.5t58 51t37 44t29.5 42.5l746 1064h1022l-55 -350l-91 -1l-5 139
q-7 40 -18.5 63t-34.5 32.5t-41.5 11.5t-59.5 2h-9zM828 493l153 756h-41l-511 -756h399z" />
    <glyph glyph-name="Ccedilla" unicode="&#xc7;" horiz-adv-x="1434" 
d="M1360 842l-88 12q4 47 -3.5 100t-30.5 109.5t-59 101.5t-97 74t-137 29q-379 0 -521 -650q-33 -164 -22.5 -283t81 -185t198.5 -66q147 0 294 117t239 328l92 -11l-108 -499h-92l-7 167q-62 -78 -186.5 -143.5t-277.5 -69.5l-16 -81q107 -1 174 -46t67 -124
q0 -37 -17.5 -72t-53 -66t-99 -50t-147.5 -19q-108 0 -203 23l17 95q70 -12 151 -12q107 0 156.5 27t49.5 65q0 16 -11 28t-34 18.5t-41.5 11t-51 6t-45 1.5h-39.5l37 201q-88 12 -160 47t-122 87t-84 118.5t-49 142t-14 156t19 162.5q22 100 68.5 198t119.5 186.5t163 156
t205 107t239 39.5q244 0 375 -224l75 176h93z" />
    <glyph glyph-name="Egrave" unicode="&#xc8;" horiz-adv-x="1316" 
d="M893 1438h-76l-438 317v4h337zM1023 1249h-334l-107 -491h187q54 0 97.5 22.5t54.5 74.5l17 77h96l-99 -459h-96l20 93q3 16 3.5 29t-3 22.5t-7 16t-13 10.5t-16 6.5t-20 3.5t-21.5 1h-24h-199l-87 -400q-10 -44 -12.5 -66t4 -45t30 -32t66.5 -9h213q60 0 102.5 9
t72.5 30t49.5 45t41.5 63l94 195l94 -1l-110 -444h-1163l21 95h64q120 0 151 154l192 877q8 43 9 72t-24.5 44t-85.5 15h-54l21 95h1089l-59 -350l-91 -1l-4 139q-5 32 -14.5 53t-19.5 32.5t-32 16.5t-37 6t-48 1h-3h-3h-3z" />
    <glyph glyph-name="Eacute" unicode="&#xc9;" horiz-adv-x="1316" 
d="M1331 1755l-438 -317h-76l176 321h338v-4zM1023 1249h-334l-107 -491h187q54 0 97.5 22.5t54.5 74.5l17 77h96l-99 -459h-96l20 93q3 16 3.5 29t-3 22.5t-7 16t-13 10.5t-16 6.5t-20 3.5t-21.5 1h-24h-199l-87 -400q-10 -44 -12.5 -66t4 -45t30 -32t66.5 -9h213
q60 0 102.5 9t72.5 30t49.5 45t41.5 63l94 195l94 -1l-110 -444h-1163l21 95h64q120 0 151 154l192 877q8 43 9 72t-24.5 44t-85.5 15h-54l21 95h1089l-59 -350l-91 -1l-4 139q-5 32 -14.5 53t-19.5 32.5t-32 16.5t-37 6t-48 1h-3h-3h-3z" />
    <glyph glyph-name="Ecircumflex" unicode="&#xca;" horiz-adv-x="1316" 
d="M925 1678l-296 -208h-71l270 322h238l133 -322h-65zM1023 1249h-334l-107 -491h187q54 0 97.5 22.5t54.5 74.5l17 77h96l-99 -459h-96l20 93q3 16 3.5 29t-3 22.5t-7 16t-13 10.5t-16 6.5t-20 3.5t-21.5 1h-24h-199l-87 -400q-10 -44 -12.5 -66t4 -45t30 -32t66.5 -9h213
q60 0 102.5 9t72.5 30t49.5 45t41.5 63l94 195l94 -1l-110 -444h-1163l21 95h64q120 0 151 154l192 877q8 43 9 72t-24.5 44t-85.5 15h-54l21 95h1089l-59 -350l-91 -1l-4 139q-5 32 -14.5 53t-19.5 32.5t-32 16.5t-37 6t-48 1h-3h-3h-3z" />
    <glyph glyph-name="Edieresis" unicode="&#xcb;" horiz-adv-x="1316" 
d="M653 1483q-50 0 -86.5 36.5t-36.5 86.5t36 86.5t87 36.5t87 -36t36 -87q0 -53 -36 -88t-87 -35zM1057 1483q-50 0 -86.5 36t-36.5 87q0 52 36 87.5t87 35.5t87 -36.5t36 -86.5q0 -51 -36 -87t-87 -36zM1023 1249h-334l-107 -491h187q54 0 97.5 22.5t54.5 74.5l17 77h96
l-99 -459h-96l20 93q3 16 3.5 29t-3 22.5t-7 16t-13 10.5t-16 6.5t-20 3.5t-21.5 1h-24h-199l-87 -400q-10 -44 -12.5 -66t4 -45t30 -32t66.5 -9h213q60 0 102.5 9t72.5 30t49.5 45t41.5 63l94 195l94 -1l-110 -444h-1163l21 95h64q120 0 151 154l192 877q8 43 9 72
t-24.5 44t-85.5 15h-54l21 95h1089l-59 -350l-91 -1l-4 139q-5 32 -14.5 53t-19.5 32.5t-32 16.5t-37 6t-48 1h-3h-3h-3z" />
    <glyph glyph-name="Igrave" unicode="&#xcc;" horiz-adv-x="769" 
d="M545 1438l-438 317v4h337l177 -321h-76zM-42 0l21 95h48q80 0 119 37t55 117l191 880q10 45 8.5 74.5t-27 43t-85.5 13.5h-55l20 95h658l-19 -95h-46q-84 0 -121.5 -35.5t-55.5 -118.5l-192 -880q-20 -74 -0.5 -102.5t107.5 -28.5h53l-20 -95h-659z" />
    <glyph glyph-name="Iacute" unicode="&#xcd;" horiz-adv-x="769" 
d="M545 1438l176 321h338v-4l-438 -317h-76zM-42 0l21 95h48q80 0 119 37t55 117l191 880q10 45 8.5 74.5t-27 43t-85.5 13.5h-55l20 95h658l-19 -95h-46q-84 0 -121.5 -35.5t-55.5 -118.5l-192 -880q-20 -74 -0.5 -102.5t107.5 -28.5h53l-20 -95h-659z" />
    <glyph glyph-name="Icircumflex" unicode="&#xce;" horiz-adv-x="769" 
d="M286 1470l270 322h238l133 -322h-65l-209 208l-296 -208h-71zM-42 0l21 95h48q80 0 119 37t55 117l191 880q10 45 8.5 74.5t-27 43t-85.5 13.5h-55l20 95h658l-19 -95h-46q-84 0 -121.5 -35.5t-55.5 -118.5l-192 -880q-20 -74 -0.5 -102.5t107.5 -28.5h53l-20 -95h-659z
" />
    <glyph glyph-name="Idieresis" unicode="&#xcf;" horiz-adv-x="769" 
d="M381 1483q-50 0 -86.5 36.5t-36.5 86.5t36 86.5t87 36.5t87 -36t36 -87q0 -53 -36 -88t-87 -35zM785 1483q-50 0 -86.5 36t-36.5 87q0 52 36 87.5t87 35.5t87 -36.5t36 -86.5q0 -51 -36 -87t-87 -36zM-42 0l21 95h48q80 0 119 37t55 117l191 880q10 45 8.5 74.5t-27 43
t-85.5 13.5h-55l20 95h658l-19 -95h-46q-84 0 -121.5 -35.5t-55.5 -118.5l-192 -880q-20 -74 -0.5 -102.5t107.5 -28.5h53l-20 -95h-659z" />
    <glyph glyph-name="Eth" unicode="&#xd0;" horiz-adv-x="1507" 
d="M790 1352q93 0 173 -8t154.5 -26t134.5 -47t109 -69t81 -94.5t49 -121.5t15 -152.5t-23 -184.5q-25 -116 -70 -210t-101 -160.5t-129.5 -116.5t-149.5 -80.5t-168 -49.5t-177 -25.5t-184 -6.5h-546l21 95h77q100 0 134 154l82 374h-139l21 103h140l88 403q8 41 9 70.5
t-17.5 45t-59.5 15.5h-81l20 92h537zM1171 697q24 108 25 196.5t-18.5 149t-52 105t-79 69.5t-95.5 36.5t-105 11.5h-154l-118 -539h317l-22 -103h-317l-80 -367q-1 -3 -2 -9q-15 -75 -6 -100q16 -44 115 -44h122q84 0 160.5 47.5t135.5 130t103.5 188.5t70.5 228z" />
    <glyph glyph-name="Ntilde" unicode="&#xd1;" horiz-adv-x="1500" 
d="M838 1535q-40 0 -69 -34.5t-40 -72.5l-62 23q23 127 84.5 196.5t153.5 69.5q13 0 27.5 -2.5t24 -5t25 -9.5t21.5 -10t23 -12.5t21 -11.5q57 -40 110 -40q42 0 75 32t51 92l63 -24q-18 -119 -82.5 -202t-157.5 -83q-17 0 -32.5 2.5t-33 10.5t-25 11.5t-29.5 16.5t-25 15
q-62 38 -123 38zM1204 1352h460l-21 -95h-45q-63 0 -107 -59t-62 -142l-234 -1079h-108l-614 1066l-167 -763q-5 -22 -7 -34.5t-4 -35t0 -36t8.5 -30.5t18.5 -26.5t33 -16t49 -6.5h50l-21 -95h-476l21 95h45q41 0 74 19.5t51 43.5t32.5 59.5t18 51t7.5 34.5l173 791
q32 163 -105 163h-48l21 95h407l531 -928l146 657q5 23 7.5 40.5t1 45t-10.5 45.5t-32 31.5t-59 13.5h-55z" />
    <glyph glyph-name="Ograve" unicode="&#xd2;" horiz-adv-x="1517" 
d="M918 1438l-438 317v4h337l177 -321h-76zM665 -27q-213 0 -353 96t-187.5 261t-2.5 374q21 97 67 192t120 182.5t166.5 154t215 106.5t256.5 40q122 0 219.5 -30.5t161.5 -84t107.5 -124t61 -153t17 -167.5t-19.5 -172q-22 -101 -68.5 -197.5t-121 -183.5t-167.5 -152
t-215 -103.5t-257 -38.5zM666 84q377 0 507 614q123 570 -231 570q-98 0 -180.5 -46t-143 -129t-104 -189.5t-72.5 -237.5q-13 -58 -21 -112t-10.5 -113.5t3.5 -110t23.5 -97t46 -78.5t75 -51.5t107.5 -19.5z" />
    <glyph glyph-name="Oacute" unicode="&#xd3;" horiz-adv-x="1517" 
d="M918 1438l176 321h338v-4l-438 -317h-76zM665 -27q-213 0 -353 96t-187.5 261t-2.5 374q21 97 67 192t120 182.5t166.5 154t215 106.5t256.5 40q122 0 219.5 -30.5t161.5 -84t107.5 -124t61 -153t17 -167.5t-19.5 -172q-22 -101 -68.5 -197.5t-121 -183.5t-167.5 -152
t-215 -103.5t-257 -38.5zM666 84q377 0 507 614q123 570 -231 570q-98 0 -180.5 -46t-143 -129t-104 -189.5t-72.5 -237.5q-13 -58 -21 -112t-10.5 -113.5t3.5 -110t23.5 -97t46 -78.5t75 -51.5t107.5 -19.5z" />
    <glyph glyph-name="Ocircumflex" unicode="&#xd4;" horiz-adv-x="1517" 
d="M659 1470l270 322h238l133 -322h-65l-209 208l-296 -208h-71zM665 -27q-213 0 -353 96t-187.5 261t-2.5 374q21 97 67 192t120 182.5t166.5 154t215 106.5t256.5 40q122 0 219.5 -30.5t161.5 -84t107.5 -124t61 -153t17 -167.5t-19.5 -172q-22 -101 -68.5 -197.5
t-121 -183.5t-167.5 -152t-215 -103.5t-257 -38.5zM666 84q377 0 507 614q123 570 -231 570q-98 0 -180.5 -46t-143 -129t-104 -189.5t-72.5 -237.5q-13 -58 -21 -112t-10.5 -113.5t3.5 -110t23.5 -97t46 -78.5t75 -51.5t107.5 -19.5z" />
    <glyph glyph-name="Otilde" unicode="&#xd5;" horiz-adv-x="1517" 
d="M729 1428l-62 23q23 127 84.5 196.5t153.5 69.5q13 0 27.5 -2.5t24 -5t25 -9.5t21.5 -10t23 -12.5t21 -11.5q57 -40 110 -40q42 0 75 32t51 92l63 -24q-18 -119 -82.5 -202t-157.5 -83q-17 0 -32.5 2.5t-33 10.5t-25 11.5t-29.5 16.5t-25 15q-62 38 -123 38
q-40 0 -69 -34.5t-40 -72.5zM665 -27q-213 0 -353 96t-187.5 261t-2.5 374q21 97 67 192t120 182.5t166.5 154t215 106.5t256.5 40q122 0 219.5 -30.5t161.5 -84t107.5 -124t61 -153t17 -167.5t-19.5 -172q-22 -101 -68.5 -197.5t-121 -183.5t-167.5 -152t-215 -103.5
t-257 -38.5zM666 84q377 0 507 614q123 570 -231 570q-98 0 -180.5 -46t-143 -129t-104 -189.5t-72.5 -237.5q-13 -58 -21 -112t-10.5 -113.5t3.5 -110t23.5 -97t46 -78.5t75 -51.5t107.5 -19.5z" />
    <glyph glyph-name="Odieresis" unicode="&#xd6;" horiz-adv-x="1517" 
d="M754 1483q-50 0 -86.5 36.5t-36.5 86.5t36 86.5t87 36.5t87 -36t36 -87q0 -53 -36 -88t-87 -35zM1158 1483q-50 0 -86.5 36t-36.5 87q0 52 36 87.5t87 35.5t87 -36.5t36 -86.5q0 -51 -36 -87t-87 -36zM665 -27q-213 0 -353 96t-187.5 261t-2.5 374q21 97 67 192
t120 182.5t166.5 154t215 106.5t256.5 40q122 0 219.5 -30.5t161.5 -84t107.5 -124t61 -153t17 -167.5t-19.5 -172q-22 -101 -68.5 -197.5t-121 -183.5t-167.5 -152t-215 -103.5t-257 -38.5zM666 84q377 0 507 614q123 570 -231 570q-98 0 -180.5 -46t-143 -129t-104 -189.5
t-72.5 -237.5q-13 -58 -21 -112t-10.5 -113.5t3.5 -110t23.5 -97t46 -78.5t75 -51.5t107.5 -19.5z" />
    <glyph glyph-name="multiply" unicode="&#xd7;" horiz-adv-x="1136" 
d="M281 213l-120 123l331 331l-331 332l120 121l333 -332l331 332l121 -121l-331 -332l331 -331l-121 -123l-331 333z" />
    <glyph glyph-name="Oslash" unicode="&#xd8;" horiz-adv-x="1517" 
d="M1363 1234q71 -71 109.5 -170.5t40.5 -203t-19 -212.5q-22 -101 -68.5 -197.5t-121 -183.5t-167.5 -152t-215 -103.5t-257 -38.5q-199 0 -334 84l-71 -81l-75 62l69 78q-103 98 -137.5 250.5t5.5 337.5q21 97 67 192t120 182.5t166.5 154t215 106.5t256.5 40
q205 0 342 -87l74 84l69 -64zM442 666q-49 -221 -23 -363l746 848q-61 117 -223 117q-98 0 -180.5 -46t-143 -129t-104 -189.5t-72.5 -237.5zM1173 698q46 213 26 348l-745 -849q62 -113 212 -113q377 0 507 614z" />
    <glyph glyph-name="Ugrave" unicode="&#xd9;" horiz-adv-x="1452" 
d="M883 1438l-438 317v4h337l177 -321h-76zM638 -27q-266 0 -377 145.5t-51 421.5l128 586q7 40 9 69.5t-23.5 45.5t-86.5 16h-48l22 95h650l-21 -95h-53q-81 0 -118.5 -37.5t-54.5 -116.5l-129 -586q-28 -135 -20 -229.5t71 -145t184 -50.5q86 0 156 25.5t118.5 67.5
t87 105t62 129.5t41.5 149.5l116 523q9 48 6 85t-31 58.5t-82 21.5h-48l21 95h461l-21 -95h-38q-64 0 -108 -54t-60 -131l-116 -530q-61 -286 -218.5 -427.5t-428.5 -141.5z" />
    <glyph glyph-name="Uacute" unicode="&#xda;" horiz-adv-x="1452" 
d="M883 1438l176 321h338v-4l-438 -317h-76zM638 -27q-266 0 -377 145.5t-51 421.5l128 586q7 40 9 69.5t-23.5 45.5t-86.5 16h-48l22 95h650l-21 -95h-53q-81 0 -118.5 -37.5t-54.5 -116.5l-129 -586q-28 -135 -20 -229.5t71 -145t184 -50.5q86 0 156 25.5t118.5 67.5
t87 105t62 129.5t41.5 149.5l116 523q9 48 6 85t-31 58.5t-82 21.5h-48l21 95h461l-21 -95h-38q-64 0 -108 -54t-60 -131l-116 -530q-61 -286 -218.5 -427.5t-428.5 -141.5z" />
    <glyph glyph-name="Ucircumflex" unicode="&#xdb;" horiz-adv-x="1452" 
d="M624 1470l270 322h238l133 -322h-65l-209 208l-296 -208h-71zM638 -27q-266 0 -377 145.5t-51 421.5l128 586q7 40 9 69.5t-23.5 45.5t-86.5 16h-48l22 95h650l-21 -95h-53q-81 0 -118.5 -37.5t-54.5 -116.5l-129 -586q-28 -135 -20 -229.5t71 -145t184 -50.5
q86 0 156 25.5t118.5 67.5t87 105t62 129.5t41.5 149.5l116 523q9 48 6 85t-31 58.5t-82 21.5h-48l21 95h461l-21 -95h-38q-64 0 -108 -54t-60 -131l-116 -530q-61 -286 -218.5 -427.5t-428.5 -141.5z" />
    <glyph glyph-name="Udieresis" unicode="&#xdc;" horiz-adv-x="1452" 
d="M719 1483q-50 0 -86.5 36.5t-36.5 86.5t36 86.5t87 36.5t87 -36t36 -87q0 -53 -36 -88t-87 -35zM1123 1483q-50 0 -86.5 36t-36.5 87q0 52 36 87.5t87 35.5t87 -36.5t36 -86.5q0 -51 -36 -87t-87 -36zM638 -27q-266 0 -377 145.5t-51 421.5l128 586q7 40 9 69.5
t-23.5 45.5t-86.5 16h-48l22 95h650l-21 -95h-53q-81 0 -118.5 -37.5t-54.5 -116.5l-129 -586q-28 -135 -20 -229.5t71 -145t184 -50.5q86 0 156 25.5t118.5 67.5t87 105t62 129.5t41.5 149.5l116 523q9 48 6 85t-31 58.5t-82 21.5h-48l21 95h461l-21 -95h-38
q-64 0 -108 -54t-60 -131l-116 -530q-61 -286 -218.5 -427.5t-428.5 -141.5z" />
    <glyph glyph-name="Yacute" unicode="&#xdd;" horiz-adv-x="1302" 
d="M808 1438l176 321h338v-4l-438 -317h-76zM219 0l21 95h63q79 0 113.5 37t52.5 116l63 281l-198 590q-26 77 -50.5 107.5t-71.5 30.5h-50l21 95h608l-21 -95h-53q-42 0 -63.5 -23.5t-20 -57t12.5 -70.5l155 -441l320 417q30 40 46.5 69.5t20 54.5t-15 38t-59.5 13h-49
l22 95h422l-21 -95h-30q-65 0 -194 -161l-444 -550l-72 -320q-9 -42 -10 -71t24.5 -44.5t84.5 -15.5h69l-21 -95h-675z" />
    <glyph glyph-name="Thorn" unicode="&#xde;" horiz-adv-x="1229" 
d="M-63 0l21 95h37q84 0 120 38t53 116l186 880q10 45 8.5 74.5t-27.5 43t-86 13.5h-42l20 95h633l-19 -95h-34q-69 0 -112 -27t-53 -72l-8 -39h116q52 0 97.5 -3t93 -10t85.5 -18t75.5 -27.5t63.5 -38.5t48.5 -51t31 -65t11 -80.5t-10.5 -97.5q-73 -352 -612 -352h-152
l-32 -153q-7 -38 -9 -67t25.5 -46.5t90.5 -17.5h53l-21 -95h-651zM502 482h119q40 0 76 6.5t76.5 26t73 50.5t60 84.5t42.5 123.5q15 61 9.5 105.5t-20 74t-45 47t-65 24.5t-79.5 7h-129z" />
    <glyph glyph-name="germandbls" unicode="&#xdf;" horiz-adv-x="1220" 
d="M739 -20q-52 0 -88.5 15t-54 39.5t-24.5 49.5t-5 53q1 62 38 62q21 0 27.5 -13.5t4.5 -43.5q-4 -74 70 -74q58 0 98.5 79.5t73.5 231.5q16 61 13.5 114t-22 92t-73 60.5t-139.5 20.5l13 96q35 2 63.5 7.5t65 23.5t64 47.5t54 83t42.5 125.5q52 249 -141 249
q-53 0 -94.5 -17t-70 -44t-50.5 -70t-35.5 -87t-26.5 -103l-164 -789q-14 -43 -7 -68t49 -25h48l-21 -95h-509l21 95h40q61 0 86.5 33t40.5 99l136 649q10 47 18 80.5t22.5 79.5t30.5 79.5t40.5 73.5t53.5 68t69.5 56t88 45t109 27.5t132.5 10.5q96 0 169.5 -20t117.5 -55
t70.5 -83.5t28 -105t-9.5 -119.5q-12 -57 -43 -105.5t-67 -80t-80 -56t-77 -37t-62 -19.5q160 -5 233.5 -96.5t35.5 -268.5q-36 -168 -148.5 -269t-254.5 -101z" />
    <glyph glyph-name="agrave" unicode="&#xe0;" horiz-adv-x="1167" 
d="M681 1030l-438 318v4h337l177 -322h-76zM342 -25q-89 0 -153.5 38t-97 103t-41.5 153t15 188q24 112 74 198t104.5 133.5t118 77.5t109 39t82.5 9q61 0 136 -31t121 -98l23 98h260l-146 -670q-5 -24 -7 -37.5t-1.5 -30.5t7.5 -25t22 -14t39 -6h52l-23 -100h-362l12 107
q-46 -31 -74.5 -48.5t-74.5 -40t-94 -33t-101 -10.5zM450 103q52 0 122.5 38.5t122.5 110.5l101 441q-51 93 -168 93q-59 0 -108.5 -29.5t-85 -81t-60 -112.5t-40.5 -134q-34 -142 -5.5 -234t121.5 -92z" />
    <glyph glyph-name="aacute" unicode="&#xe1;" horiz-adv-x="1167" 
d="M681 1030h-76l177 322h337v-4zM342 -25q-89 0 -153.5 38t-97 103t-41.5 153t15 188q24 112 74 198t104.5 133.5t118 77.5t109 39t82.5 9q61 0 136 -31t121 -98l23 98h260l-146 -670q-5 -24 -7 -37.5t-1.5 -30.5t7.5 -25t22 -14t39 -6h52l-23 -100h-362l12 107
q-46 -31 -74.5 -48.5t-74.5 -40t-94 -33t-101 -10.5zM450 103q52 0 122.5 38.5t122.5 110.5l101 441q-51 93 -168 93q-59 0 -108.5 -29.5t-85 -81t-60 -112.5t-40.5 -134q-34 -142 -5.5 -234t121.5 -92z" />
    <glyph glyph-name="acircumflex" unicode="&#xe2;" horiz-adv-x="1167" 
d="M391 1030l284 322h209l147 -322h-65l-207 207l-297 -207h-71zM342 -25q-89 0 -153.5 38t-97 103t-41.5 153t15 188q24 112 74 198t104.5 133.5t118 77.5t109 39t82.5 9q61 0 136 -31t121 -98l23 98h260l-146 -670q-5 -24 -7 -37.5t-1.5 -30.5t7.5 -25t22 -14t39 -6h52
l-23 -100h-362l12 107q-46 -31 -74.5 -48.5t-74.5 -40t-94 -33t-101 -10.5zM450 103q52 0 122.5 38.5t122.5 110.5l101 441q-51 93 -168 93q-59 0 -108.5 -29.5t-85 -81t-60 -112.5t-40.5 -134q-34 -142 -5.5 -234t121.5 -92z" />
    <glyph glyph-name="atilde" unicode="&#xe3;" horiz-adv-x="1167" 
d="M465 1016l-63 23q25 128 85.5 197t152.5 69q17 0 33 -3t34.5 -10.5t27 -11.5t31 -16t26.5 -14q54 -36 101 -36q42 0 75.5 32t49.5 92l64 -24q-19 -119 -82.5 -202t-156.5 -83q-11 0 -21.5 1.5t-18.5 3t-18 5.5t-15.5 6.5t-16.5 8t-14.5 8t-15 9.5t-14.5 9q-74 43 -133 43
q-41 0 -71.5 -35t-39.5 -72zM342 -25q-89 0 -153.5 38t-97 103t-41.5 153t15 188q24 112 74 198t104.5 133.5t118 77.5t109 39t82.5 9q61 0 136 -31t121 -98l23 98h260l-146 -670q-5 -24 -7 -37.5t-1.5 -30.5t7.5 -25t22 -14t39 -6h52l-23 -100h-362l12 107
q-46 -31 -74.5 -48.5t-74.5 -40t-94 -33t-101 -10.5zM450 103q52 0 122.5 38.5t122.5 110.5l101 441q-51 93 -168 93q-59 0 -108.5 -29.5t-85 -81t-60 -112.5t-40.5 -134q-34 -142 -5.5 -234t121.5 -92z" />
    <glyph glyph-name="adieresis" unicode="&#xe4;" horiz-adv-x="1167" 
d="M476 1106q-50 0 -86.5 36.5t-36.5 86.5t36 86.5t87 36.5t87 -36t36 -87q0 -53 -36 -88t-87 -35zM880 1106q-50 0 -86.5 36t-36.5 87t36 87t87 36t87 -36.5t36 -86.5q0 -52 -36 -87.5t-87 -35.5zM342 -25q-89 0 -153.5 38t-97 103t-41.5 153t15 188q24 112 74 198
t104.5 133.5t118 77.5t109 39t82.5 9q61 0 136 -31t121 -98l23 98h260l-146 -670q-5 -24 -7 -37.5t-1.5 -30.5t7.5 -25t22 -14t39 -6h52l-23 -100h-362l12 107q-46 -31 -74.5 -48.5t-74.5 -40t-94 -33t-101 -10.5zM450 103q52 0 122.5 38.5t122.5 110.5l101 441
q-51 93 -168 93q-59 0 -108.5 -29.5t-85 -81t-60 -112.5t-40.5 -134q-34 -142 -5.5 -234t121.5 -92z" />
    <glyph glyph-name="aring" unicode="&#xe5;" horiz-adv-x="1167" 
d="M681 976q-79 0 -135.5 56t-56.5 136t56 135.5t136 55.5t136.5 -55.5t56.5 -135.5q0 -79 -56.5 -135.5t-136.5 -56.5zM681 1046q51 0 87 35.5t36 86.5q0 52 -36 87.5t-87 35.5t-86 -35.5t-35 -87.5q0 -51 35 -86.5t86 -35.5zM342 -25q-89 0 -153.5 38t-97 103t-41.5 153
t15 188q24 112 74 198t104.5 133.5t118 77.5t109 39t82.5 9q61 0 136 -31t121 -98l23 98h260l-146 -670q-5 -24 -7 -37.5t-1.5 -30.5t7.5 -25t22 -14t39 -6h52l-23 -100h-362l12 107q-46 -31 -74.5 -48.5t-74.5 -40t-94 -33t-101 -10.5zM450 103q52 0 122.5 38.5
t122.5 110.5l101 441q-51 93 -168 93q-59 0 -108.5 -29.5t-85 -81t-60 -112.5t-40.5 -134q-34 -142 -5.5 -234t121.5 -92z" />
    <glyph glyph-name="ae" unicode="&#xe6;" horiz-adv-x="1513" 
d="M1467 443h-583q-10 -47 -14.5 -89.5t-1 -95.5t20 -90.5t56.5 -63.5t100 -26q69 0 139 45.5t128 122.5l72 -69q-77 -98 -186.5 -153.5t-230.5 -55.5q-118 0 -205 55t-128 153q-149 -116 -236 -156t-192 -40q-54 0 -93 13.5t-58 36t-30 51t-9 59t6 60.5q10 48 38.5 88.5
t78 76t101 62.5t129.5 61l265 124q15 70 18 108t-9 61.5t-36.5 30t-71.5 6.5q-48 0 -84.5 -14t-59 -40.5t-34.5 -47.5t-24 -51q-32 -77 -116 -75q-52 0 -72.5 34.5t-9.5 83.5q22 84 142.5 145t321.5 61q202 0 270 -77q126 77 270 77q56 0 109 -16t103.5 -50.5t82 -89.5
t44 -133.5t-10.5 -181.5zM1135 816q-48 0 -89 -28.5t-69 -75t-45.5 -90t-28.5 -89.5l340 23q39 260 -108 260zM339 105q40 0 99 37t120 105l54 253l-213 -129q-106 -59 -129 -166q-9 -46 9 -73t60 -27z" />
    <glyph glyph-name="ccedilla" unicode="&#xe7;" horiz-adv-x="937" 
d="M637 914q43 0 85.5 -7.5t83 -25.5t69 -43.5t43 -64.5t7.5 -87q-8 -40 -37.5 -66.5t-74.5 -27.5q-25 0 -43 11t-27 25.5t-13.5 38t-5.5 38t-1 35.5q-3 17 -8 28.5t-15.5 24.5t-30.5 19.5t-49 6.5q-52 0 -97.5 -26t-76.5 -64.5t-56.5 -90t-39.5 -94.5t-24 -86
q-81 -375 151 -375q56 0 106 20.5t86 54t58.5 62.5t40.5 60l77 -63q-37 -55 -72 -94t-86 -77t-119 -58t-151 -20h-19l-15 -76q107 -1 174 -46t67 -124q0 -37 -17.5 -72t-53 -66t-99 -50t-147.5 -19q-108 0 -203 23l17 95q70 -12 151 -12q107 0 156.5 27t49.5 65q0 16 -11 28
t-34 18.5t-41.5 11t-51 6t-45 1.5h-39.5l38 205q-147 39 -214 164t-29 304q46 207 213 335t373 128z" />
    <glyph glyph-name="egrave" unicode="&#xe8;" horiz-adv-x="932" 
d="M574 1030l-438 318v4h337l177 -322h-76zM407 -32q-195 0 -294.5 140t-52.5 360q44 204 194.5 325t332.5 121q129 0 224.5 -70t95.5 -177q0 -271 -584 -281q-28 -163 10.5 -235.5t151.5 -72.5q69 0 140 46t129 122l72 -69q-77 -98 -187.5 -153.5t-231.5 -55.5zM338 477
q182 8 271.5 60t89.5 140q0 60 -31 99.5t-85 39.5q-89 0 -154.5 -97.5t-90.5 -241.5z" />
    <glyph glyph-name="eacute" unicode="&#xe9;" horiz-adv-x="932" 
d="M574 1030h-76l177 322h337v-4zM407 -32q-195 0 -294.5 140t-52.5 360q44 204 194.5 325t332.5 121q129 0 224.5 -70t95.5 -177q0 -271 -584 -281q-28 -163 10.5 -235.5t151.5 -72.5q69 0 140 46t129 122l72 -69q-77 -98 -187.5 -153.5t-231.5 -55.5zM338 477
q182 8 271.5 60t89.5 140q0 60 -31 99.5t-85 39.5q-89 0 -154.5 -97.5t-90.5 -241.5z" />
    <glyph glyph-name="ecircumflex" unicode="&#xea;" horiz-adv-x="932" 
d="M284 1030l284 322h209l147 -322h-65l-207 207l-297 -207h-71zM407 -32q-195 0 -294.5 140t-52.5 360q44 204 194.5 325t332.5 121q129 0 224.5 -70t95.5 -177q0 -271 -584 -281q-28 -163 10.5 -235.5t151.5 -72.5q69 0 140 46t129 122l72 -69q-77 -98 -187.5 -153.5
t-231.5 -55.5zM338 477q182 8 271.5 60t89.5 140q0 60 -31 99.5t-85 39.5q-89 0 -154.5 -97.5t-90.5 -241.5z" />
    <glyph glyph-name="edieresis" unicode="&#xeb;" horiz-adv-x="932" 
d="M369 1106q-50 0 -86.5 36.5t-36.5 86.5t36 86.5t87 36.5t87 -36t36 -87q0 -53 -36 -88t-87 -35zM773 1106q-50 0 -86.5 36t-36.5 87t36 87t87 36t87 -36.5t36 -86.5q0 -52 -36 -87.5t-87 -35.5zM407 -32q-195 0 -294.5 140t-52.5 360q44 204 194.5 325t332.5 121
q129 0 224.5 -70t95.5 -177q0 -271 -584 -281q-28 -163 10.5 -235.5t151.5 -72.5q69 0 140 46t129 122l72 -69q-77 -98 -187.5 -153.5t-231.5 -55.5zM338 477q182 8 271.5 60t89.5 140q0 60 -31 99.5t-85 39.5q-89 0 -154.5 -97.5t-90.5 -241.5z" />
    <glyph glyph-name="igrave" unicode="&#xec;" horiz-adv-x="606" 
d="M398 1030l-438 318v4h337l177 -322h-76zM80 0l141 646q17 66 3.5 89.5t-77.5 18.5l-60 -9l18 93l435 79l-163 -740q-10 -44 8 -63t67 -19h47l-21 -95h-398z" />
    <glyph glyph-name="iacute" unicode="&#xed;" horiz-adv-x="606" 
d="M398 1030h-76l177 322h337v-4zM80 0l141 646q17 66 3.5 89.5t-77.5 18.5l-60 -9l18 93l435 79l-163 -740q-10 -44 8 -63t67 -19h47l-21 -95h-398z" />
    <glyph glyph-name="icircumflex" unicode="&#xee;" horiz-adv-x="606" 
d="M108 1030l284 322h209l147 -322h-65l-207 207l-297 -207h-71zM80 0l141 646q17 66 3.5 89.5t-77.5 18.5l-60 -9l18 93l435 79l-163 -740q-10 -44 8 -63t67 -19h47l-21 -95h-398z" />
    <glyph glyph-name="idieresis" unicode="&#xef;" horiz-adv-x="606" 
d="M193 1106q-50 0 -86.5 36.5t-36.5 86.5t36 86.5t87 36.5t87 -36t36 -87q0 -53 -36 -88t-87 -35zM597 1106q-50 0 -86.5 36t-36.5 87t36 87t87 36t87 -36.5t36 -86.5q0 -52 -36 -87.5t-87 -35.5zM80 0l141 646q17 66 3.5 89.5t-77.5 18.5l-60 -9l18 93l435 79l-163 -740
q-10 -44 8 -63t67 -19h47l-21 -95h-398z" />
    <glyph glyph-name="eth" unicode="&#xf0;" horiz-adv-x="1012" 
d="M1092 1160l-158 -43q94 -212 16 -578q-26 -122 -74 -220t-104.5 -161.5t-124.5 -106t-132.5 -60.5t-129.5 -18q-80 0 -150 30.5t-121 91t-69 150.5t6 208q19 92 60.5 164.5t91 116.5t108.5 73.5t111 40.5t102 11q139 0 196 -96q36 192 18 301l-260 -71l-6 96l238 65
q-60 121 -237 118l-5 102q287 0 417 -173l201 55zM668 448q8 48 12 81.5t6 72.5t-4 65t-18 49t-35.5 34t-57.5 11q-103 0 -166.5 -102.5t-104.5 -294.5q-33 -133 -13.5 -213t106.5 -80q96 0 162.5 95.5t112.5 281.5z" />
    <glyph glyph-name="ntilde" unicode="&#xf1;" horiz-adv-x="1174" 
d="M453 1016l-63 23q25 128 85.5 197t152.5 69q17 0 33 -3t34.5 -10.5t27 -11.5t31 -16t26.5 -14q54 -36 101 -36q42 0 75.5 32t49.5 92l64 -24q-19 -119 -82.5 -202t-156.5 -83q-11 0 -21.5 1.5t-18.5 3t-18 5.5t-15.5 6.5t-16.5 8t-14.5 8t-15 9.5t-14.5 9q-74 43 -133 43
q-41 0 -71.5 -35t-39.5 -72zM75 0l138 632q5 25 7.5 38.5t1.5 30t-8.5 24t-23 11.5t-40.5 2l-56 -9l17 94l421 83l-44 -188q81 90 170.5 143t174.5 53q133 0 193.5 -86t25.5 -245l-83 -378q-12 -60 1.5 -85t64.5 -25h49l-21 -95h-395l129 602q21 74 5 121t-81 47
q-108 0 -266 -225l-119 -545h-261z" />
    <glyph glyph-name="ograve" unicode="&#xf2;" horiz-adv-x="1039" 
d="M617 1030l-438 318v4h337l177 -322h-76zM425 -32q-29 0 -60 4.5t-69.5 15t-72 29t-68 45.5t-57.5 64.5t-39.5 87.5t-15 112.5t16.5 140.5q20 95 65.5 173t102 128t125 83.5t133 48t127.5 14.5q58 0 115.5 -15.5t115.5 -51t94.5 -92.5t52.5 -140t-10 -194
q-26 -121 -89 -213t-143.5 -142t-162 -74t-161.5 -24zM431 67q102 0 175 111t111 287q79 351 -108 351q-57 0 -105 -33.5t-82 -91.5t-57.5 -123t-40.5 -141q-21 -102 -23 -182t30.5 -129t99.5 -49z" />
    <glyph glyph-name="oacute" unicode="&#xf3;" horiz-adv-x="1039" 
d="M617 1030h-76l177 322h337v-4zM425 -32q-29 0 -60 4.5t-69.5 15t-72 29t-68 45.5t-57.5 64.5t-39.5 87.5t-15 112.5t16.5 140.5q20 95 65.5 173t102 128t125 83.5t133 48t127.5 14.5q58 0 115.5 -15.5t115.5 -51t94.5 -92.5t52.5 -140t-10 -194q-26 -121 -89 -213
t-143.5 -142t-162 -74t-161.5 -24zM431 67q102 0 175 111t111 287q79 351 -108 351q-57 0 -105 -33.5t-82 -91.5t-57.5 -123t-40.5 -141q-21 -102 -23 -182t30.5 -129t99.5 -49z" />
    <glyph glyph-name="ocircumflex" unicode="&#xf4;" horiz-adv-x="1039" 
d="M327 1030l284 322h209l147 -322h-65l-207 207l-297 -207h-71zM425 -32q-29 0 -60 4.5t-69.5 15t-72 29t-68 45.5t-57.5 64.5t-39.5 87.5t-15 112.5t16.5 140.5q20 95 65.5 173t102 128t125 83.5t133 48t127.5 14.5q58 0 115.5 -15.5t115.5 -51t94.5 -92.5t52.5 -140
t-10 -194q-26 -121 -89 -213t-143.5 -142t-162 -74t-161.5 -24zM431 67q102 0 175 111t111 287q79 351 -108 351q-57 0 -105 -33.5t-82 -91.5t-57.5 -123t-40.5 -141q-21 -102 -23 -182t30.5 -129t99.5 -49z" />
    <glyph glyph-name="otilde" unicode="&#xf5;" horiz-adv-x="1039" 
d="M401 1016l-63 23q25 128 85.5 197t152.5 69q17 0 33 -3t34.5 -10.5t27 -11.5t31 -16t26.5 -14q54 -36 101 -36q42 0 75.5 32t49.5 92l64 -24q-19 -119 -82.5 -202t-156.5 -83q-11 0 -21.5 1.5t-18.5 3t-18 5.5t-15.5 6.5t-16.5 8t-14.5 8t-15 9.5t-14.5 9q-74 43 -133 43
q-41 0 -71.5 -35t-39.5 -72zM425 -32q-29 0 -60 4.5t-69.5 15t-72 29t-68 45.5t-57.5 64.5t-39.5 87.5t-15 112.5t16.5 140.5q20 95 65.5 173t102 128t125 83.5t133 48t127.5 14.5q58 0 115.5 -15.5t115.5 -51t94.5 -92.5t52.5 -140t-10 -194q-26 -121 -89 -213t-143.5 -142
t-162 -74t-161.5 -24zM431 67q102 0 175 111t111 287q79 351 -108 351q-57 0 -105 -33.5t-82 -91.5t-57.5 -123t-40.5 -141q-21 -102 -23 -182t30.5 -129t99.5 -49z" />
    <glyph glyph-name="odieresis" unicode="&#xf6;" horiz-adv-x="1039" 
d="M412 1106q-50 0 -86.5 36.5t-36.5 86.5t36 86.5t87 36.5t87 -36t36 -87q0 -53 -36 -88t-87 -35zM816 1106q-50 0 -86.5 36t-36.5 87t36 87t87 36t87 -36.5t36 -86.5q0 -52 -36 -87.5t-87 -35.5zM425 -32q-29 0 -60 4.5t-69.5 15t-72 29t-68 45.5t-57.5 64.5t-39.5 87.5
t-15 112.5t16.5 140.5q20 95 65.5 173t102 128t125 83.5t133 48t127.5 14.5q58 0 115.5 -15.5t115.5 -51t94.5 -92.5t52.5 -140t-10 -194q-26 -121 -89 -213t-143.5 -142t-162 -74t-161.5 -24zM431 67q102 0 175 111t111 287q79 351 -108 351q-57 0 -105 -33.5t-82 -91.5
t-57.5 -123t-40.5 -141q-21 -102 -23 -182t30.5 -129t99.5 -49z" />
    <glyph glyph-name="divide" unicode="&#xf7;" horiz-adv-x="1252" 
d="M674 981q-48 0 -81.5 33.5t-33.5 81.5q0 47 33.5 81t81.5 34q46 0 80.5 -34.5t34.5 -80.5q0 -48 -34 -81.5t-81 -33.5zM119 590v172h1110v-172h-1110zM674 141q-48 0 -81.5 33.5t-33.5 81.5q0 47 33.5 81t81.5 34q46 0 80.5 -34.5t34.5 -80.5q0 -48 -34 -81.5t-81 -33.5z
" />
    <glyph glyph-name="oslash" unicode="&#xf8;" horiz-adv-x="1039" 
d="M900 802q135 -137 81 -381q-26 -121 -89 -213t-143.5 -142t-162 -74t-161.5 -24q-111 0 -208 52l-80 -92l-71 62l75 86q-138 133 -81 391q20 95 65.5 173t102 128t125 83.5t133 48t127.5 14.5q115 0 211 -55l82 94l70 -63zM324 427q-20 -92 -23 -167l423 485
q-29 71 -115 71q-57 0 -105 -33.5t-82 -91.5t-57.5 -123t-40.5 -141zM431 67q102 0 175 111t111 287q20 92 23 155l-420 -482q30 -71 111 -71z" />
    <glyph glyph-name="ugrave" unicode="&#xf9;" horiz-adv-x="1176" 
d="M683 1030l-438 318v4h337l177 -322h-76zM342 -32q-135 0 -194 87t-24 245l82 377q12 61 -1.5 86t-64.5 25h-47l19 95h397l-131 -602q-10 -48 -11 -85t20.5 -60t66.5 -23q109 0 266 225l76 339q13 47 4.5 79t-47.5 32h-52l19 95h380l-147 -677q-5 -25 -7 -39t-1 -29.5
t8 -22.5t22.5 -11.5t40.5 -2.5l58 9l-20 -95l-413 -42l44 192q-79 -90 -168.5 -143.5t-174.5 -53.5z" />
    <glyph glyph-name="uacute" unicode="&#xfa;" horiz-adv-x="1176" 
d="M683 1030h-76l177 322h337v-4zM342 -32q-135 0 -194 87t-24 245l82 377q12 61 -1.5 86t-64.5 25h-47l19 95h397l-131 -602q-10 -48 -11 -85t20.5 -60t66.5 -23q109 0 266 225l76 339q13 47 4.5 79t-47.5 32h-52l19 95h380l-147 -677q-5 -25 -7 -39t-1 -29.5t8 -22.5
t22.5 -11.5t40.5 -2.5l58 9l-20 -95l-413 -42l44 192q-79 -90 -168.5 -143.5t-174.5 -53.5z" />
    <glyph glyph-name="ucircumflex" unicode="&#xfb;" horiz-adv-x="1176" 
d="M393 1030l284 322h209l147 -322h-65l-207 207l-297 -207h-71zM342 -32q-135 0 -194 87t-24 245l82 377q12 61 -1.5 86t-64.5 25h-47l19 95h397l-131 -602q-10 -48 -11 -85t20.5 -60t66.5 -23q109 0 266 225l76 339q13 47 4.5 79t-47.5 32h-52l19 95h380l-147 -677
q-5 -25 -7 -39t-1 -29.5t8 -22.5t22.5 -11.5t40.5 -2.5l58 9l-20 -95l-413 -42l44 192q-79 -90 -168.5 -143.5t-174.5 -53.5z" />
    <glyph glyph-name="udieresis" unicode="&#xfc;" horiz-adv-x="1176" 
d="M478 1106q-50 0 -86.5 36.5t-36.5 86.5t36 86.5t87 36.5t87 -36t36 -87q0 -53 -36 -88t-87 -35zM882 1106q-50 0 -86.5 36t-36.5 87t36 87t87 36t87 -36.5t36 -86.5q0 -52 -36 -87.5t-87 -35.5zM342 -32q-135 0 -194 87t-24 245l82 377q12 61 -1.5 86t-64.5 25h-47l19 95
h397l-131 -602q-10 -48 -11 -85t20.5 -60t66.5 -23q109 0 266 225l76 339q13 47 4.5 79t-47.5 32h-52l19 95h380l-147 -677q-5 -25 -7 -39t-1 -29.5t8 -22.5t22.5 -11.5t40.5 -2.5l58 9l-20 -95l-413 -42l44 192q-79 -90 -168.5 -143.5t-174.5 -53.5z" />
    <glyph glyph-name="yacute" unicode="&#xfd;" horiz-adv-x="955" 
d="M580 1030h-76l177 322h337v-4zM2 -525q-50 -1 -77 27.5t-27 75.5q0 30 10 52t31 35t39.5 19.5t47.5 13.5q83 19 150.5 62t130.5 133l68 101l-202 689q-16 55 -33.5 80t-50.5 25h-41l20 95h321l165 -628l236 387q22 38 33.5 61t17 44.5t-4.5 31t-34 9.5h-89l19 95h331
l-698 -1085q-112 -174 -187.5 -245.5t-175.5 -77.5z" />
    <glyph glyph-name="thorn" unicode="&#xfe;" horiz-adv-x="1154" 
d="M-213 -521l21 95h52q57 0 84.5 34.5t41.5 98.5l299 1408q17 56 1.5 82t-86.5 25l-43 -8l17 92l423 76l-132 -607q74 66 161 102.5t172 36.5q77 0 142.5 -34t108.5 -97.5t57.5 -154t-9.5 -202.5q-29 -136 -109.5 -242.5t-183 -161t-207.5 -54.5q-158 0 -264 135l-92 -419
q-8 -36 -9.5 -60.5t20.5 -37t74 -12.5h63l-21 -95h-581zM521 97q54 0 102.5 26.5t81.5 66t59.5 90.5t41.5 95t24 85q13 62 13.5 117.5t-12.5 103.5t-48.5 76.5t-89.5 28.5q-63 0 -131 -45t-119 -110l-95 -434q30 -51 78 -75.5t95 -24.5z" />
    <glyph glyph-name="ydieresis" unicode="&#xff;" horiz-adv-x="955" 
d="M375 1106q-50 0 -86.5 36.5t-36.5 86.5t36 86.5t87 36.5t87 -36t36 -87q0 -53 -36 -88t-87 -35zM779 1106q-50 0 -86.5 36t-36.5 87t36 87t87 36t87 -36.5t36 -86.5q0 -52 -36 -87.5t-87 -35.5zM2 -525q-50 -1 -77 27.5t-27 75.5q0 30 10 52t31 35t39.5 19.5t47.5 13.5
q83 19 150.5 62t130.5 133l68 101l-202 689q-16 55 -33.5 80t-50.5 25h-41l20 95h321l165 -628l236 387q22 38 33.5 61t17 44.5t-4.5 31t-34 9.5h-89l19 95h331l-698 -1085q-112 -174 -187.5 -245.5t-175.5 -77.5z" />
    <glyph glyph-name="dotlessi" unicode="&#x131;" horiz-adv-x="606" 
d="M80 0l141 646q17 66 3.5 89.5t-77.5 18.5l-60 -9l18 93l435 79l-163 -740q-10 -44 8 -63t67 -19h47l-21 -95h-398z" />
    <glyph glyph-name="Lslash" unicode="&#x141;" horiz-adv-x="1257" 
d="M1129 450l89 -1l-110 -449h-1152l21 95h58q72 0 109.5 34.5t56.5 119.5l31 144l-146 -106l31 153l149 108l126 578q10 44 9.5 73t-25.5 43.5t-83 14.5h-63l21 95h665l-21 -95h-52q-78 0 -117 -34t-57 -120l-69 -313l381 275l-29 -153l-386 -278l-84 -386q-11 -49 -13 -81
t24.5 -48t92.5 -16h147q243 0 355 236z" />
    <glyph glyph-name="lslash" unicode="&#x142;" horiz-adv-x="565" 
d="M464 741l-117 -536q-6 -25 -7.5 -42.5t1.5 -34t14.5 -25t32.5 -8.5h61l-22 -95h-383l113 520l-191 -138l28 137l193 140l101 462q17 59 4.5 86.5t-72.5 22.5l-56 -10l19 94l422 76l-111 -509l181 131l-26 -137z" />
    <glyph glyph-name="OE" unicode="&#x152;" horiz-adv-x="2077" 
d="M750 0q-143 0 -255 24.5t-198 76.5t-133 133.5t-60.5 196t19.5 264.5q36 172 114.5 297t195.5 201.5t261.5 114t327.5 42.5l1068 2l-54 -350l-91 -1l-5 139q-7 40 -18.5 63t-34.5 32.5t-41.5 11.5t-59.5 2h-9l-281 -7q-60 -25 -83 -136l-71 -348h187q55 0 98 23t54 74
l15 77h96l-95 -459h-95l18 93q3 16 4 29t-2.5 22.5t-7.5 16t-13.5 10.5t-16 6.5t-20.5 3.5t-22 1h-24h-198l-83 -402q-5 -26 -7.5 -38.5t-4 -32t1 -28.5t8.5 -21t18 -17t30 -9t43 -4h214q79 0 130.5 18.5t79 47.5t54.5 81l91 195l94 -1l-105 -444h-1134zM687 103h155
q49 0 74.5 42t41.5 117l179 864q15 70 7.5 100.5t-45.5 30.5h-128q-53 0 -110 -17.5t-122 -62t-121 -111t-105.5 -174t-77.5 -242.5q-26 -111 -23 -210.5t28.5 -174t88.5 -118.5t158 -44z" />
    <glyph glyph-name="oe" unicode="&#x153;" horiz-adv-x="1638" 
d="M1592 443h-584q-72 -365 162 -365q69 0 139 45.5t128 122.5l72 -69q-77 -98 -186.5 -153.5t-230.5 -55.5q-191 0 -292 134q-80 -68 -178.5 -101t-192.5 -33q-29 0 -60 4.5t-69.5 15t-72.5 29t-68 45.5t-57.5 64.5t-40.5 87.5t-16 112.5t15 140.5q20 95 64.5 173
t100.5 128t124 83.5t132.5 48t127.5 14.5q83 0 167.5 -33t140.5 -101q72 65 162 99.5t184 34.5q56 0 109.5 -16t103.5 -50.5t81.5 -89.5t44 -133.5t-9.5 -181.5zM435 67q102 0 174 111.5t108 286.5q72 351 -112 351q-56 0 -104 -33.5t-81.5 -91.5t-57 -123t-38.5 -140
q-73 -361 111 -361zM1260 816q-48 0 -89 -28.5t-69 -75t-45.5 -90t-28.5 -89.5l340 23q39 260 -108 260z" />
    <glyph glyph-name="Scaron" unicode="&#x160;" horiz-adv-x="1105" 
d="M677 1456l-149 322h67l207 -208l296 208h72l-286 -322h-207zM520 -27q-101 0 -191 51t-136 147l-60 -149h-101l101 465l97 -12q-6 -74 5.5 -140.5t41 -124.5t87 -92t137.5 -34q93 0 167.5 66.5t96.5 163.5q15 68 -22.5 122t-131.5 101q-57 30 -84.5 45t-72.5 41.5t-66 43
t-52 43t-44 47.5t-28.5 51.5t-18.5 60.5t-1.5 68t10.5 81q22 103 94 187t167.5 129t192.5 45q77 0 149.5 -40t113.5 -112l58 128h97l-86 -399l-92 12q6 152 -61.5 230t-163.5 78q-52 0 -96 -19t-73 -50t-47 -65t-26 -69q-4 -21 -4 -39t2 -33t12.5 -30.5t18.5 -26.5t29 -26.5
t35 -24.5t46 -26.5t51.5 -27.5t62.5 -31q3 -1 4 -2q43 -21 75.5 -40.5t67 -44.5t58.5 -51t44 -59.5t29.5 -70t9.5 -82.5t-11 -98q-26 -121 -108 -211.5t-182.5 -133t-200.5 -42.5z" />
    <glyph glyph-name="scaron" unicode="&#x161;" horiz-adv-x="966" 
d="M714 1030h-207l-149 322h67l206 -208l297 208h70zM792 838l61 76h71l-52 -266h-64q-24 88 -104.5 134.5t-185.5 46.5q-85 0 -143 -31t-62 -85q-2 -26 7.5 -45t26.5 -31t43.5 -21t55.5 -14.5t65 -11.5l9 -1.5t8 -1t9 -1.5q57 -10 95.5 -20t86.5 -31t76 -49t46.5 -74.5
t15.5 -107.5q-7 -154 -124.5 -245t-299.5 -91q-177 0 -272 78l-70 -78h-77l58 286h78q41 -93 128.5 -146.5t185.5 -53.5q82 0 136.5 36.5t59.5 102.5q2 30 -10 53t-27 36t-51.5 24.5t-57 16t-70.5 12.5q-7 1 -11 2q-55 10 -91 18.5t-81.5 28.5t-71 45.5t-43 69t-14.5 100.5
q5 147 118 231t286 84q156 0 256 -76z" />
    <glyph glyph-name="Wcircumflex" unicode="&#x174;" horiz-adv-x="1853" 
d="M1190 1678l-296 -208h-71l270 322h238l133 -322h-65zM1641 1352h413l-21 -95h-27q-57 0 -104.5 -61.5t-110.5 -194.5l-497 -1028h-139l-120 1008l-516 -1008h-143l-75 1130q-7 93 -24 123.5t-77 30.5h-35l21 95h570l-62 -95h-56q-3 0 -10.5 -7.5t-17.5 -23t-19 -35.5
t-14 -47.5t-2 -55.5l51 -721l499 989h137l120 -984l306 653q55 119 61 159q3 70 -73 73h-56z" />
    <glyph glyph-name="wcircumflex" unicode="&#x175;" horiz-adv-x="1469" 
d="M940 1237l-297 -207h-71l284 322h209l147 -322h-65zM1231 883h336l-533 -902h-151l-113 642l-369 -642h-123l-101 699q-11 68 -27 88t-54 20h-44l20 95h326l86 -589l348 595h147l114 -642l222 401q46 80 44 110t-62 30h-86z" />
    <glyph glyph-name="Ycircumflex" unicode="&#x176;" horiz-adv-x="1302" 
d="M549 1470l270 322h238l133 -322h-65l-209 208l-296 -208h-71zM219 0l21 95h63q79 0 113.5 37t52.5 116l63 281l-198 590q-26 77 -50.5 107.5t-71.5 30.5h-50l21 95h608l-21 -95h-53q-42 0 -63.5 -23.5t-20 -57t12.5 -70.5l155 -441l320 417q30 40 46.5 69.5t20 54.5
t-15 38t-59.5 13h-49l22 95h422l-21 -95h-30q-65 0 -194 -161l-444 -550l-72 -320q-9 -42 -10 -71t24.5 -44.5t84.5 -15.5h69l-21 -95h-675z" />
    <glyph glyph-name="ycircumflex" unicode="&#x177;" horiz-adv-x="955" 
d="M290 1030l284 322h209l147 -322h-65l-207 207l-297 -207h-71zM2 -525q-50 -1 -77 27.5t-27 75.5q0 30 10 52t31 35t39.5 19.5t47.5 13.5q83 19 150.5 62t130.5 133l68 101l-202 689q-16 55 -33.5 80t-50.5 25h-41l20 95h321l165 -628l236 387q22 38 33.5 61t17 44.5
t-4.5 31t-34 9.5h-89l19 95h331l-698 -1085q-112 -174 -187.5 -245.5t-175.5 -77.5z" />
    <glyph glyph-name="Ydieresis" unicode="&#x178;" horiz-adv-x="1302" 
d="M644 1483q-50 0 -86.5 36.5t-36.5 86.5t36 86.5t87 36.5t87 -36t36 -87q0 -53 -36 -88t-87 -35zM1048 1483q-50 0 -86.5 36t-36.5 87q0 52 36 87.5t87 35.5t87 -36.5t36 -86.5q0 -51 -36 -87t-87 -36zM219 0l21 95h63q79 0 113.5 37t52.5 116l63 281l-198 590
q-26 77 -50.5 107.5t-71.5 30.5h-50l21 95h608l-21 -95h-53q-42 0 -63.5 -23.5t-20 -57t12.5 -70.5l155 -441l320 417q30 40 46.5 69.5t20 54.5t-15 38t-59.5 13h-49l22 95h422l-21 -95h-30q-65 0 -194 -161l-444 -550l-72 -320q-9 -42 -10 -71t24.5 -44.5t84.5 -15.5h69
l-21 -95h-675z" />
    <glyph glyph-name="Zcaron" unicode="&#x17d;" horiz-adv-x="1301" 
d="M972 1456h-207l-149 322h67l207 -208l296 208h72zM1388 1356l-19 -90l-1041 -1163h414q42 0 67 2t63 11.5t67 28t64 54t68 86.5l59 129l94 -1l-115 -413h-1141l17 90l1032 1163h-331q-48 0 -79.5 -2t-74 -11t-73 -26t-62 -49t-54.5 -78l-38 -92l-94 1l103 360h1074z" />
    <glyph glyph-name="zcaron" unicode="&#x17e;" horiz-adv-x="975" 
d="M722 1030h-207l-149 322h67l206 -208l297 208h70zM129 611l82 272h768l-19 -96l-645 -692h254q40 0 76.5 24.5t82.5 93.5l46 84l91 -1l-89 -296h-806l17 89l646 699h-249q-33 0 -58 -21t-69 -90l-35 -68z" />
    <glyph glyph-name="florin" unicode="&#x192;" horiz-adv-x="1075" 
d="M1 -454q-72 0 -106 41t-24 98q5 26 30 47t61 20q28 0 50 -26t12 -71q-1 -10 -4 -19t-5 -14t-2.5 -9.5t2 -6t8 -2.5t17.5 -1q24 0 43.5 14t32.5 33.5t26 54.5t20 61.5t18.5 72t18.5 69.5q7 28 15 54t23.5 67t23.5 60.5t34.5 84t35.5 87.5l215 516h-159l42 103h58
q74 0 124.5 51t114.5 175q75 135 157 202t183 67q62 0 103 -36.5t30 -105.5q-5 -34 -30.5 -57.5t-62.5 -23.5q-40 0 -53.5 32.5t-8.5 66.5q1 10 7.5 22.5t12.5 21.5t9 17t-2 12.5t-20 4.5q-40 0 -81.5 -39.5t-62.5 -112.5q-8 -18 -17.5 -54t-20 -81t-16.5 -65
q-11 -49 -36 -108l186 11l-42 -103h-184l-209 -513q-106 -257 -173 -380.5t-129 -201.5q-36 -46 -108.5 -91t-156.5 -45z" />
    <glyph glyph-name="oslashacute" unicode="&#x1ff;" horiz-adv-x="1039" 
d="M718 1352h337v-4l-438 -318h-76zM976 890l-76 -88q135 -137 81 -381q-26 -121 -89 -213t-143.5 -142t-162 -74t-161.5 -24q-111 0 -208 52l-80 -92l-71 62l75 86q-138 133 -81 391q20 95 65.5 173t102 128t125 83.5t133 48t127.5 14.5q115 0 211 -55l82 94zM324 427
q-20 -92 -23 -167l423 485q-29 71 -115 71q-57 0 -105 -33.5t-82 -91.5t-57.5 -123t-40.5 -141zM717 465q20 92 23 155l-420 -482q30 -71 111 -71q102 0 175 111t111 287z" />
    <glyph glyph-name="uni0237" unicode="&#x237;" horiz-adv-x="584" 
d="M-184 -538q-110 0 -172.5 54.5t-47.5 150.5q6 35 37 57.5t71 23.5q38 0 61 -28t23 -76q3 -40 20.5 -61t58.5 -21q37 0 68 23.5t53.5 67t38.5 93t30 113.5l167 785q7 37 8 63t-21.5 38t-75.5 8l-57 -10l18 94l447 80l-204 -956q-28 -134 -67 -224t-100 -153.5
t-147.5 -92.5t-208.5 -29z" />
    <glyph glyph-name="circumflex" unicode="&#x2c6;" horiz-adv-x="699" 
d="M154 1030l284 322h209l147 -322h-65l-207 207l-297 -207h-71z" />
    <glyph glyph-name="caron" unicode="&#x2c7;" horiz-adv-x="701" 
d="M373 1030l-149 322h67l206 -208l297 208h70l-284 -322h-207z" />
    <glyph glyph-name="breve" unicode="&#x2d8;" horiz-adv-x="734" 
d="M524 984q-70 0 -128 29t-94 75.5t-57 99t-25 105.5h64q29 -85 94 -123.5t149 -38.5q50 0 90.5 13.5t63.5 30.5t42 43.5t25 40.5t13 34h61q-2 -55 -22 -108t-56 -99t-93 -74t-127 -28z" />
    <glyph glyph-name="dotaccent" unicode="&#x2d9;" horiz-adv-x="587" 
d="M525 1047q-50 0 -86.5 36.5t-36.5 86.5t36 86.5t87 36.5q52 0 88.5 -36.5t36.5 -86.5q0 -52 -37 -87.5t-88 -35.5z" />
    <glyph glyph-name="ring" unicode="&#x2da;" horiz-adv-x="549" 
d="M430 981q-81 0 -138.5 57.5t-57.5 139.5q0 81 57.5 137.5t138.5 56.5q82 0 139.5 -56.5t57.5 -137.5q0 -82 -57.5 -139.5t-139.5 -57.5zM430 1059q50 0 84.5 34.5t34.5 84.5q0 49 -35 83.5t-84 34.5t-83 -34.5t-34 -83.5q0 -50 34 -84.5t83 -34.5z" />
    <glyph glyph-name="ogonek" unicode="&#x2db;" horiz-adv-x="462" 
d="M77 -373q-110 0 -171.5 61.5t-61.5 146.5q0 57 24 99t66 86l31 -20q-30 -58 -30 -105q0 -81 61.5 -136.5t149.5 -55.5q60 0 128 33l22 -30q-116 -79 -219 -79z" />
    <glyph glyph-name="tilde" unicode="&#x2dc;" horiz-adv-x="796" 
d="M274 1016l-63 23q25 128 85.5 197t152.5 69q17 0 33 -3t34.5 -10.5t27 -11.5t31 -16t26.5 -14q54 -36 101 -36q42 0 75.5 32t49.5 92l64 -24q-19 -119 -82.5 -202t-156.5 -83q-11 0 -21.5 1.5t-18.5 3t-18 5.5t-15.5 6.5t-16.5 8t-14.5 8t-15 9.5t-14.5 9q-74 43 -133 43
q-41 0 -71.5 -35t-39.5 -72z" />
    <glyph glyph-name="hungarumlaut" unicode="&#x2dd;" horiz-adv-x="1006" 
d="M238 1030l177 322h338v-4l-439 -318h-76zM681 1030l177 322h338v-4l-439 -318h-76z" />
    <glyph glyph-name="gravecomb" unicode="&#x300;" 
d="M26 1030l-438 318v4h337l177 -322h-76z" />
    <glyph glyph-name="acutecomb" unicode="&#x301;" 
d="M-631 1030h-76l177 322h337v-4z" />
    <glyph glyph-name="uni0302" unicode="&#x302;" 
d="M-545 1030l284 322h209l147 -322h-65l-207 207l-297 -207h-71z" />
    <glyph glyph-name="tildecomb" unicode="&#x303;" 
d="M-522 1016l-63 23q25 128 85.5 197t152.5 69q17 0 33 -3t34.5 -10.5t27 -11.5t31 -16t26.5 -14q54 -36 101 -36q42 0 75.5 32t49.5 92l64 -24q-19 -119 -82.5 -202t-156.5 -83q-11 0 -21.5 1.5t-18.5 3t-18 5.5t-15.5 6.5t-16.5 8t-14.5 8t-15 9.5t-14.5 9
q-74 43 -133 43q-41 0 -71.5 -35t-39.5 -72z" />
    <glyph glyph-name="uni0304" unicode="&#x304;" 
d="M-650 1070l40 186h654l-40 -186h-654z" />
    <glyph glyph-name="uni0306" unicode="&#x306;" 
d="M-210 984q-70 0 -128 29t-94 75.5t-57 99t-25 105.5h64q29 -85 94 -123.5t149 -38.5q50 0 90.5 13.5t63.5 30.5t42 43.5t25 40.5t13 34h61q-2 -55 -22 -108t-56 -99t-93 -74t-127 -28z" />
    <glyph glyph-name="uni0307" unicode="&#x307;" 
d="M-62 1047q-50 0 -86.5 36.5t-36.5 86.5t36 86.5t87 36.5q52 0 88.5 -36.5t36.5 -86.5q0 -52 -37 -87.5t-88 -35.5z" />
    <glyph glyph-name="uni0308" unicode="&#x308;" 
d="M-453 1106q-50 0 -86.5 36.5t-36.5 86.5t36 86.5t87 36.5t87 -36t36 -87q0 -53 -36 -88t-87 -35zM-49 1106q-50 0 -86.5 36t-36.5 87t36 87t87 36t87 -36.5t36 -86.5q0 -52 -36 -87.5t-87 -35.5z" />
    <glyph glyph-name="uni030A" unicode="&#x30a;" 
d="M-118 976q-80 0 -136 56t-56 136t56 135.5t136 55.5t136.5 -55.5t56.5 -135.5q0 -79 -56.5 -135.5t-136.5 -56.5zM-118 1046q51 0 87 35.5t36 86.5q0 52 -36 87.5t-87 35.5t-86 -35.5t-35 -87.5q0 -51 35 -86.5t86 -35.5z" />
    <glyph glyph-name="uni030B" unicode="&#x30b;" 
d="M-768 1030l177 322h338v-4l-439 -318h-76zM-325 1030l177 322h338v-4l-439 -318h-76z" />
    <glyph glyph-name="uni030C" unicode="&#x30c;" 
d="M-328 1030l-149 322h67l206 -208l297 208h70l-284 -322h-207z" />
    <glyph glyph-name="uni0327" unicode="&#x327;" 
d="M-513 -485q-108 0 -203 23l17 95q70 -12 151 -12q107 0 156.5 27t49.5 65q0 16 -11 28t-34 18.5t-41.5 11t-51 6t-45 1.5h-39.5l47 254l107 -6l-27 -134q107 -1 174 -46t67 -124q0 -37 -17.5 -72t-53 -66t-99 -50t-147.5 -19z" />
    <glyph glyph-name="uni0328" unicode="&#x328;" 
d="M-384 -373q-110 0 -171.5 61.5t-61.5 146.5q0 57 24 99t66 86l31 -20q-30 -58 -30 -105q0 -81 61.5 -136.5t149.5 -55.5q60 0 128 33l22 -30q-116 -79 -219 -79z" />
    <glyph glyph-name="uni0337" unicode="&#x337;" 
d="M-597 375l28 137l681 493l-26 -137z" />
    <glyph glyph-name="uni0338" unicode="&#x338;" 
d="M-708 -65l-71 62l840 963l70 -63z" />
    <glyph glyph-name="uni0394" unicode="&#x394;" horiz-adv-x="873" 
d="M543 1448h214l-28 -1448h-776zM91 95h411l24 1052z" />
    <glyph glyph-name="uni03A9" unicode="&#x3a9;" horiz-adv-x="1289" 
d="M28 0l76 363h62l-17 -80q-13 -57 4 -88.5t81 -31.5h205l25 110q-52 26 -94 61.5t-78.5 87.5t-54.5 116.5t-22 149.5t19 185q54 250 217 403t397 153q96 0 173 -31.5t124.5 -87.5t76.5 -131.5t29.5 -163.5t-17.5 -185q-40 -193 -166.5 -343.5t-298.5 -211.5l-27 -112h193
q63 0 100 41t49 99l13 60h61l-78 -363h-465l72 353q104 62 178.5 206.5t110.5 311.5q101 479 -130 479q-126 0 -219.5 -139t-146.5 -383q-39 -175 -19 -312t102 -183l-67 -333h-468z" />
    <glyph glyph-name="Wgrave" unicode="&#x1e80;" horiz-adv-x="1853" 
d="M1158 1438h-76l-438 317v4h337zM1641 1352h413l-21 -95h-27q-57 0 -104.5 -61.5t-110.5 -194.5l-497 -1028h-139l-120 1008l-516 -1008h-143l-75 1130q-7 93 -24 123.5t-77 30.5h-35l21 95h570l-62 -95h-56q-3 0 -10.5 -7.5t-17.5 -23t-19 -35.5t-14 -47.5t-2 -55.5
l51 -721l499 989h137l120 -984l306 653q55 119 61 159q3 70 -73 73h-56z" />
    <glyph glyph-name="wgrave" unicode="&#x1e81;" horiz-adv-x="1469" 
d="M938 1030h-76l-438 318v4h337zM1231 883h336l-533 -902h-151l-113 642l-369 -642h-123l-101 699q-11 68 -27 88t-54 20h-44l20 95h326l86 -589l348 595h147l114 -642l222 401q46 80 44 110t-62 30h-86z" />
    <glyph glyph-name="Wacute" unicode="&#x1e82;" horiz-adv-x="1853" 
d="M1596 1755l-438 -317h-76l176 321h338v-4zM1641 1352h413l-21 -95h-27q-57 0 -104.5 -61.5t-110.5 -194.5l-497 -1028h-139l-120 1008l-516 -1008h-143l-75 1130q-7 93 -24 123.5t-77 30.5h-35l21 95h570l-62 -95h-56q-3 0 -10.5 -7.5t-17.5 -23t-19 -35.5t-14 -47.5
t-2 -55.5l51 -721l499 989h137l120 -984l306 653q55 119 61 159q3 70 -73 73h-56z" />
    <glyph glyph-name="wacute" unicode="&#x1e83;" horiz-adv-x="1469" 
d="M1300 1348l-438 -318h-76l177 322h337v-4zM1231 883h336l-533 -902h-151l-113 642l-369 -642h-123l-101 699q-11 68 -27 88t-54 20h-44l20 95h326l86 -589l348 595h147l114 -642l222 401q46 80 44 110t-62 30h-86z" />
    <glyph glyph-name="Wdieresis" unicode="&#x1e84;" horiz-adv-x="1853" 
d="M918 1483q-50 0 -86.5 36.5t-36.5 86.5t36 86.5t87 36.5t87 -36t36 -87q0 -53 -36 -88t-87 -35zM1322 1483q-50 0 -86.5 36t-36.5 87q0 52 36 87.5t87 35.5t87 -36.5t36 -86.5q0 -51 -36 -87t-87 -36zM1641 1352h413l-21 -95h-27q-57 0 -104.5 -61.5t-110.5 -194.5
l-497 -1028h-139l-120 1008l-516 -1008h-143l-75 1130q-7 93 -24 123.5t-77 30.5h-35l21 95h570l-62 -95h-56q-3 0 -10.5 -7.5t-17.5 -23t-19 -35.5t-14 -47.5t-2 -55.5l51 -721l499 989h137l120 -984l306 653q55 119 61 159q3 70 -73 73h-56z" />
    <glyph glyph-name="wdieresis" unicode="&#x1e85;" horiz-adv-x="1469" 
d="M657 1106q-50 0 -86.5 36.5t-36.5 86.5t36 86.5t87 36.5t87 -36t36 -87q0 -53 -36 -88t-87 -35zM1061 1106q-50 0 -86.5 36t-36.5 87t36 87t87 36t87 -36.5t36 -86.5q0 -52 -36 -87.5t-87 -35.5zM1231 883h336l-533 -902h-151l-113 642l-369 -642h-123l-101 699
q-11 68 -27 88t-54 20h-44l20 95h326l86 -589l348 595h147l114 -642l222 401q46 80 44 110t-62 30h-86z" />
    <glyph glyph-name="Ygrave" unicode="&#x1ef2;" horiz-adv-x="1302" 
d="M808 1438l-438 317v4h337l177 -321h-76zM219 0l21 95h63q79 0 113.5 37t52.5 116l63 281l-198 590q-26 77 -50.5 107.5t-71.5 30.5h-50l21 95h608l-21 -95h-53q-42 0 -63.5 -23.5t-20 -57t12.5 -70.5l155 -441l320 417q30 40 46.5 69.5t20 54.5t-15 38t-59.5 13h-49
l22 95h422l-21 -95h-30q-65 0 -194 -161l-444 -550l-72 -320q-9 -42 -10 -71t24.5 -44.5t84.5 -15.5h69l-21 -95h-675z" />
    <glyph glyph-name="ygrave" unicode="&#x1ef3;" horiz-adv-x="955" 
d="M580 1030l-438 318v4h337l177 -322h-76zM2 -525q-50 -1 -77 27.5t-27 75.5q0 30 10 52t31 35t39.5 19.5t47.5 13.5q83 19 150.5 62t130.5 133l68 101l-202 689q-16 55 -33.5 80t-50.5 25h-41l20 95h321l165 -628l236 387q22 38 33.5 61t17 44.5t-4.5 31t-34 9.5h-89
l19 95h331l-698 -1085q-112 -174 -187.5 -245.5t-175.5 -77.5z" />
    <glyph glyph-name="endash" unicode="&#x2013;" horiz-adv-x="1303" 
d="M104 331l32 152h1048l-32 -152h-1048z" />
    <glyph glyph-name="emdash" unicode="&#x2014;" horiz-adv-x="2303" 
d="M104 331l32 152h2048l-32 -152h-2048z" />
    <glyph glyph-name="quoteleft" unicode="&#x2018;" horiz-adv-x="575" 
d="M364 724q-96 0 -137 78.5t-13 205.5q15 73 50 134t79 102.5t98 71t105 45t102 19.5l-8 -102q-81 -10 -147.5 -50.5t-101.5 -88t-45 -93.5q-3 -13 4 -18.5t20 -3.5q14 0 37 5.5t34 5.5q53 0 89 -47.5t20 -123.5q-11 -54 -60.5 -97t-125.5 -43z" />
    <glyph glyph-name="quoteright" unicode="&#x2019;" horiz-adv-x="576" 
d="M185 724l10 102q118 15 197 86t95 146q3 14 -3.5 19t-20.5 3q-13 0 -36.5 -5.5t-35.5 -5.5q-53 0 -88.5 47.5t-19.5 124.5q13 54 61.5 96.5t124.5 42.5q96 0 136.5 -78t14.5 -206q-16 -73 -51 -134t-79.5 -102.5t-98 -71t-105 -45t-101.5 -19.5z" />
    <glyph glyph-name="quotesinglbase" unicode="&#x201a;" horiz-adv-x="577" 
d="M-48 -381l9 102q119 15 198.5 86t95.5 146q3 13 -4 18.5t-21 4.5t-39 -6.5t-32 -5.5q-52 0 -88 48t-21 124q12 55 61.5 97.5t125.5 42.5q96 0 136.5 -78.5t12.5 -206.5q-19 -90 -66.5 -161.5t-110.5 -114.5t-127.5 -66.5t-129.5 -29.5z" />
    <glyph glyph-name="quotedblleft" unicode="&#x201c;" horiz-adv-x="1065" 
d="M360 724q-95 0 -134.5 78t-11.5 206q15 73 49.5 134t78.5 102.5t96.5 71t103 45t100.5 19.5l-10 -102q-116 -15 -194 -86t-94 -146q-3 -13 4 -18.5t20 -3.5q13 0 35.5 5.5t34.5 5.5q51 0 86.5 -47.5t19.5 -123.5q-11 -55 -59.5 -97.5t-124.5 -42.5zM856 724
q-94 0 -134 78.5t-12 205.5q19 90 66.5 162t109.5 114.5t125.5 66t125.5 29.5l-8 -102q-61 -8 -114 -33t-88 -59t-57.5 -70t-29.5 -70q-3 -13 4 -18.5t20 -3.5q14 0 36 5.5t34 5.5q51 0 87 -47.5t20 -123.5q-11 -54 -60.5 -97t-124.5 -43z" />
    <glyph glyph-name="quotedblright" unicode="&#x201d;" horiz-adv-x="1066" 
d="M186 724l10 102q79 10 143.5 50.5t98.5 88t44 93.5q3 14 -3 19t-20 3q-13 0 -36 -5.5t-35 -5.5q-51 0 -86 47.5t-19 124.5q13 55 60.5 97t122.5 42q95 0 134.5 -78t13.5 -206q-20 -90 -67.5 -162t-109.5 -114.5t-125.5 -66t-125.5 -29.5zM682 724l10 102q116 15 194 86
t93 146q3 14 -3.5 19t-20.5 3q-13 0 -35.5 -5.5t-34.5 -5.5q-51 0 -87 47.5t-20 124.5q13 54 61.5 96.5t123.5 42.5q94 0 134 -78.5t14 -205.5q-16 -73 -51 -134t-79 -102.5t-96.5 -71t-103 -45t-99.5 -19.5z" />
    <glyph glyph-name="quotedblbase" unicode="&#x201e;" horiz-adv-x="1083" 
d="M-48 -381l9 102q119 15 198.5 86t95.5 146q3 13 -4 18.5t-21 4.5t-39 -6.5t-32 -5.5q-52 0 -88 48t-21 124q12 55 61.5 97.5t125.5 42.5q96 0 136.5 -78.5t12.5 -206.5q-19 -90 -66.5 -161.5t-110.5 -114.5t-127.5 -66.5t-129.5 -29.5zM459 -381l8 102q120 15 199 86.5
t95 145.5q3 13 -4 18.5t-20 4.5q-14 -1 -39 -6.5t-32 -5.5q-53 0 -89 48t-20 124q11 54 61 97t126 43q96 0 136.5 -78.5t12.5 -206.5q-19 -90 -66.5 -161.5t-110.5 -114.5t-127.5 -66.5t-129.5 -29.5z" />
    <glyph glyph-name="dagger" unicode="&#x2020;" horiz-adv-x="964" 
d="M254 -396l34 163q35 163 79.5 471t44.5 310q30 157 92 224q-23 -6 -82 -28.5t-113.5 -38t-93.5 -15.5q-11 0 -24.5 3t-32.5 12t-30 25.5t-18 43.5t3 66q21 108 134 108q52 0 143.5 -35.5t131.5 -35.5q-1 15 -7.5 61.5t-10 81t-2 86.5t11.5 98q27 138 151 138q53 0 87 -44
t16 -129q-22 -104 -148 -312q30 11 79 30t77 29.5t65.5 19t70.5 8.5q65 0 89 -44.5t11 -105.5q-9 -44 -44 -75t-94 -31q-52 0 -145 33t-118 33q20 -78 -21 -254q-4 -16 -83 -284t-123 -476l-29 -136h-101z" />
    <glyph glyph-name="daggerdbl" unicode="&#x2021;" horiz-adv-x="1029" 
d="M937 944q71 0 97 -45.5t11 -104.5q-11 -47 -45.5 -76.5t-92.5 -29.5q-52 0 -145 33t-118 33q21 -79 -22 -254q-35 -146 -72 -341q-31 -160 -83 -224q2 1 72 28.5t120 41.5t88 14q67 0 90.5 -46.5t9.5 -105.5q-11 -45 -45.5 -74.5t-95.5 -29.5q-55 0 -147.5 38t-117.5 45
l-5 -18q0 -2 7 -60.5t9.5 -93.5t1.5 -90t-10 -93q-17 -69 -59 -97.5t-85 -28.5q-25 0 -46.5 8t-40.5 29t-23.5 56.5t5.5 90.5q4 18 10.5 39t12.5 38t17.5 41t17.5 37t20 38.5t18.5 33.5t20 34t16.5 29q-26 -6 -130.5 -43t-150.5 -37q-59 0 -87 44.5t-13 109.5
q24 106 142 105q53 -1 141.5 -31t121.5 -30q-15 107 20 248q43 176 72 343q18 122 86 222q-20 -6 -81.5 -29t-111 -37t-83.5 -14q-54 0 -90 37.5t-19 112.5q25 108 131 108q58 0 155 -40.5t125 -47.5q-1 7 -6.5 46t-7.5 58t-5.5 57.5t-3 65t3 59.5t9.5 60q9 38 25.5 65.5
t31.5 40.5t34 20.5t27.5 8.5t17.5 1q73 0 105 -46t14 -127q-20 -85 -138 -305q31 10 78 27.5t73.5 27t60.5 17.5t62 8z" />
    <glyph glyph-name="bullet" unicode="&#x2022;" horiz-adv-x="789" 
d="M444 400q-113 0 -193.5 80.5t-80.5 193.5q0 114 80.5 192.5t193.5 78.5q111 0 191 -78.5t80 -192.5q0 -113 -79.5 -193.5t-191.5 -80.5z" />
    <glyph glyph-name="twodotenleader" unicode="&#x2025;" horiz-adv-x="1248" 
d="M232 -36q-66 0 -113 47t-47 113q0 65 47 111.5t113 46.5q64 0 110.5 -46.5t46.5 -111.5q0 -66 -46 -113t-111 -47zM879 -36q-66 0 -112.5 47t-46.5 113q0 65 46.5 111.5t112.5 46.5q65 0 112 -46.5t47 -111.5q0 -66 -47 -113t-112 -47z" />
    <glyph glyph-name="ellipsis" unicode="&#x2026;" horiz-adv-x="1898" 
d="M232 -36q-66 0 -113 47t-47 113q0 65 47 111.5t113 46.5q64 0 110.5 -46.5t46.5 -111.5q0 -66 -46 -113t-111 -47zM879 -36q-66 0 -112.5 47t-46.5 113q0 65 46.5 111.5t112.5 46.5q65 0 112 -46.5t47 -111.5q0 -66 -47 -113t-112 -47zM1529 -36q-66 0 -113 47t-47 113
q0 65 47 111.5t113 46.5q65 0 111.5 -46.5t46.5 -111.5q0 -66 -46.5 -113t-111.5 -47z" />
    <glyph glyph-name="perthousand" unicode="&#x2030;" horiz-adv-x="2495" 
d="M436 669q-74 0 -126.5 26.5t-78.5 66.5t-37.5 92t-10 97.5t10.5 89.5q35 159 133 248.5t241 89.5q69 0 120 -20t77.5 -54.5t42 -74t17 -85t-1 -80t-9.5 -66.5q-13 -57 -40.5 -111t-72 -105t-113.5 -82.5t-152 -31.5zM387 0l979 1352h127l-983 -1352h-123zM437 733
q110 0 172 283q17 79 23.5 134.5t5 87t-12 49.5t-22.5 23t-32 5q-60 0 -101 -73.5t-76 -237.5q-13 -63 -18.5 -103.5t-5 -83t17 -63.5t49.5 -21zM1280 -27q-74 0 -127 26.5t-79 66.5t-37.5 92t-9.5 97.5t11 89.5q34 158 132 247.5t241 89.5q60 0 106 -15.5t73.5 -40.5
t45.5 -59.5t24.5 -69t7 -72.5t-3 -66.5t-9.5 -55.5q-12 -56 -39 -110.5t-71 -105.5t-113 -82.5t-152 -31.5zM2023 -27q-62 0 -109.5 18t-75 49.5t-44 69t-21 81t-2.5 81t10 73.5q34 158 132 247.5t241 89.5q60 0 106 -15.5t73.5 -40.5t45.5 -59.5t24.5 -68.5t7 -72.5
t-2.5 -67t-9 -55.5q-12 -57 -39.5 -111t-71.5 -105t-113 -82.5t-152 -31.5zM1280 36q109 0 173 283q17 79 23.5 135t4.5 87.5t-12 49.5t-22.5 23t-32.5 5q-60 0 -100.5 -73.5t-76.5 -237.5q-9 -42 -14 -70.5t-9 -62.5t-2 -56.5t8.5 -43t21.5 -30t38 -9.5zM2023 36
q111 0 173 283q17 79 23.5 135t5 87.5t-12 49.5t-23 23t-32.5 5q-60 0 -100.5 -73.5t-75.5 -237.5q-9 -41 -14.5 -70t-9.5 -63t-2 -56.5t8.5 -43t21.5 -30t38 -9.5z" />
    <glyph glyph-name="guilsinglleft" unicode="&#x2039;" horiz-adv-x="539" 
d="M283 0l-278 440l461 441h103l-327 -441l137 -440h-96z" />
    <glyph glyph-name="guilsinglright" unicode="&#x203a;" horiz-adv-x="539" 
d="M-28 0l324 440l-134 441h95l276 -441l-462 -440h-99z" />
    <glyph glyph-name="Euro" unicode="&#x20ac;" horiz-adv-x="1176" 
d="M553 -27q-97 0 -170.5 46t-114.5 124.5t-57 178.5t-6 212l-103 -12l34 95l82 12q3 25 11 64q2 17 13 52l-96 -11l35 95l89 11q86 240 234.5 387.5t337.5 147.5q175 0 246 -152l33 115h93l-79 -393l-90 11q2 159 -34 241t-133 82q-64 0 -120 -38t-98.5 -105.5t-74.5 -146
t-56 -172.5l411 12l-35 -95l-398 -12q-2 -9 -6.5 -29.5t-7.5 -35.5q-8 -28 -12 -51l381 11l-35 -95l-366 -11q-21 -134 -22.5 -231t38 -152t122.5 -55q70 0 142.5 56.5t124.5 135t82 161.5l77 -37q-155 -416 -472 -416z" />
    <glyph glyph-name="uni2113" unicode="&#x2113;" horiz-adv-x="838" 
d="M374 -24q-82 0 -132.5 44.5t-61.5 116t5 161.5l15 69q-13 -15 -63 -59.5t-62 -56.5l-34 83q12 11 52.5 45.5t76.5 66.5t54 51l98 460q20 94 56.5 180t87.5 156.5t119.5 112.5t145.5 42q189 0 137 -239q-25 -116 -90 -243.5t-152 -236.5q-65 -81 -121 -133l-68 -317
q-19 -97 -13 -135t36 -38q70 0 141 210l73 -43q-55 -158 -126.5 -227.5t-173.5 -69.5zM537 765q43 45 87 116q135 185 173 363q14 54 7 85.5t-41 31.5q-48 0 -90.5 -78t-72.5 -221z" />
    <glyph glyph-name="trademark" unicode="&#x2122;" horiz-adv-x="2230" 
d="M259 1352h772l3 -227h-58l-6 44q-18 78 -48 99.5t-86 21.5h-104v-604q0 -22 1.5 -33.5t9 -26t25.5 -21t48 -6.5h35v-56h-412v56h35q29 0 47 6.5t25.5 20.5t9.5 26.5t2 33.5v604h-107q-25 0 -41 -3t-37.5 -14t-35.5 -38t-20 -70l-3 -40h-58zM2160 599h38v-56h-412v56h34
q50 0 66 19.5t16 67.5v511h-13l-290 -654h-46l-293 654h-9v-473q0 -125 81 -125h32v-56h-280v56h29q27 0 44 12t23.5 35t7.5 37t1 36v7v480q0 23 -1.5 35.5t-8.5 26.5t-23.5 20.5t-43.5 6.5h-28v57h289l261 -582l264 582h298v-57h-36q-29 0 -47 -6.5t-25.5 -20.5t-9.5 -26.5
t-2 -34.5v-521q0 -21 2 -33t9.5 -26.5t25.5 -21t47 -6.5z" />
    <glyph glyph-name="uni2126" unicode="&#x2126;" horiz-adv-x="1450" 
d="M48 0l77 363h68l-17 -80q-13 -57 7 -88.5t91 -31.5h227l27 110q-59 26 -107 61.5t-89.5 87.5t-63 116.5t-27 149.5t18.5 185q51 250 228.5 403t438.5 153q89 0 164 -22t128 -62t91.5 -95.5t55.5 -122t20 -142t-16 -155.5q-40 -193 -177.5 -343.5t-327.5 -211.5l-27 -112
h215q69 0 109 41t53 99l12 60h68l-78 -363h-516l71 353q114 62 194.5 207.5t114.5 310.5q101 479 -156 479q-139 0 -240 -139t-153 -383q-40 -176 -14 -312.5t118 -182.5l-68 -333h-520z" />
    <glyph glyph-name="partialdiff" unicode="&#x2202;" horiz-adv-x="1014" 
d="M288 -22q-146 0 -203 107.5t-17 300.5q23 105 75.5 205.5t125 179.5t166.5 127t191 48q53 0 91.5 -19t57.5 -50t27.5 -62.5t8.5 -64.5l7 24q24 68 51 194q13 62 14 123.5t-11.5 116.5t-48 89t-89.5 34q-134 0 -271 -151l-29 63q180 240 396 240q81 0 131 -37.5
t66.5 -107.5t12 -157t-28.5 -199q-22 -103 -85 -262t-126 -277q-109 -179 -196 -281.5t-160 -143t-156 -40.5zM387 81q48 0 103.5 52t108 139t99 187.5t85.5 209.5q3 27 4 45.5t-2.5 46.5t-13.5 45.5t-32 30.5t-55 13q-74 0 -154.5 -81.5t-143.5 -212.5t-94 -276
q-21 -99 6.5 -149t88.5 -50z" />
    <glyph glyph-name="uni2206" unicode="&#x2206;" horiz-adv-x="1002" 
d="M835 1448l3 -1448h-863l621 1448h239zM126 95h456l4 1054z" />
    <glyph glyph-name="product" unicode="&#x220f;" horiz-adv-x="1317" 
d="M-21 -261l14 68h38q36 0 62.5 48.5t38.5 113.5l268 1253q15 58 11 98.5t-39 40.5h-55l15 68h1073l-15 -68h-42q-69 0 -103 -162l-267 -1254q-15 -56 -10.5 -97t39.5 -41h48l-14 -68h-467l13 68h37q38 0 64 48t39 114l291 1363h-341l-296 -1387q-14 -55 -10.5 -96.5
t37.5 -41.5h47l-13 -68h-463z" />
    <glyph glyph-name="summation" unicode="&#x2211;" horiz-adv-x="968" 
d="M304 1429h716l-51 -338l-65 -1l13 130q1 26 2.5 45t-4 31t-9.5 19t-14 10.5t-18 4.5t-21 1h-343l119 -661l-491 -732h438q86 0 122 110l35 112l70 -7l-113 -415h-753l15 83l478 714l-142 811z" />
    <glyph glyph-name="minus" unicode="&#x2212;" horiz-adv-x="1508" 
d="M249 590v172h1110v-172h-1110z" />
    <glyph glyph-name="radical" unicode="&#x221a;" horiz-adv-x="705" 
d="M205 -19l-26 660l-75 -51l-34 61l215 141l13 -630l429 1334h71l-482 -1515h-111z" />
    <glyph glyph-name="infinity" unicode="&#x221e;" horiz-adv-x="1288" 
d="M928 830q106 0 175 -71t69 -183q0 -110 -68 -184t-171 -74q-85 0 -141 38t-105 120q-50 -74 -114 -117t-157 -43q-106 0 -175.5 71.5t-69.5 181.5q0 111 68.5 184.5t175.5 73.5q149 0 242 -160q101 163 271 163zM931 401q74 0 117 51t43 124q0 76 -39 123t-114 47
q-17 0 -33 -3.5t-28.5 -7.5t-26 -15t-22 -16.5t-20.5 -22t-17.5 -23t-17 -27t-14 -25.5t-14.5 -28.5t-14 -26.5q73 -150 200 -150zM412 398q36 0 67.5 17t54.5 45.5t40.5 58.5t33.5 62q2 5 3.5 8.5t3.5 6.5q-79 147 -197 147q-71 0 -118.5 -46t-47.5 -127q0 -77 42 -124.5
t118 -47.5z" />
    <glyph glyph-name="integral" unicode="&#x222b;" horiz-adv-x="625" 
d="M32 -425q-64 0 -89.5 46t-12.5 96q6 23 23 41t40 18q26 0 41.5 -20t15.5 -37q15 -17 41 -11q45 20 59 84q7 30 8.5 76t2 122t3.5 137q12 192 63 449q60 266 99 400q82 304 140 409q78 140 184 140q58 0 83 -38.5t16 -96.5q-9 -57 -61 -57q-21 -1 -34.5 13t-16.5 39
q-28 18 -56 8q-40 -17 -53 -102q-7 -31 -10.5 -73.5t-7 -108t-6.5 -103.5q-10 -230 -58 -472q-46 -235 -120 -474q-77 -268 -149 -393q-27 -47 -60.5 -69.5t-84.5 -22.5z" />
    <glyph glyph-name="approxequal" unicode="&#x2248;" horiz-adv-x="1283" 
d="M257 581l-114 128q68 92 141.5 141t180.5 49q122 0 239 -64q121 -67 199 -67q55 0 99 36.5t86 98.5l113 -128q-60 -87 -130 -133t-163 -46q-114 0 -232 65q-111 66 -205 66q-65 0 -115 -39.5t-99 -106.5zM257 314l-114 129q68 92 141.5 141t180.5 49q124 0 239 -65
q121 -67 199 -67q55 0 99 37t86 100l113 -130q-61 -86 -130.5 -132.5t-162.5 -46.5q-115 0 -232 67q-117 66 -205 66q-66 0 -115.5 -40t-98.5 -108z" />
    <glyph glyph-name="notequal" unicode="&#x2260;" horiz-adv-x="1360" 
d="M1285 828h-351l-157 -304h508v-171h-596l-199 -386h-233l199 386h-281v171h369l157 304h-526v171h614l184 356h232l-183 -356h263v-171z" />
    <glyph glyph-name="lessequal" unicode="&#x2264;" horiz-adv-x="1356" 
d="M1196 1237v-186l-803 -264l803 -264v-185l-1049 366v167zM156 0v171h1040v-171h-1040z" />
    <glyph glyph-name="greaterequal" unicode="&#x2265;" horiz-adv-x="1385" 
d="M203 1237l1049 -366v-167l-1049 -366v185l803 264l-803 264v186zM203 0v171h1040v-171h-1040z" />
    <glyph glyph-name="uni0308.case" 
d="M-373 1483q-50 0 -86.5 36.5t-36.5 86.5t36 86.5t87 36.5t87 -36t36 -87q0 -53 -36 -88t-87 -35zM31 1483q-50 0 -86.5 36t-36.5 87q0 52 36 87.5t87 35.5t87 -36.5t36 -86.5q0 -51 -36 -87t-87 -36z" />
    <glyph glyph-name="gravecomb.case" 
d="M112 1438l-438 317v4h337l177 -321h-76z" />
    <glyph glyph-name="acutecomb.case" 
d="M-238 1438l176 321h338v-4l-438 -317h-76z" />
    <glyph glyph-name="uni0302.case" 
d="M-457 1470l270 322h238l133 -322h-65l-209 208l-296 -208h-71z" />
    <glyph glyph-name="uni030C.case" 
d="M-238 1456l-149 322h67l207 -208l296 208h72l-286 -322h-207z" />
    <glyph glyph-name="uni030A.case" 
d="M-18 1436q-80 0 -136 56t-56 136q0 79 56 135t136 56t136 -56t56 -135q0 -80 -56 -136t-136 -56zM-18 1506q51 0 86.5 35.5t35.5 86.5t-35.5 87t-86.5 36t-86 -36t-35 -87t35 -86.5t86 -35.5z" />
    <glyph glyph-name="tildecomb.case" 
d="M-434 1428l-62 23q23 127 84.5 196.5t153.5 69.5q13 0 27.5 -2.5t24 -5t25 -9.5t21.5 -10t23 -12.5t21 -11.5q57 -40 110 -40q42 0 75 32t51 92l63 -24q-18 -119 -82.5 -202t-157.5 -83q-17 0 -32.5 2.5t-33 10.5t-25 11.5t-29.5 16.5t-25 15q-62 38 -123 38
q-40 0 -69 -34.5t-40 -72.5z" />
    <glyph glyph-name="uni0335.case" 
d="M-819 633l21 103h737l-22 -103h-736z" />
    <glyph glyph-name="uni0337.case" 
d="M-759 293l31 153l864 625l-29 -153z" />
    <glyph glyph-name="uni0338.case" 
d="M-940 -14l-75 62l1178 1338l69 -64z" />
    </font>
</defs>
</svg>
