<?xml version="1.0" standalone="no"?>
<!DOCTYPE svg PUBLIC "-//W3C//DTD SVG 1.1//EN" "http://www.w3.org/Graphics/SVG/1.1/DTD/svg11.dtd" >
<svg xmlns="http://www.w3.org/2000/svg" xmlns:xlink="http://www.w3.org/1999/xlink" version="1.1">
<metadata>
Created by FontForge 20170731 at Wed Dec 13 18:56:51 2017
 By ,,,
Copyright (c)2017 HK CartaTM by Alfredo Marco Pradil
</metadata>
<defs>
<font id="HKCarta-ExtraLight" horiz-adv-x="0" >
  <font-face 
    font-family="HK Carta ExtraLight"
    font-weight="200"
    font-stretch="normal"
    units-per-em="2048"
    panose-1="0 0 3 0 0 0 0 0 0 0"
    ascent="1393"
    descent="-655"
    x-height="842"
    cap-height="1353"
    bbox="-1202 -532 2238 1809"
    underline-thickness="50"
    underline-position="-200"
    unicode-range="U+0020-FB02"
  />
<missing-glyph horiz-adv-x="1024" 
d="M129 0v1352h764v-1352h-764zM181 52h660v1248h-660v-1248z" />
    <glyph glyph-name="fi" unicode="fi" horiz-adv-x="1138" 
d="M1012 60h88v-60h-1048v60h143q44 0 62 21t18 62v639h-223v60h223v204q0 159 92 245.5t245 86.5q137 0 221 -56.5t99 -167.5q2 -27 -13.5 -45t-39.5 -20q-9 0 -16.5 1.5t-13 6t-9 7t-7.5 11t-5 12t-4.5 15t-4.5 14.5q-16 77 -68 119t-138 42q-221 0 -221 -257v-218h548
v-699q0 -83 72 -83zM745 60q41 0 59 20t18 63v639h-430v-639q0 -41 17.5 -62t62.5 -21h273z" />
    <glyph glyph-name="fl" unicode="fl" horiz-adv-x="1117" 
d="M52 0v60h143q44 0 62 21t18 62v639h-223v60h223v204q-1 159 91 245.5t246 86.5q133 0 208 -67l116 82v-1250q0 -83 72 -83h88v-60h-1044zM472 60h269q42 0 59.5 19.5t17.5 63.5v917q0 126 -48 191.5t-158 65.5q-112 0 -166.5 -67t-53.5 -190v-218h292v-60h-292v-639
q0 -41 17.5 -62t62.5 -21z" />
    <glyph glyph-name="f_f" unicode="ff" horiz-adv-x="1277" 
d="M1433 1154q2 -27 -13 -45t-39 -20q-22 -1 -38.5 15t-20.5 44q-15 80 -63 124.5t-127 44.5q-98 0 -148.5 -67.5t-50.5 -189.5v-218h292v-60h-292v-639q0 -41 17.5 -62t62.5 -21h212v-60h-1173v60h143q44 0 62 21t18 62v639h-223v60h223v204q0 159 91 245.5t241 86.5
q88 0 156.5 -35t102.5 -103q42 68 115 103t167 35q114 0 192 -57.5t93 -166.5zM816 842v204q0 17 2 47q-31 14 -37 55q-15 80 -63 124.5t-127 44.5q-98 0 -148.5 -67.5t-50.5 -189.5v-218h424zM816 143v639h-424v-639q0 -41 17.5 -62t62.5 -21h264q44 0 62 21t18 62z" />
    <glyph glyph-name="f_f_i" unicode="ffi" horiz-adv-x="1679" 
d="M1553 60h88v-60h-1589v60h143q44 0 62 21t18 62v639h-223v60h223v204q0 159 91 245.5t241 86.5q88 0 156.5 -35t102.5 -103q42 68 116.5 103t170.5 35q137 0 221 -56.5t99 -167.5q1 -27 -14 -45t-39 -20q-7 0 -13.5 0.5t-11.5 3.5t-8.5 5t-7 7.5t-5 7.5t-4.5 10t-3.5 10
t-3 11.5t-3.5 11.5q-16 77 -68 119t-138 42q-221 0 -221 -257v-218h548v-699q0 -83 72 -83zM816 842v204q0 17 2 47q-31 14 -37 55q-15 80 -63 124.5t-127 44.5q-98 0 -148.5 -67.5t-50.5 -189.5v-218h424zM816 143v639h-424v-639q0 -41 17.5 -62t62.5 -21h264q44 0 62 21
t18 62zM1286 60q41 0 59 20t18 63v639h-430v-639q0 -41 17.5 -62t62.5 -21h273z" />
    <glyph glyph-name="f_f_l" unicode="ffl" horiz-adv-x="1658" 
d="M1549 60h88v-60h-1585v60h143q44 0 62 21t18 62v639h-223v60h223v204q0 159 91 245.5t241 86.5q88 0 156.5 -35t102.5 -103q42 68 116.5 103t170.5 35q133 0 208 -67l116 82v-1250q0 -83 72 -83zM816 842v204q0 17 2 47q-31 14 -37 55q-15 80 -63 124.5t-127 44.5
q-98 0 -148.5 -67.5t-50.5 -189.5v-218h424zM1359 143v917q0 126 -48 191.5t-158 65.5q-220 0 -220 -257v-218h292v-60h-292v-639q0 -41 17.5 -62t62.5 -21h269q42 0 59.5 19.5t17.5 63.5zM816 143v639h-424v-639q0 -41 17.5 -62t62.5 -21h264q44 0 62 21t18 62z" />
    <glyph glyph-name=".notdef" horiz-adv-x="1024" 
d="M129 0v1352h764v-1352h-764zM181 52h660v1248h-660v-1248z" />
    <glyph glyph-name=".null" 
 />
    <glyph glyph-name="nonmarkingreturn" horiz-adv-x="682" 
 />
    <glyph glyph-name="space" unicode=" " horiz-adv-x="506" 
 />
    <glyph glyph-name="exclam" unicode="!" horiz-adv-x="565" 
d="M253 446l-24 734q0 11 -2.5 60t-2.5 75q0 59 58 59t58 -59q0 -54 -5 -129l-23 -740h-59zM282 -33q-45 0 -77 32t-32 78q0 45 32 76.5t77 31.5q44 0 75 -31.5t31 -76.5q0 -46 -31 -78t-75 -32z" />
    <glyph glyph-name="quotedbl" unicode="&#x22;" horiz-adv-x="856" 
d="M211 713l-28 478q-6 65 -6 124q0 27 15.5 43t39.5 16q25 0 40.5 -16t15.5 -42q0 -24 -3.5 -68t-3.5 -57l-27 -478h-43zM603 713l-28 478q-6 65 -6 124q0 27 15.5 43t39.5 16q25 0 40.5 -16t15.5 -42q0 -24 -3.5 -68t-3.5 -57l-27 -478h-43z" />
    <glyph glyph-name="numbersign" unicode="#" horiz-adv-x="1424" 
d="M254 -36l90 430h-238v82h255l86 409h-341v82h357l89 422h83l-89 -422h461l89 422h83l-89 -422h226v-82h-242l-85 -409h327v-82h-344l-90 -430h-83l91 430h-463l-90 -430h-83zM444 476h462l85 409h-461z" />
    <glyph glyph-name="dollar" unicode="$" horiz-adv-x="1196" 
d="M648 766q54 -18 89 -31t83 -35t79 -42.5t64.5 -51.5t53 -65t32.5 -79.5t13 -98.5q0 -79 -26.5 -145.5t-69 -109.5t-96.5 -73.5t-107 -44t-103 -13.5q-98 0 -179 24l-33 -163h-52l36 180q-163 69 -279 269v155q0 44 31 44t36 -41q11 -125 69 -218t157 -141l114 573
q-76 28 -123 48t-102.5 54t-86 69.5t-51.5 89t-21 119.5q0 146 108 241.5t266 95.5q82 0 148 -21l24 118h52l-27 -137q123 -56 229 -213v-123q0 -44 -30 -44q-28 0 -37 41q-12 87 -59 156.5t-117 111.5l-99 -494zM280 1075q0 -49 15.5 -88t39 -66.5t66 -52.5t82.5 -41.5
t102 -38.5l100 500q-63 25 -128 25q-126 0 -201.5 -69t-75.5 -169zM651 43q50 0 100.5 17t96.5 50t74.5 90.5t28.5 129.5q0 54 -18.5 98t-45.5 73.5t-75.5 56.5t-91 43.5t-109.5 38.5h-1l-2 1l-114 -574q70 -24 157 -24z" />
    <glyph glyph-name="percent" unicode="%" horiz-adv-x="1684" 
d="M376 674q-61 0 -108.5 25t-75.5 62.5t-46 86t-24.5 90t-6.5 80.5q0 165 69.5 260.5t190.5 95.5q70 0 123 -30t82.5 -81.5t44 -112.5t14.5 -130q0 -42 -7 -85.5t-26 -91t-47.5 -84.5t-76 -61t-106.5 -24zM471 0l693 1352h74l-694 -1352h-73zM378 722q47 0 81 28t50 74
t23 91.5t7 93.5q0 317 -164 317q-79 0 -119.5 -78t-40.5 -227q0 -53 6.5 -100t23 -95t50.5 -76t83 -28zM1307 -23q-61 0 -109 25t-76 63t-46 86.5t-24.5 90t-6.5 80.5q0 165 69.5 260.5t190.5 95.5q70 0 123 -30t82.5 -82t44 -113t14.5 -130q0 -53 -12.5 -108t-40.5 -111
t-82 -91.5t-127 -35.5zM1308 26q47 0 81 28t50 74t23 91.5t7 93.5q0 316 -164 316q-79 0 -119.5 -77.5t-40.5 -226.5q0 -53 6.5 -100t23 -95t50.5 -76t83 -28z" />
    <glyph glyph-name="ampersand" unicode="&#x26;" horiz-adv-x="1616" 
d="M491 -23q-170 0 -279 90.5t-109 229.5q0 71 23 128.5t78.5 111.5t131 102.5t195.5 111.5q-48 47 -73.5 75t-56.5 69t-45 81.5t-14 83.5q0 109 80.5 175t208.5 66t204.5 -62t76.5 -162q0 -182 -238 -318q119 -122 189.5 -210t141.5 -213q63 81 118.5 183t89.5 195
q11 32 -3.5 50.5t-49.5 18.5h-96v59h396v-59h-71q-39 0 -64.5 -25.5t-56.5 -83.5q-114 -254 -229 -395q64 -122 90 -155q57 -65 134 -67q85 0 129.5 61.5t46.5 177.5h61q0 -159 -74 -238.5t-192 -79.5q-32 0 -59.5 6.5t-47.5 14.5t-41 27t-33.5 31.5t-32 42.5t-28 45
t-29.5 52q-90 -96 -209 -158t-263 -62zM627 808q100 60 154.5 124.5t54.5 147.5q0 73 -55 117t-149 44q-88 0 -142 -43t-53 -112q1 -66 48.5 -129t141.5 -149zM534 57q220 0 391 193q-80 142 -149.5 229t-201.5 222q-189 -107 -240 -145q-93 -69 -114 -147q-9 -34 -9 -74
q0 -112 90.5 -195t232.5 -83z" />
    <glyph glyph-name="quotesingle" unicode="'" horiz-adv-x="470" 
d="M214 713l-28 478q-6 65 -6 124q0 27 15.5 43t39.5 16q25 0 40.5 -16t15.5 -42q0 -24 -3.5 -68t-3.5 -57l-27 -478h-43z" />
    <glyph glyph-name="parenleft" unicode="(" horiz-adv-x="514" 
d="M401 -489q-144 197 -219.5 434t-75.5 491q0 104 14 214t45.5 235.5t92 252.5t143.5 233h79q-148 -187 -224 -435t-76 -499q0 -505 300 -926h-79z" />
    <glyph glyph-name="parenright" unicode=")" horiz-adv-x="514" 
d="M113 -489h-79q300 421 300 926q0 251 -76 499t-224 435h79q83 -106 143.5 -233t92 -252.5t45.5 -235.5t14 -214q0 -254 -75.5 -491t-219.5 -434z" />
    <glyph glyph-name="asterisk" unicode="*" horiz-adv-x="1100" 
d="M308 465q-26 0 -47 19.5t-21 44.5q0 12 4.5 23t18 27.5t23.5 27t38 38t44 44.5q28 27 128 134q18 23 14 35q-6 15 -31 22q-81 20 -168 34q-24 4 -82 13t-81 13q-30 2 -46.5 18t-16.5 42q0 27 17.5 48t42.5 21q34 0 172 -78q54 -29 170 -83q27 -12 38 -1q12 12 9 35
q-3 20 -11 83t-14 97q-18 81 -23 174q-2 27 15 45.5t47 18.5q29 0 46.5 -17.5t16.5 -46.5q-4 -65 -21 -165q-6 -35 -26 -189q-3 -23 10 -36q8 -8 36 3q31 14 86.5 42t78.5 38q19 10 42 22t35.5 18.5t28 14.5t24 12t18 7.5t16 5t12.5 1.5q29 0 46.5 -21.5t17.5 -47.5
t-17.5 -42t-42.5 -18q-24 -5 -83.5 -13.5t-83.5 -14.5q-117 -20 -166 -33q-26 -7 -32 -21q-5 -17 13 -36q123 -128 148 -151q33 -34 44 -46t31 -35t26.5 -37t6.5 -26q0 -26 -21.5 -44.5t-47.5 -18.5q-41 0 -63 64q-28 57 -65 125q-52 99 -84 153q-14 24 -29 24t-28 -24
q-56 -100 -81 -150q-39 -77 -72 -140q-25 -52 -60 -52z" />
    <glyph glyph-name="plus" unicode="+" horiz-adv-x="1283" 
d="M598 121v511h-511v87h511v512h87v-512h512v-87h-512v-511h-87z" />
    <glyph glyph-name="comma" unicode="," horiz-adv-x="608" 
d="M175 -344l-12 60q66 18 113.5 60.5t67 84.5t19.5 77q0 20 -7.5 29t-20.5 6q-33 -7 -41 -7q-39 0 -70 30t-31 76q0 44 30.5 77t79.5 33q65 0 101 -49t36 -128q0 -124 -77 -221.5t-188 -127.5z" />
    <glyph glyph-name="hyphen" unicode="-" horiz-adv-x="904" 
d="M156 354v104h592v-104h-592z" />
    <glyph glyph-name="period" unicode="." horiz-adv-x="603" 
d="M301 -33q-44 0 -76 32t-32 78q0 45 32 76.5t76 31.5t75.5 -31.5t31.5 -76.5q0 -46 -31.5 -78t-75.5 -32z" />
    <glyph glyph-name="slash" unicode="/" horiz-adv-x="801" 
d="M-15 -33l717 1386h112l-715 -1386h-114z" />
    <glyph glyph-name="zero" unicode="0" horiz-adv-x="1054" 
d="M528 -23q-66 0 -125 24t-111 78.5t-90 134.5t-60 199t-22 266q0 337 110 515.5t298 178.5q182 0 294.5 -176.5t112.5 -520.5q0 -339 -108.5 -519t-298.5 -180zM530 38q284 0 284 626q0 648 -287 648q-142 0 -214 -166t-72 -468q0 -640 289 -640z" />
    <glyph glyph-name="one" unicode="1" horiz-adv-x="1054" 
d="M699 60h217v-60h-736v60h242q40 0 60 21t20 58v1120q-62 -69 -134.5 -96t-211.5 -27v58q161 2 241 39.5t140 139.5h83v-1232q0 -81 79 -81z" />
    <glyph glyph-name="two" unicode="2" horiz-adv-x="1054" 
d="M946 286h59l-111 -330h-59q8 22 2 33t-33 11h-688v81q297 254 453 465q203 258 203 463q0 134 -74 218t-201 84q-120 0 -200 -72.5t-80 -178.5q0 -71 42 -145l-77 -37q-50 93 -50 171q0 141 112 232.5t273 91.5q166 0 271 -99t105 -261q0 -109 -59 -227t-176 -258
q-106 -126 -201.5 -222.5t-235.5 -219.5h590q69 0 86 55z" />
    <glyph glyph-name="three" unicode="3" horiz-adv-x="1054" 
d="M451 -23q-139 0 -240.5 64.5t-129.5 150.5q-7 31 5 45.5t33 16.5q12 1 21.5 -2.5t16.5 -12t10.5 -15t9.5 -18.5q19 -32 38.5 -56.5t52.5 -52.5t80 -43.5t105 -15.5q166 0 274 111.5t108 276.5q0 69 -20.5 121.5t-50 81t-70.5 45.5t-74 22t-68 5q-59 0 -104 -23l-65 -39
l-34 50l148 83q285 154 285 328q0 98 -75.5 154t-195.5 56q-125 0 -204 -61t-79 -163q0 -58 34 -123l-81 -36q-41 71 -41 147q0 132 113 215.5t282 83.5q154 0 258 -70t104 -188q0 -192 -310 -353q168 2 268.5 -82t100.5 -240q0 -131 -71.5 -238.5t-186.5 -166t-247 -58.5z
" />
    <glyph glyph-name="four" unicode="4" horiz-adv-x="1054" 
d="M434 0v60h146q45 0 62.5 20.5t17.5 63.5v332h-602v95l619 801h100v-828h211v-68h-211v-333q0 -39 18 -61t63 -22h131v-60h-555zM125 544h535v696h-13l-522 -678v-18z" />
    <glyph glyph-name="five" unicode="5" horiz-adv-x="1054" 
d="M534 887q176 0 293 -112.5t117 -314.5q0 -101 -31.5 -185t-82 -138t-115.5 -91t-129 -53t-126 -16q-108 0 -209 44t-146 131q-6 21 3.5 37t28.5 21q36 8 63 -45q48 -60 122 -93t148 -33q67 0 129 27.5t111.5 79t79.5 133t30 181.5q0 162 -77.5 262t-229.5 100
q-175 0 -249 -139h-78l27 669h639l-31 -99h-552l-21 -493q44 62 120 94.5t166 32.5z" />
    <glyph glyph-name="six" unicode="6" horiz-adv-x="1054" 
d="M554 -23q-198 0 -316 150t-118 433q0 397 132.5 605t352.5 208q106 0 187 -40t122 -111q7 -20 -2 -37t-28 -21q-32 -9 -60 34q-91 112 -241 112q-66 0 -119.5 -28.5t-89.5 -80.5t-61.5 -117t-40 -146t-21 -158.5t-7.5 -163.5q76 230 309 230q85 0 156.5 -26t127 -77.5
t86.5 -135t31 -190.5q0 -200 -114.5 -320t-285.5 -120zM553 38q132 0 206 99t74 265q0 184 -75 283.5t-224 99.5q-248 0 -289 -354q38 -393 308 -393z" />
    <glyph glyph-name="seven" unicode="7" horiz-adv-x="1054" 
d="M391 -18q-76 4 -25 111l511 1160h-609q-70 0 -87 -55l-49 -145h-58l113 343h59q-8 -22 -2.5 -33t33.5 -11h701l-519 -1305q-12 -37 -28 -52t-40 -13z" />
    <glyph glyph-name="eight" unicode="8" horiz-adv-x="1054" 
d="M528 -23q-91 0 -171.5 24.5t-143.5 70.5t-99.5 120t-36.5 167q0 77 25 140.5t69 106t96 70.5t113 43q-105 33 -174.5 111t-69.5 203q0 162 110.5 251t279.5 89q172 0 282 -89.5t110 -250.5q0 -123 -69 -202t-172 -112q62 -16 114 -43.5t95 -70.5t67 -105.5t24 -139.5
q0 -120 -60.5 -208t-161 -131.5t-227.5 -43.5zM527 746q132 0 203 75.5t71 212.5q0 127 -71.5 203t-203.5 76t-203 -76t-71 -201q0 -136 70.5 -213t204.5 -77zM527 37q157 0 243 89t86 232q0 155 -86 241.5t-244 86.5q-157 0 -242.5 -87.5t-85.5 -231.5q0 -151 85.5 -240.5
t243.5 -89.5z" />
    <glyph glyph-name="nine" unicode="9" horiz-adv-x="1054" 
d="M450 -23q-106 0 -186 39.5t-122 111.5q-7 21 1.5 38t28.5 21q28 9 60 -34q90 -113 241 -113q78 0 138.5 42t97 109t60 161t32.5 186t10 197q-74 -231 -308 -231q-177 0 -289.5 109.5t-112.5 320.5q0 199 114.5 319t285.5 120q198 0 316 -149.5t118 -433.5
q0 -397 -132.5 -605t-352.5 -208zM521 565q248 0 289 355q-38 392 -308 392q-132 0 -206 -98.5t-74 -264.5q0 -184 75 -284t224 -100z" />
    <glyph glyph-name="colon" unicode=":" horiz-adv-x="595" 
d="M298 647q-45 0 -77 31.5t-32 77.5q0 45 32 77t77 32q44 0 75.5 -32t31.5 -77t-31.5 -77t-75.5 -32zM298 -33q-45 0 -77 32t-32 78q0 45 32 76.5t77 31.5q44 0 75.5 -31.5t31.5 -76.5q0 -46 -31.5 -78t-75.5 -32z" />
    <glyph glyph-name="semicolon" unicode=";" horiz-adv-x="604" 
d="M300 647q-44 0 -76 31.5t-32 77.5q0 45 32 77t76 32t75.5 -32t31.5 -77q0 -46 -31.5 -77.5t-75.5 -31.5zM174 -344l-12 60q66 18 113.5 60.5t67 84.5t19.5 77q0 20 -7.5 29t-20.5 6q-33 -7 -41 -7q-39 0 -70 30t-31 76q0 44 30.5 77t79.5 33q65 0 101 -49t36 -128
q0 -124 -77 -221.5t-188 -127.5z" />
    <glyph glyph-name="less" unicode="&#x3c;" horiz-adv-x="1142" 
d="M1009 1139v-95l-831 -369l831 -370v-95l-907 408v113z" />
    <glyph glyph-name="equal" unicode="=" horiz-adv-x="1601" 
d="M245 870v87h1111v-87h-1111zM245 395v87h1111v-87h-1111z" />
    <glyph glyph-name="greater" unicode="&#x3e;" horiz-adv-x="1142" 
d="M133 1139l907 -408v-113l-907 -408v95l831 370l-831 369v95z" />
    <glyph glyph-name="question" unicode="?" horiz-adv-x="882" 
d="M414 1374q164 0 272 -109t108 -263q0 -157 -92.5 -254t-223.5 -97q-52 0 -101 15v-220h-64v292h53q39 -20 88 -20q102 0 162 83.5t60 194.5q0 76 -31 147.5t-94.5 121t-143.5 49.5q-83 0 -151 -47.5t-94 -130.5q-15 -51 -53 -48q-18 3 -29.5 16.5t-8.5 35.5
q29 101 122.5 167.5t220.5 66.5zM345 185q44 0 75 -31.5t31 -76.5q0 -46 -31 -78t-75 -32t-76 32t-32 78q0 45 31.5 76.5t76.5 31.5z" />
    <glyph glyph-name="at" unicode="@" horiz-adv-x="1972" 
d="M1016 -449q-183 0 -346.5 63t-283 173t-189 268.5t-69.5 340.5q0 211 69 392.5t191.5 310t297.5 202t379 73.5q332 0 524.5 -174t192.5 -469q0 -134 -41.5 -267.5t-112 -239.5t-173.5 -172.5t-216 -66.5q-218 0 -175 228q-153 -230 -303 -230q-78 0 -130.5 58.5
t-66 150.5t5.5 207q21 147 90 274.5t161.5 200.5t184.5 73q95 0 144.5 -67.5t55.5 -177.5l63 219l98 3l-205 -709q-24 -85 2 -133t106 -48q83 0 167.5 59t150.5 154t107.5 223.5t41.5 258.5q0 277 -182 438t-484 161q-258 0 -460 -121.5t-313.5 -336t-111.5 -484.5
q0 -172 65.5 -320.5t177.5 -251t264 -160.5t323 -58q167 0 323 63t283 189t193 297h46q-58 -151 -156 -268.5t-213.5 -186.5t-236 -104t-239.5 -35zM803 63q67 0 141 69t131.5 181t77.5 231q31 155 -6 254.5t-130 99.5q-77 0 -152 -81t-123.5 -190.5t-70.5 -219.5
q-30 -145 9.5 -244.5t122.5 -99.5z" />
    <glyph glyph-name="A" unicode="A" horiz-adv-x="1399" 
d="M1296 61l80 -1v-60h-483v60l124 1q33 1 48 18.5t5 47.5l-120 332h-582l-123 -323q-12 -34 6.5 -54.5t53.5 -20.5l140 -1v-60h-422v60l57 3q77 23 103 93l470 1218h96l444 -1218q15 -43 39 -66.5t64 -28.5zM392 520h536l-244 679h-33z" />
    <glyph glyph-name="B" unicode="B" horiz-adv-x="1336" 
d="M904 724q66 -16 123 -44.5t104 -71.5t73.5 -106t25.5 -139q-2 -76 -31 -137.5t-77 -103t-113 -69t-135 -40t-146 -12.5h-656v61h110q75 0 75 90v1048q0 89 -71 89h-114v62l662 -1q211 0 326 -86.5t110 -238.5q-3 -125 -78 -199.5t-188 -101.5zM679 1292h-296v-538h317
q170 0 250.5 63t85.5 200q4 134 -88.5 204.5t-268.5 70.5zM1093 372q4 163 -102.5 241.5t-295.5 78.5h-312v-542q0 -36 16.5 -61t52.5 -25h268q176 0 272 84.5t101 223.5z" />
    <glyph glyph-name="C" unicode="C" horiz-adv-x="1516" 
d="M739 -23q-137 0 -257 56.5t-202.5 151.5t-129.5 222.5t-47 267.5q0 139 47.5 266.5t130.5 223t203 152.5t258 57q157 0 293.5 -86.5t220.5 -242.5l12 273h59l3 -465h-59q-20 89 -66 170.5t-111.5 145.5t-153.5 102t-185 38q-116 0 -214 -52.5t-162.5 -141.5t-100 -205
t-35.5 -245q0 -178 65 -320t182.5 -222t267.5 -80q182 0 327 126.5t191 337.5h60v-472h-60l-16 275q-65 -145 -205 -239t-316 -94z" />
    <glyph glyph-name="D" unicode="D" horiz-adv-x="1556" 
d="M63 0v60h134q74 0 74 90v1053q0 90 -75 90h-133v59h632q229 0 399.5 -77.5t265.5 -231t95 -367.5q0 -217 -95.5 -370.5t-265 -229.5t-399.5 -76h-632zM488 63h271q253 0 404 171t151 442q0 149 -45.5 267.5t-126 194.5t-188.5 116t-236 40h-321v-1133q0 -49 19 -73.5
t72 -24.5z" />
    <glyph glyph-name="E" unicode="E" horiz-adv-x="1393" 
d="M1215 447l59 -3l-34 -444h-1179v60h125q80 0 80 90v1052q0 46 -19.5 68t-67.5 22h-118v60h1126l22 -349l-60 -3l-21 208q-12 47 -37 64t-71 17h-627v-548h415q86 0 86 70v122h61v-460h-61v129q0 76 -84 76h-417v-518q0 -48 18 -72.5t65 -24.5h574q59 0 86.5 20t37.5 65z
" />
    <glyph glyph-name="F" unicode="F" horiz-adv-x="1264" 
d="M63 0v60h117q47 0 66.5 22t19.5 68v1052q0 47 -19.5 68.5t-68.5 21.5h-117v60h1122l18 -351l-60 -3l-17 203q-21 88 -113 88h-618v-547h410q83 0 83 80v112h60v-462h-60v122q0 85 -84 85h-409v-529q0 -45 19.5 -67.5t69.5 -22.5h145v-60h-564z" />
    <glyph glyph-name="G" unicode="G" horiz-adv-x="1568" 
d="M761 -23q-145 0 -269.5 56t-209 150.5t-132 221.5t-47.5 267q0 142 49 271.5t133.5 224t203.5 150.5t252 56q171 0 308 -90.5t208 -235.5l11 278h58l3 -458h-59q-22 87 -67 165t-109 139t-150.5 97t-183.5 36q-118 0 -217 -53t-164 -141.5t-100.5 -203.5t-35.5 -240
q0 -126 35.5 -238.5t101 -198.5t166.5 -136.5t224 -50.5q85 0 158.5 21t134.5 63.5t103 112.5t58 162q0 47 -21.5 68.5t-68.5 21.5h-416v60h788v-60h-86q-70 0 -70 -93v-422h-63l-37 253q-91 -139 -210.5 -196t-278.5 -57z" />
    <glyph glyph-name="H" unicode="H" horiz-adv-x="1681" 
d="M63 0v60h162q47 0 66 22.5t19 67.5v1052q0 45 -19 67.5t-66 22.5h-162v60h618v-60h-162q-46 0 -64.5 -23t-18.5 -67v-454h809v454q0 44 -19 67t-65 23h-162v60h619v-60h-163q-46 0 -65 -22.5t-19 -67.5v-1052q0 -45 19 -67.5t65 -22.5h163v-60h-619v60h166q80 0 80 90
v533h-809v-533q0 -90 79 -90h166v-60h-618z" />
    <glyph glyph-name="I" unicode="I" horiz-adv-x="746" 
d="M63 0v60h159q49 0 68.5 22.5t19.5 67.5v1053q0 45 -19.5 67.5t-68.5 22.5h-159v60h621v-60h-158q-50 0 -70 -21.5t-20 -68.5v-1053q0 -47 20 -68.5t70 -21.5h158v-60h-621z" />
    <glyph glyph-name="J" unicode="J" horiz-adv-x="791" 
d="M98 -498q-63 0 -124 15t-116 45.5t-89 85t-34 125.5q0 32 23.5 54.5t59.5 22.5q33 0 55.5 -19t22.5 -52q0 -16 -20.5 -43t-12.5 -47q26 -67 95.5 -97t150.5 -30q164 0 238.5 108.5t74.5 336.5v1195q0 43 -19 66.5t-69 23.5h-301v60h725v-60h-124q-47 0 -66.5 -22
t-19.5 -68v-1168q0 -90 -11.5 -164.5t-42.5 -144.5t-80.5 -118t-129.5 -76.5t-186 -28.5z" />
    <glyph glyph-name="K" unicode="K" horiz-adv-x="1632" 
d="M62 0v60h151q44 0 63.5 21t19.5 69v1052q0 46 -20 68t-67 22h-147v60h608v-60h-162q-49 0 -67.5 -24t-18.5 -68v-654l614 634q42 41 42 70q0 19 -16 30.5t-41 11.5h-130v60h591v-60h-167q-34 0 -66 -14.5t-52.5 -30.5t-49.5 -45l-320 -331l482 -720q32 -49 60.5 -70
t68.5 -21h162v-60h-617v60h133q30 0 48.5 11.5t18.5 32.5q0 16 -42 80l-404 603l-315 -329v-308q0 -46 17.5 -67t58.5 -22l167 -1l1 -60h-604z" />
    <glyph glyph-name="L" unicode="L" horiz-adv-x="1319" 
d="M63 0v60h162q45 0 65 20.5t20 69.5v1052q0 46 -19 68t-67 22h-161v60h623v-60h-161q-48 0 -68 -21.5t-20 -68.5v-1044q0 -49 18.5 -72t70.5 -23h483q122 0 148 117l29 269l59 -3l-34 -446h-1148z" />
    <glyph glyph-name="M" unicode="M" horiz-adv-x="1987" 
d="M1764 60h163v-60h-613v60h147q48 0 68 21.5t20 68.5v1086h-22l-560 -1236h-78l-546 1236h-15v-1064q0 -112 86 -112h119v-60h-470v60h118q84 0 84 112v1029q0 44 -18.5 67.5t-66.5 23.5h-117v60h361l539 -1214l551 1214h411v-60h-161q-50 0 -69.5 -23.5t-19.5 -66.5
v-1052q0 -43 19.5 -66.5t69.5 -23.5z" />
    <glyph glyph-name="N" unicode="N" horiz-adv-x="1564" 
d="M1052 1352h477v-60h-118q-42 0 -62.5 -29.5t-20.5 -77.5v-1208h-72l-926 1269v-1077q0 -109 90 -109h117v-60h-477v60h118q35 0 56.5 21t26.5 42.5t5 45.5v1021q0 47 -23 74.5t-68 27.5h-116v60h351l854 -1176v1010q0 42 -20.5 74t-67.5 32h-124v60z" />
    <glyph glyph-name="O" unicode="O" horiz-adv-x="1490" 
d="M746 -23q-190 0 -336 90t-224.5 249.5t-78.5 362.5q0 143 44.5 269t124.5 221t201 150t266 55q149 0 271.5 -56t202.5 -151.5t123.5 -222t43.5 -268.5q0 -145 -44.5 -272.5t-125 -222t-202 -149.5t-266.5 -55zM743 43q227 0 362 170t135 464q0 295 -135.5 463.5
t-360.5 168.5q-152 0 -265 -81t-171.5 -222.5t-58.5 -323.5q0 -104 20 -199t61.5 -175t99.5 -139t138.5 -92.5t174.5 -33.5z" />
    <glyph glyph-name="P" unicode="P" horiz-adv-x="1221" 
d="M62 0v60h119q47 0 66.5 22t19.5 68v1053q0 43 -19 66.5t-69 23.5h-119v59h628q220 0 342.5 -90.5t122.5 -268.5q0 -174 -113.5 -269.5t-324.5 -95.5h-322v-478q0 -43 19 -66.5t70 -23.5h118v-60h-538zM393 691h313q154 0 233 76t79 224q0 146 -77 224t-234 78h-314v-602z
" />
    <glyph glyph-name="Q" unicode="Q" horiz-adv-x="1490" 
d="M746 -23q-190 0 -336 90t-224.5 249.5t-78.5 362.5q0 143 44.5 269t124.5 221t201 150t266 55q149 0 271.5 -56t202.5 -151.5t123.5 -222t43.5 -268.5q0 -145 -44.5 -272.5t-125 -222t-202 -149.5t-266.5 -55zM743 43q227 0 362 170t135 464q0 295 -135.5 463.5
t-360.5 168.5q-152 0 -265 -81t-171.5 -222.5t-58.5 -323.5q0 -104 20 -199t61.5 -175t99.5 -139t138.5 -92.5t174.5 -33.5zM1281 -437q-57 0 -106.5 12.5t-95.5 41t-71.5 48.5t-71.5 59q-68 59 -125.5 91t-116.5 32q-55 0 -119.5 -35t-152.5 -108l-36 43
q101 83 174.5 121.5t151.5 38.5q122 0 286 -117q86 -62 153 -94.5t147 -32.5q176 0 269 111l56 -61q-115 -150 -342 -150z" />
    <glyph glyph-name="R" unicode="R" horiz-adv-x="1495" 
d="M61 0v60h118q48 0 68 21.5t20 68.5v1053q0 45 -19.5 67t-65.5 22h-121v60h676q206 0 324 -95t118 -265q0 -134 -82 -223t-228 -119q67 -44 141 -158l251 -370q20 -31 63 -46.5t78 -15.5h71v-60h-272l-308 468q-62 95 -113 127.5t-124 32.5h-263v-478q0 -46 20 -68t67 -22
h118v-60h-537zM393 691h313q162 0 252 78t90 224q0 140 -87.5 218t-250.5 78h-317v-598z" />
    <glyph glyph-name="S" unicode="S" horiz-adv-x="1165" 
d="M652 -23q-148 0 -262.5 64t-173.5 184l-9 -204h-63v465h63q7 -197 122 -320t313 -123q50 0 100.5 17t96.5 50t75 90.5t29 129.5q0 54 -18.5 98t-46 73.5t-76 56.5t-90.5 43.5t-109 38.5q-185 67 -254 107q-140 79 -171 203q-10 41 -10 89q0 146 107.5 241.5t265.5 95.5
q109 0 205.5 -55.5t151.5 -149.5l9 182h61v-397h-61q-10 156 -114.5 256.5t-244.5 100.5q-126 0 -201.5 -69t-75.5 -169q0 -53 20 -95.5t43 -69t81.5 -55.5t92.5 -42t120 -43q7 -3 11 -4q54 -18 89 -31t83 -35t79 -42.5t64.5 -51.5t53 -65t32.5 -79.5t13 -98.5
q0 -79 -26.5 -145.5t-69 -109.5t-96.5 -73.5t-107 -44t-102 -13.5z" />
    <glyph glyph-name="T" unicode="T" horiz-adv-x="1396" 
d="M400 0v60h147q50 0 69 23.5t19 66.5v1139h-381q-49 0 -81.5 -23t-37.5 -87l-11 -189l-60 3l16 359h1236l16 -359l-60 -3l-12 190q-12 64 -40 86.5t-79 22.5h-379v-1139q0 -43 18.5 -66.5t69.5 -23.5h147v-60h-597z" />
    <glyph glyph-name="U" unicode="U" horiz-adv-x="1526" 
d="M768 -23q-263 0 -398.5 131.5t-135.5 382.5v711q0 45 -19.5 67.5t-67.5 22.5h-116v60h592v-60h-175q-48 0 -68 -22t-20 -68v-711q0 -445 433 -445q233 0 340.5 115t107.5 340v689q0 46 -22.5 74t-69.5 28h-104v60h436v-60h-93q-42 0 -62.5 -27.5t-20.5 -73.5v-691
q0 -523 -537 -523z" />
    <glyph glyph-name="V" unicode="V" horiz-adv-x="1461" 
d="M993 1352h445v-60h-81q-39 0 -64 -26t-52 -95l-440 -1195h-97l-483 1214q-24 58 -45 80t-62 22h-91v60h584v-60h-193q-101 0 -59 -102l430 -1086l394 1070q21 50 7.5 84t-65.5 34h-128v60z" />
    <glyph glyph-name="W" unicode="W" horiz-adv-x="2019" 
d="M1562 1352h433v-60h-62q-38 0 -60.5 -29t-39.5 -92l-324 -1194h-124l-366 1259l-340 -1259h-124l-365 1223q-15 52 -35.5 72t-58.5 20h-72v60h555v-60h-202q-85 0 -56 -101l322 -1085h12l338 1261h110l367 -1259l9 -2l285 1055q33 131 -59 131h-143v60z" />
    <glyph glyph-name="X" unicode="X" horiz-adv-x="1671" 
d="M68 0v60h78q70 0 134 75l487 543l-452 526q-39 51 -66 69.5t-65 18.5h-133v60h611v-60h-148q-47 0 -56 -27t24 -69l371 -428l380 423q37 43 27 72t-61 29h-162v60h527v-60h-94q-42 0 -71.5 -20t-66.5 -64l-439 -488l483 -566q38 -49 68.5 -71.5t70.5 -22.5h117v-60h-651
v60h187q57 0 68 29t-28 78l-401 461l-416 -463q-37 -43 -25 -74t66 -31h184v-60h-548z" />
    <glyph glyph-name="Y" unicode="Y" horiz-adv-x="1419" 
d="M402 0v60h185q48 0 67 22.5t19 66.5v321l-454 743q-23 41 -46.5 60t-56.5 19h-94v60h526v-60h-134q-46 0 -55 -29t17 -69l396 -647l389 632q29 49 17 81t-63 32h-109v60h391v-60h-39q-58 0 -104 -81l-455 -735v-326q0 -45 19 -67.5t68 -22.5h184v-60h-668z" />
    <glyph glyph-name="Z" unicode="Z" horiz-adv-x="1390" 
d="M1233 436l60 -3l-39 -433h-1158v94l1008 1208h-760q-67 0 -102.5 -19.5t-47.5 -72.5l-28 -207l-60 3l38 359h1097v-90l-1016 -1212h830q57 0 92 20.5t52 77.5z" />
    <glyph glyph-name="bracketleft" unicode="[" horiz-adv-x="656" 
d="M199 -474v1826h429v-59h-240q-44 0 -61.5 -20t-17.5 -58v-1557q0 -36 18 -54.5t64 -18.5h237v-59h-429z" />
    <glyph glyph-name="backslash" unicode="\" horiz-adv-x="801" 
d="M816 -33h-114l-715 1386h112z" />
    <glyph glyph-name="bracketright" unicode="]" horiz-adv-x="656" 
d="M457 -474h-429v59h237q46 0 64 18.5t18 54.5v1557q0 38 -17.5 58t-61.5 20h-240v59h429v-1826z" />
    <glyph glyph-name="asciicircum" unicode="^" horiz-adv-x="1079" 
d="M983 635h-102l-341 614l-345 -614h-99l403 718h83z" />
    <glyph glyph-name="underscore" unicode="_" horiz-adv-x="1358" 
d="M155 -171v80h1048v-80h-1048z" />
    <glyph glyph-name="grave" unicode="`" horiz-adv-x="505" 
d="M401 1030l-378 318v4h185l247 -322h-54z" />
    <glyph glyph-name="a" unicode="a" horiz-adv-x="1033" 
d="M300 -20q-101 0 -151 50t-50 136q0 92 57 150t169 113l351 173q-8 115 -58 159t-159 44q-116 0 -173 -43t-83 -116q-12 -52 -58 -48q-23 2 -33.5 17.5t-6.5 38.5q11 40 34.5 75t65.5 67.5t112.5 51t163.5 18.5q57 0 102.5 -7.5t86.5 -27.5t68 -52t43 -84t15 -121l-1 -352
q0 -92 19.5 -132t61.5 -40q80 0 84 133h52q-1 -100 -46 -151.5t-123 -51.5q-79 0 -115.5 50.5t-45.5 158.5q-185 -209 -382 -209zM341 50q173 0 336 218l1 270l-325 -169q-79 -42 -109.5 -85.5t-30.5 -99.5q0 -134 128 -134z" />
    <glyph glyph-name="b" unicode="b" horiz-adv-x="1079" 
d="M578 -22q-87 0 -167.5 35t-142.5 99l-49 -118h-53v1212q0 43 -18.5 63.5t-58.5 13.5l-102 -26l-9 59l307 69v-640q123 121 296 121t295.5 -128t122.5 -316q0 -94 -34 -177.5t-91.5 -141.5t-134.5 -91.5t-161 -33.5zM553 47q95 0 170.5 55.5t114 140.5t38.5 178
q0 154 -91.5 264.5t-230.5 110.5q-82 0 -152.5 -37t-116.5 -97v-475q46 -63 116.5 -101.5t151.5 -38.5z" />
    <glyph glyph-name="c" unicode="c" horiz-adv-x="954" 
d="M512 -24q-187 0 -308.5 123.5t-121.5 317.5q0 196 126 322.5t315 126.5q74 0 141 -20.5t121.5 -65.5t77.5 -109q5 -25 -5 -43.5t-32 -20.5q-18 -1 -31 8t-19 19.5t-12 28.5q-38 66 -100 104.5t-145 38.5q-97 0 -170 -54.5t-108 -137t-35 -178.5q0 -180 89 -287t236 -107
q109 0 187 58.5t116 150.5l54 -25q-50 -115 -143.5 -182.5t-232.5 -67.5z" />
    <glyph glyph-name="d" unicode="d" horiz-adv-x="1107" 
d="M490 -22q-175 0 -291.5 128t-116.5 312q0 86 25 160t67 126t96 89t112.5 55t116.5 18q77 0 156 -30.5t140 -91.5v461q0 42 -20 63.5t-61 13.5l-99 -26l-8 59l305 70v-1259q0 -64 52 -64h97v-62h-256l-5 108q-141 -130 -310 -130zM525 50q76 0 149.5 36t120.5 105v475
q-48 61 -117.5 94.5t-148.5 33.5q-142 0 -232.5 -107.5t-90.5 -261.5q0 -159 91 -267t228 -108z" />
    <glyph glyph-name="e" unicode="e" horiz-adv-x="979" 
d="M502 -24q-181 0 -299.5 125.5t-118.5 321.5q0 194 118.5 318.5t295.5 124.5q79 0 151 -29t128.5 -82t91 -135.5t36.5 -183.5h-697q0 -106 34.5 -194t108.5 -144.5t175 -56.5q96 0 173 52t119 143l52 -28q-50 -107 -147.5 -169.5t-220.5 -62.5zM209 494h581
q-14 132 -91 221.5t-200 89.5q-122 0 -199 -90t-91 -221z" />
    <glyph glyph-name="f" unicode="f" horiz-adv-x="736" 
d="M52 0v60h143q44 0 62 21t18 62v639h-223v60h223v204q0 159 91 245.5t241 86.5q114 0 192 -57.5t93 -166.5q2 -27 -13 -45t-39 -20q-22 -1 -38.5 15t-20.5 44q-15 80 -63 124.5t-127 44.5q-98 0 -148.5 -67.5t-50.5 -189.5v-218h292v-60h-292v-639q0 -41 17.5 -62
t62.5 -21h212v-60h-632z" />
    <glyph glyph-name="g" unicode="g" horiz-adv-x="1055" 
d="M481 -497q-409 0 -409 230q0 89 55.5 141t166.5 75q-90 16 -137.5 55t-47.5 115q0 157 219 203q-106 33 -158 106.5t-52 151.5q0 123 102.5 204t261.5 81q186 0 291 -116q82 113 172 113q70 0 98 -75q5 -20 -2 -33.5t-23 -14.5q-20 -3 -38 24q-20 33 -55 33
q-30 0 -63.5 -25.5t-55.5 -64.5q33 -57 33 -126q0 -89 -53 -156.5t-134.5 -100t-176.5 -33.5q-133 -1 -206.5 -36.5t-73.5 -106.5q0 -44 31 -67.5t93 -33.5q57 -9 272 -9q196 0 289 -49t93 -172q0 -141 -134 -227t-358 -86zM480 353q108 0 177 64t69 166q0 84 -69 153
t-177 69q-110 0 -178.5 -68.5t-68.5 -154.5q0 -88 68.5 -158.5t178.5 -70.5zM485 -437q115 0 205.5 25t146.5 78.5t56 128.5q0 51 -27.5 81t-101 46t-202.5 16q-216 0 -313 -51t-97 -150q0 -93 85.5 -133.5t247.5 -40.5z" />
    <glyph glyph-name="h" unicode="h" horiz-adv-x="1154" 
d="M24 0v60h104q75 0 75 83v1061q0 90 -78 76l-101 -26l-9 60l306 71v-793q66 117 162 195.5t202 78.5q140 0 209 -76.5t69 -239.5v-407q0 -83 73 -83h100v-60h-477v60h118q68 0 68 83v406q0 126 -44.5 183t-149.5 57q-55 0 -109 -30t-95.5 -78.5t-73.5 -103.5t-52 -111
v-323q0 -37 16.5 -60t49.5 -23h114v-60h-477z" />
    <glyph glyph-name="i" unicode="i" horiz-adv-x="564" 
d="M307 1154q-41 0 -66.5 30t-25.5 65q0 38 27 65.5t65 27.5t65.5 -27.5t27.5 -65.5q0 -43 -27.5 -69t-65.5 -26zM63 0v60h107q42 0 59.5 19.5t17.5 63.5v550q0 91 -82 77l-102 -26l-9 59l311 70v-730q0 -83 72 -83h88v-60h-462z" />
    <glyph glyph-name="j" unicode="j" horiz-adv-x="494" 
d="M265 1154q-41 0 -66.5 30t-25.5 65q0 38 27 65.5t65 27.5t65 -27.5t27 -65.5q0 -43 -27 -69t-65 -26zM-6 -508q-110 0 -181 55t-87 156q-2 25 11 41t35 17q38 3 51 -47q15 -77 62.5 -118.5t124.5 -41.5q99 0 149 71.5t50 199.5v867q0 92 -86 77l-101 -26l-8 60l313 70
v-1003q0 -188 -81 -283t-252 -95z" />
    <glyph glyph-name="k" unicode="k" horiz-adv-x="1228" 
d="M23 0v60h107q40 0 56.5 20.5t16.5 62.5v1062q0 93 -79 77l-101 -26l-9 60l307 69v-1039l450 348q42 34 37 61t-54 27h-59v60h420v-60h-78q-61 0 -118 -49l-228 -176l355 -423q53 -74 98 -74h65v-60h-470v60h133q40 0 45.5 26t-22.5 61l-291 345l-283 -221v-128
q0 -83 64 -83h119v-60h-481z" />
    <glyph glyph-name="l" unicode="l" horiz-adv-x="525" 
d="M23 0v60h107q40 0 56.5 20.5t16.5 62.5v1062q0 93 -79 77l-101 -26l-9 60l307 69v-1242q0 -83 64 -83h119v-60h-481z" />
    <glyph glyph-name="m" unicode="m" horiz-adv-x="1866" 
d="M65 0v60h104q41 0 57.5 21t16.5 62v545q0 91 -77 76l-101 -26l-9 60l306 72v-278q69 115 171.5 194.5t208.5 79.5q128 0 195 -64.5t77 -202.5q70 113 172 190t208 77q141 0 210 -76.5t69 -239.5v-407q0 -83 73 -83h100v-60h-477v60h117q68 0 68 83v406q0 126 -44.5 183
t-149.5 57t-198.5 -93t-141.5 -210v-343q0 -83 73 -83h101v-60h-478v60h118q68 0 68 83v406q0 126 -44.5 183t-149.5 57q-110 0 -207 -101t-139 -222v-323q0 -37 16.5 -60t49.5 -23h119v-60h-482z" />
    <glyph glyph-name="n" unicode="n" horiz-adv-x="1196" 
d="M65 0v60h104q41 0 57.5 21t16.5 62v545q0 91 -77 76l-101 -26l-9 60l306 72v-278q64 116 160 195t203 79q141 0 209.5 -76.5t68.5 -239.5v-407q0 -83 73 -83h101v-60h-477v60h117q68 0 68 83v406q0 126 -44.5 183t-149.5 57q-72 0 -141.5 -52.5t-115.5 -123.5t-72 -147
v-323q0 -37 16.5 -60t49.5 -23h114v-60h-477z" />
    <glyph glyph-name="o" unicode="o" horiz-adv-x="1032" 
d="M516 -24q-30 0 -63 4.5t-76 18t-82.5 34t-78 56t-67 80.5t-46 110.5t-17.5 143.5q0 93 27 169t70.5 126t101 84t115.5 49t116 15q56 0 112.5 -14t114.5 -48t102.5 -83.5t72.5 -126.5t28 -171q0 -102 -31 -183.5t-77.5 -129.5t-107 -79.5t-113 -43t-101.5 -11.5zM517 37
q38 0 78.5 12.5t81.5 42t73 72.5t52.5 110t20.5 148q0 178 -89 280.5t-218 102.5q-128 0 -217.5 -102t-89.5 -277q0 -82 20 -149.5t52.5 -111t74 -73.5t82 -42.5t79.5 -12.5z" />
    <glyph glyph-name="p" unicode="p" horiz-adv-x="1122" 
d="M29 -497v60h108q72 0 72 83v1048q0 88 -84 76l-96 -25l-9 59l300 69l5 -139q61 62 140 97t164 35q169 0 291 -127t122 -315q0 -190 -123.5 -319t-294.5 -129q-170 0 -297 125v-455q0 -41 17.5 -62t62.5 -21h117v-60h-495zM593 47q96 0 172 56.5t114.5 140.5t38.5 175
q0 153 -91.5 264t-230.5 111q-79 0 -150.5 -38.5t-118.5 -104.5v-471q50 -63 121 -98t145 -35z" />
    <glyph glyph-name="q" unicode="q" horiz-adv-x="1079" 
d="M598 -497v60h116q44 0 62 21t18 62v453q-126 -123 -296 -123q-176 0 -296.5 127t-120.5 314q0 195 124 321.5t296 126.5q175 0 308 -131l50 117h53v-1205q0 -83 75 -83h105v-60h-494zM525 46q71 0 143 34t126 102v476q-50 64 -119 102t-149 38q-137 0 -229.5 -106
t-92.5 -271q0 -149 90.5 -262t230.5 -113z" />
    <glyph glyph-name="r" unicode="r" horiz-adv-x="874" 
d="M65 0v60h107q71 0 71 83v547q0 43 -18 63.5t-56 12.5l-105 -25l-9 59l294 73l9 -260q112 253 318 253q70 0 116 -34t67 -90q6 -24 -4 -44.5t-35 -22.5q-30 -4 -54 33q-46 71 -131 71q-87 0 -151 -61t-93 -149.5t-29 -188.5v-237q0 -43 18 -63t60 -20h86v-60h-461z" />
    <glyph glyph-name="s" unicode="s" horiz-adv-x="1001" 
d="M509 506q56 -7 95 -14t89 -19.5t84 -31t64.5 -45t46 -65t15.5 -86.5q0 -129 -104 -199t-267 -70q-112 0 -199 32.5t-134 85.5l-26 -118h-46l-2 261h58q38 -97 131.5 -149t220.5 -52q122 0 199 48t77 135q0 39 -18 67.5t-43 45.5t-71 29.5t-81 18t-94 12.5q-39 5 -63 8
t-60.5 9.5t-60 13t-53.5 16.5t-49 22t-39 29t-31.5 36.5t-19 45.5t-7.5 56q0 113 91.5 175.5t250.5 62.5q209 0 308 -110l21 110h45l2 -253h-49q-29 90 -113 141t-217 51q-115 0 -182.5 -38t-67.5 -111q0 -24 8.5 -43t20 -32.5t35.5 -24.5t44.5 -18t57 -13.5t62 -10
t71.5 -8.5z" />
    <glyph glyph-name="t" unicode="t" horiz-adv-x="767" 
d="M477 -24q-120 0 -185.5 77.5t-65.5 225.5v503h-211v60h143q57 0 92 33.5t35 89.5v168h58v-291h339v-60h-339v-489q0 -124 40 -186t126 -62q60 0 102 34.5t51 103.5h53q-7 -72 -45.5 -120.5t-87 -67.5t-105.5 -19z" />
    <glyph glyph-name="u" unicode="u" horiz-adv-x="1163" 
d="M472 -24q-141 0 -210 76.5t-69 238.5v408q0 83 -73 83h-100v60h292v-549q0 -126 44.5 -183t149.5 -57q72 0 141.5 52.5t115.5 123.5t72 147v323q0 37 -16.5 60t-48.5 23h-115v60h299v-698q0 -90 77 -75l101 25l9 -60l-306 -57v273q-64 -116 -160 -195t-203 -79z" />
    <glyph glyph-name="v" unicode="v" horiz-adv-x="1049" 
d="M750 842h299v-60h-32q-30 0 -50 -19.5t-41 -66.5l-349 -714h-91l-328 722q-20 46 -40 62t-50 16h-70v60h439v-60h-107q-84 0 -41 -94l272 -603l292 601q43 96 -36 96h-67v60z" />
    <glyph glyph-name="w" unicode="w" horiz-adv-x="1620" 
d="M1276 842h344v-60h-61q-56 0 -83 -75l-277 -727h-104l-270 762l-278 -762h-103l-266 728q-16 41 -35.5 57.5t-50.5 16.5h-91v60h458v-60h-106q-81 0 -52 -83l224 -615l284 773h92l275 -774l226 599q20 49 8.5 74.5t-59.5 25.5h-75v60z" />
    <glyph glyph-name="x" unicode="x" horiz-adv-x="1136" 
d="M48 0v60h40q54 0 112 56l308 303l-299 298q-61 65 -104 65h-61v60h448v-60h-89q-43 0 -49 -24t24 -56l211 -210l212 208q33 34 26.5 58t-51.5 24h-54v60h335v-60h-45q-48 0 -108 -60l-276 -270l312 -311q73 -81 118 -81h46v-60h-436v60h87q46 0 54 23.5t-23 55.5
l-237 238l-240 -234q-34 -35 -29 -59t51 -24h84v-60h-367z" />
    <glyph glyph-name="y" unicode="y" horiz-adv-x="1061" 
d="M213 -462q-29 -2 -46 11t-18 37q-1 23 15.5 35.5t39.5 17.5q97 21 169 80t133 187l40 87l-407 720q-21 39 -40 54t-47 15h-54v60h403v-60h-84q-41 0 -49.5 -25.5t12.5 -61.5l325 -579l261 564q45 102 -38 102h-98v60h331v-60h-27q-30 0 -51.5 -18.5t-41.5 -66.5
l-384 -828q-75 -161 -155 -237t-189 -94z" />
    <glyph glyph-name="z" unicode="z" horiz-adv-x="965" 
d="M810 274l58 -2l-27 -272h-759v82l646 699l7 1h-468q-32 0 -49.5 -15.5t-28.5 -57.5l-22 -131l-60 4l31 260h723v-82l-648 -700h488q33 0 54 16.5t33 58.5z" />
    <glyph glyph-name="braceleft" unicode="{" horiz-adv-x="592" 
d="M559 -525q-180 -6 -284 89t-106 241q-2 84 32.5 202t34.5 170q0 190 -168 203v90q93 9 130.5 62.5t37.5 142.5q0 55 -34.5 171.5t-32.5 196.5q1 62 24 119t68 106t122 78t176 28v-42q-140 -1 -219 -71.5t-81 -191.5q-2 -78 31.5 -197t33.5 -173q0 -108 -53 -178.5
t-166 -87.5v-15q219 -41 219 -267q0 -57 -33.5 -171t-31.5 -197q2 -129 86 -198t214 -67v-43z" />
    <glyph glyph-name="bar" unicode="|" horiz-adv-x="598" 
d="M248 -483v1835h102v-1835h-102z" />
    <glyph glyph-name="braceright" unicode="}" horiz-adv-x="592" 
d="M33 -525v43q130 -2 214 67t86 198q2 83 -31.5 197t-33.5 171q0 226 219 267v15q-113 17 -166 87.5t-53 178.5q0 54 33.5 173t31.5 197q-2 121 -81 191.5t-219 71.5v42q99 1 176 -28t122 -78t68 -106t24 -119q2 -80 -32.5 -196.5t-34.5 -171.5q0 -89 37.5 -142.5
t130.5 -62.5v-90q-168 -13 -168 -203q0 -52 34.5 -170t32.5 -202q-2 -146 -106 -241t-284 -89z" />
    <glyph glyph-name="asciitilde" unicode="~" horiz-adv-x="1293" 
d="M194 550q0 51 13.5 98.5t40.5 89.5t75 67.5t112 25.5q43 0 85.5 -14.5t71.5 -31.5t93 -58q45 -34 63 -46.5t52 -25t71 -12.5q79 0 125.5 51t48.5 143h52q2 -124 -62.5 -204.5t-182.5 -80.5q-50 0 -96 15.5t-70 29.5t-80 53l-18 12q-52 41 -87.5 59t-83.5 18
q-79 0 -123.5 -49t-47.5 -140h-52z" />
    <glyph glyph-name="uni00A0" unicode="&#xa0;" horiz-adv-x="549" 
 />
    <glyph glyph-name="exclamdown" unicode="&#xa1;" horiz-adv-x="565" 
d="M282 875q44 0 75 -32t31 -78q0 -45 -31 -76.5t-75 -31.5q-45 0 -77 31.5t-32 76.5q0 46 32 78t77 32zM253 396h59l23 -740q5 -75 5 -129q0 -59 -58 -59t-58 59q0 26 2.5 75t2.5 60z" />
    <glyph glyph-name="cent" unicode="&#xa2;" horiz-adv-x="1041" 
d="M872 456l54 -25q-50 -115 -143.5 -183t-231.5 -68q-35 0 -60 4l-73 -366h-53l75 375q-144 35 -231.5 150.5t-87.5 278.5q0 196 125.5 322.5t314.5 126.5q27 0 53 -3l77 384h52l-78 -392q84 -18 147.5 -65t89.5 -119q5 -25 -5.5 -44t-32.5 -21q-18 -1 -31 8t-18.5 20
t-11.5 28q-54 96 -151 129l-147 -743q30 -6 64 -6q109 0 187.5 58.5t115.5 150.5zM244 641q0 -141 56 -239t155 -135l147 741q-21 3 -45 3q-97 0 -170 -54.5t-108 -137t-35 -178.5z" />
    <glyph glyph-name="sterling" unicode="&#xa3;" horiz-adv-x="1486" 
d="M162 -35q-25 0 -38 21q-12 18 -4 39q20 33 52 69.5t69.5 74t45.5 46.5q113 170 178 416h-333l19 73h331q7 23 28 100.5t36 127t33 94.5q67 179 174.5 263t276.5 84q108 0 181 -49t102 -140q4 -23 -8 -39.5t-31 -18.5q-38 -4 -59 45q-64 139 -204 139q-72 0 -126.5 -22
t-92.5 -66.5t-63 -94t-50 -121.5q-17 -50 -46 -152.5t-44 -149.5h371l-17 -73h-379q-57 -187 -138 -324q69 42 147 42q38 0 70.5 -11t65.5 -37t50.5 -43t53.5 -56q38 -42 58.5 -61.5t53.5 -45t67.5 -36t76.5 -10.5q63 0 110.5 41t66.5 100q17 63 -8 174q-6 53 35 59
q23 4 38.5 -12t20.5 -43q13 -47 3 -105q-14 -115 -101.5 -202t-203.5 -87q-57 0 -105 14.5t-87.5 44t-62.5 52.5t-57 62q-36 42 -58 64t-55.5 40.5t-68.5 18.5q-99 0 -194 -102q-22 -30 -49.5 -70.5t-41 -59t-30.5 -38.5t-30.5 -27.5t-28.5 -7.5z" />
    <glyph glyph-name="currency" unicode="&#xa4;" horiz-adv-x="1271" 
d="M249 297l-44 46l128 127q-91 121 -91 252q0 137 94 256l-131 131l44 46l133 -130q120 95 253 95q138 0 256 -95l131 130l45 -46l-130 -129q93 -123 93 -258q0 -131 -92 -250l129 -129l-45 -46l-131 130q-118 -95 -256 -95q-137 0 -254 94zM635 396q135 0 233 96.5
t98 230.5q0 137 -98 235.5t-233 98.5q-134 0 -231 -99t-97 -235q0 -135 96 -231t232 -96z" />
    <glyph glyph-name="yen" unicode="&#xa5;" horiz-adv-x="1558" 
d="M470 0v60h187q44 0 63 22.5t19 67.5v195h-492v58h492v67l-65 108h-427v57h392l-350 579q-24 42 -46 60.5t-54 18.5h-93v60h512v-60h-133q-45 0 -55.5 -28.5t15.5 -68.5l396 -649l389 637q27 45 15 77t-61 32h-124v60h397v-60h-35q-57 0 -103 -79l-355 -579h400v-57h-431
l-66 -104v-71h497v-58h-497v-195q0 -45 18.5 -67.5t61.5 -22.5h188v-60h-655z" />
    <glyph glyph-name="brokenbar" unicode="&#xa6;" horiz-adv-x="770" 
d="M334 567v786h102v-786h-102zM334 -482v791h102v-791h-102z" />
    <glyph glyph-name="section" unicode="&#xa7;" horiz-adv-x="1109" 
d="M546 -497q-147 0 -236 67.5t-96 187.5q-1 29 14.5 44t34.5 15q40 0 51 -55q23 -199 245 -199q115 0 177 57t62 166q0 23 -5 45t-12.5 39.5t-23 37t-28 33t-36.5 31.5t-40 29t-48 30t-50 28.5t-55.5 30t-56.5 31.5q-62 34 -105.5 62.5t-88 65.5t-72 74t-44.5 83.5
t-17 98.5q0 119 72 194.5t214 84.5q-183 119 -183 279q0 149 93 229.5t252 80.5q149 0 237 -68.5t95 -184.5q1 -27 -14.5 -42.5t-36.5 -15.5q-39 0 -51 57q-22 194 -244 194q-119 0 -180.5 -57.5t-61.5 -165.5q0 -34 10 -64.5t33 -58t46 -48.5t64 -46.5t71 -42t82 -44.5
q21 -11 32 -17q55 -30 91.5 -51.5t80.5 -52t71.5 -59.5t52.5 -65t37 -78.5t12 -90.5q0 -137 -77.5 -207t-204.5 -75q180 -121 180 -280q0 -148 -93.5 -227.5t-249.5 -79.5zM627 152q133 -19 206.5 32.5t73.5 157.5q0 59 -31.5 112.5t-93.5 101.5t-132.5 87t-169.5 83
q-134 18 -207 -33t-73 -158q0 -58 31 -111.5t91.5 -101t133 -87.5t171.5 -83z" />
    <glyph glyph-name="dieresis" unicode="&#xa8;" horiz-adv-x="783" 
d="M213 1142q-35 0 -58.5 25t-23.5 56q0 34 24 58t58 24q35 0 58.5 -23.5t23.5 -58.5t-24 -58t-58 -23zM569 1142q-34 0 -58 24.5t-24 56.5q0 34 24 58t58 24t58 -24t24 -58q0 -35 -24 -58t-58 -23z" />
    <glyph glyph-name="copyright" unicode="&#xa9;" horiz-adv-x="1668" 
d="M832 -25q-142 0 -271 55.5t-222.5 149t-149 223.5t-55.5 273q0 142 56 271t149.5 222.5t222.5 149t270 55.5q190 0 351.5 -93.5t256 -254.5t94.5 -350q0 -114 -35.5 -221t-100.5 -193t-151.5 -151t-193.5 -100.5t-221 -35.5zM832 29q132 0 251.5 51.5t206.5 138
t138.5 206.5t51.5 251t-51.5 250.5t-138.5 205.5t-207 137.5t-251 51.5q-174 0 -322 -86t-234.5 -235t-86.5 -324q0 -132 51 -252t137 -206.5t205 -137.5t250 -51zM832 247q-175 0 -293 118.5t-118 307.5q0 188 119 309.5t297 121.5q132 0 239 -66q60 -34 62 30h40v-187h-40
q-40 90 -119 135t-170 45q-104 0 -182.5 -54.5t-116.5 -140t-38 -186.5q0 -172 92.5 -279.5t243.5 -107.5q108 0 190.5 55.5t121.5 143.5l27 -31q-52 -101 -145.5 -157.5t-209.5 -56.5z" />
    <glyph glyph-name="guillemotleft" unicode="&#xab;" horiz-adv-x="992" 
d="M363 0l-308 440l308 441h64l-257 -441l257 -440h-64zM843 0l-309 440l308 441h64l-256 -441l256 -440h-63z" />
    <glyph glyph-name="logicalnot" unicode="&#xac;" horiz-adv-x="1398" 
d="M1064 334v536h-962v87h1049v-623h-87z" />
    <glyph glyph-name="uni00AD" unicode="&#xad;" horiz-adv-x="904" 
d="M156 354v104h592v-104h-592z" />
    <glyph glyph-name="registered" unicode="&#xae;" horiz-adv-x="1668" 
d="M832 1376q142 0 272 -55.5t224 -149t150 -223t56 -271.5q0 -114 -35.5 -221t-100.5 -193t-151.5 -151t-193.5 -100.5t-221 -35.5q-142 0 -271 55.5t-222.5 149t-149 223.5t-55.5 273q0 142 56 271.5t149.5 223t222.5 149t270 55.5zM832 30q132 0 251.5 51.5t206.5 138
t138.5 206.5t51.5 251t-51.5 250.5t-138.5 205.5t-207 137.5t-251 51.5q-174 0 -322 -86t-234.5 -235t-86.5 -324q0 -132 51 -252t137 -206.5t205 -137.5t250 -51zM1178 359q19 -28 48 -28h49v-42h-128l-183 274q-33 51 -61.5 69.5t-70.5 18.5h-158v-279q0 -22 9 -31.5
t31 -9.5h79v-42h-309v42h78q24 0 33 9.5t9 31.5v619q0 22 -9 32.5t-31 10.5h-80v40h394q114 0 183.5 -55t69.5 -155q0 -78 -46.5 -129.5t-126.5 -70.5q35 -28 69 -81zM863 692q92 0 144 43.5t52 127.5q0 81 -51 124t-142 43h-192v-338h189z" />
    <glyph glyph-name="macron" unicode="&#xaf;" horiz-adv-x="1036" 
d="M155 1122v92h725v-92h-725z" />
    <glyph glyph-name="degree" unicode="&#xb0;" horiz-adv-x="1042" 
d="M520 660q-148 0 -253 105t-105 253t105 253t253 105t253 -105t105 -253t-105 -253t-253 -105zM520 733q119 0 202 83t83 202q0 118 -83.5 201.5t-201.5 83.5t-201.5 -83.5t-83.5 -201.5q0 -119 83 -202t202 -83z" />
    <glyph glyph-name="plusminus" unicode="&#xb1;" horiz-adv-x="1333" 
d="M623 358v512h-511v87h511v511h87v-511h512v-87h-512v-512h-87zM112 0v87h1110v-87h-1110z" />
    <glyph glyph-name="acute" unicode="&#xb4;" horiz-adv-x="513" 
d="M104 1030h-54l247 322h185v-4z" />
    <glyph glyph-name="uni00B5" unicode="&#xb5;" horiz-adv-x="1309" 
d="M272 -427v1126q0 83 -73 83h-100v60h292v-549q0 -126 44.5 -183t149.5 -57q55 0 109 30t95.5 78.5t73.5 103.5t51 111v323q0 37 -16.5 60t-48.5 23h-115v60h299v-698q0 -90 77 -75l101 25l9 -60l-306 -57v273q-55 -105 -140.5 -180.5t-180.5 -81.5q-144 -9 -202 65v-480
h-119z" />
    <glyph glyph-name="paragraph" unicode="&#xb6;" horiz-adv-x="1142" 
d="M508 -510v1137q-20 35 -61 63t-86.5 43.5t-94.5 38t-88 47t-64.5 70.5t-25.5 108q0 86 25 149t69.5 102.5t115.5 63t151.5 32t189.5 8.5h441v-42h-45q-103 0 -145 -53t-42 -153v-1614h-57v1811h-225v-1811h-58z" />
    <glyph glyph-name="periodcentered" unicode="&#xb7;" horiz-adv-x="605" 
d="M303 566q-45 0 -77 31.5t-32 79.5q0 46 30.5 76t78.5 30q45 0 76.5 -30.5t31.5 -75.5q0 -48 -31 -79.5t-77 -31.5z" />
    <glyph glyph-name="cedilla" unicode="&#xb8;" horiz-adv-x="605" 
d="M231 -489q-98 0 -197 25l14 60q82 -21 171 -21q112 0 177 37.5t65 93.5q0 14 -4.5 26t-15 20t-20.5 14t-28.5 9.5t-32 6t-37.5 3.5t-38 1.5t-40.5 0.5h-39.5l46 235l65 -8l-34 -161q55 0 96.5 -5.5t80.5 -20t59.5 -44t20.5 -73.5q0 -83 -83 -141t-225 -58z" />
    <glyph glyph-name="guillemotright" unicode="&#xbb;" horiz-adv-x="992" 
d="M149 0h-63l256 440l-256 441h64l308 -441zM629 0h-64l257 440l-257 441h64l308 -441z" />
    <glyph glyph-name="questiondown" unicode="&#xbf;" horiz-adv-x="882" 
d="M537 657q-44 0 -75 31.5t-31 76.5q0 46 31 78t75 32t76 -32t32 -78q0 -45 -31.5 -76.5t-76.5 -31.5zM773 -246q18 -3 29.5 -16.5t8.5 -35.5q-29 -101 -122.5 -167.5t-220.5 -66.5q-164 0 -272 109t-108 263q0 157 92.5 254t223.5 97q52 0 101 -15v220h64v-292h-53
q-39 20 -88 20q-102 0 -162 -83.5t-60 -194.5q0 -76 31 -147.5t94.5 -121t143.5 -49.5q83 0 151 47.5t94 130.5q15 51 53 48z" />
    <glyph glyph-name="Agrave" unicode="&#xc0;" horiz-adv-x="1399" 
d="M731 1438h-54l-378 317v4h185zM1296 61l80 -1v-60h-483v60l124 1q33 1 48 18.5t5 47.5l-120 332h-582l-123 -323q-12 -34 6.5 -54.5t53.5 -20.5l140 -1v-60h-422v60l57 3q77 23 103 93l470 1218h96l444 -1218q15 -43 39 -66.5t64 -28.5zM392 520h536l-244 679h-33z" />
    <glyph glyph-name="Aacute" unicode="&#xc1;" horiz-adv-x="1399" 
d="M1110 1755l-379 -317h-53l246 321h186v-4zM1296 61l80 -1v-60h-483v60l124 1q33 1 48 18.5t5 47.5l-120 332h-582l-123 -323q-12 -34 6.5 -54.5t53.5 -20.5l140 -1v-60h-422v60l57 3q77 23 103 93l470 1218h96l444 -1218q15 -43 39 -66.5t64 -28.5zM392 520h536l-244 679
h-33z" />
    <glyph glyph-name="Acircumflex" unicode="&#xc2;" horiz-adv-x="1399" 
d="M704 1729l-302 -259h-53l263 322h183l263 -322h-53zM1296 61l80 -1v-60h-483v60l124 1q33 1 48 18.5t5 47.5l-120 332h-582l-123 -323q-12 -34 6.5 -54.5t53.5 -20.5l140 -1v-60h-422v60l57 3q77 23 103 93l470 1218h96l444 -1218q15 -43 39 -66.5t64 -28.5zM392 520h536
l-244 679h-33z" />
    <glyph glyph-name="Atilde" unicode="&#xc3;" horiz-adv-x="1399" 
d="M412 1440h-52q-2 116 49 183.5t143 67.5q36 0 71 -14.5t52.5 -27.5t51.5 -41q30 -28 42.5 -38.5t40 -22.5t57.5 -12q59 0 93 44t35 125h53q3 -115 -48 -188t-144 -73q-41 0 -79 15.5t-56.5 29.5t-51.5 43q-24 23 -40.5 35.5t-41.5 23t-52 10.5q-58 0 -90 -43.5
t-33 -116.5zM1296 61l80 -1v-60h-483v60l124 1q33 1 48 18.5t5 47.5l-120 332h-582l-123 -323q-12 -34 6.5 -54.5t53.5 -20.5l140 -1v-60h-422v60l57 3q77 23 103 93l470 1218h96l444 -1218q15 -43 39 -66.5t64 -28.5zM392 520h536l-244 679h-33z" />
    <glyph glyph-name="Adieresis" unicode="&#xc4;" horiz-adv-x="1399" 
d="M525 1524q-35 0 -58.5 25t-23.5 57q0 34 24 57.5t58 23.5t58 -23.5t24 -57.5q0 -36 -24 -59t-58 -23zM881 1524q-34 0 -58 25t-24 57q0 34 24 57.5t58 23.5t58 -23.5t24 -57.5q0 -35 -24 -58.5t-58 -23.5zM1296 61l80 -1v-60h-483v60l124 1q33 1 48 18.5t5 47.5l-120 332
h-582l-123 -323q-12 -34 6.5 -54.5t53.5 -20.5l140 -1v-60h-422v60l57 3q77 23 103 93l470 1218h96l444 -1218q15 -43 39 -66.5t64 -28.5zM392 520h536l-244 679h-33z" />
    <glyph glyph-name="Aring" unicode="&#xc5;" horiz-adv-x="1399" 
d="M704 1446q-74 0 -127 53t-53 129t53 128.5t127 52.5q75 0 128.5 -53t53.5 -128q0 -74 -53.5 -128t-128.5 -54zM704 1759q-53 0 -90.5 -38t-37.5 -93t37.5 -93t90.5 -38q55 0 93 38t38 93t-38 93t-93 38zM1296 61l80 -1v-60h-483v60l124 1q33 1 48 18.5t5 47.5l-120 332
h-582l-123 -323q-12 -34 6.5 -54.5t53.5 -20.5l140 -1v-60h-422v60l57 3q77 23 103 93l470 1218h96l444 -1218q15 -43 39 -66.5t64 -28.5zM392 520h536l-244 679h-33z" />
    <glyph glyph-name="AE" unicode="&#xc6;" horiz-adv-x="2008" 
d="M1830 447l59 -3l-34 -444h-1179v60h125q80 0 80 90v309h-474l-162 -323q-18 -34 2.5 -54.5t57.5 -20.5l140 -1v-60h-422v60l57 3q41 13 62.5 35t40.5 58l598 1196h1021l21 -349l-59 -3l-21 208q-12 47 -37 64t-71 17h-628v-548h416q86 0 86 70v122h60v-460h-60v129
q0 76 -85 76h-417v-518q0 -48 18.5 -72.5t65.5 -24.5h573q59 0 87 20t38 65zM437 520h444l-1 769h-57z" />
    <glyph glyph-name="Ccedilla" unicode="&#xc7;" horiz-adv-x="1516" 
d="M1276 507h60v-472h-60l-16 275q-63 -139 -195 -232t-299 -100l-26 -125q55 0 96.5 -5.5t80.5 -20t59.5 -44t20.5 -73.5q0 -83 -83 -141t-225 -58q-98 0 -197 25l14 60q82 -21 171 -21q112 0 177 37.5t65 93.5q0 14 -4.5 26t-15 20t-20.5 14t-28.5 9.5t-32 6t-37.5 3.5
t-38 1.5t-40.5 0.5h-39.5l37 191q-173 10 -310.5 108t-212 253t-74.5 336q0 139 47.5 266.5t130.5 223t203 152.5t258 57q157 0 293.5 -86.5t220.5 -242.5l12 273h59l3 -465h-59q-20 89 -66 170.5t-111.5 145.5t-153.5 102t-185 38q-116 0 -214 -52.5t-162.5 -141.5
t-100 -205t-35.5 -245q0 -178 65 -320t182.5 -222t267.5 -80q182 0 327 126.5t191 337.5z" />
    <glyph glyph-name="Egrave" unicode="&#xc8;" horiz-adv-x="1393" 
d="M724 1438h-54l-378 317v4h185zM1215 447l59 -3l-34 -444h-1179v60h125q80 0 80 90v1052q0 46 -19.5 68t-67.5 22h-118v60h1126l22 -349l-60 -3l-21 208q-12 47 -37 64t-71 17h-627v-548h415q86 0 86 70v122h61v-460h-61v129q0 76 -84 76h-417v-518q0 -48 18 -72.5
t65 -24.5h574q59 0 86.5 20t37.5 65z" />
    <glyph glyph-name="Eacute" unicode="&#xc9;" horiz-adv-x="1393" 
d="M1103 1755l-379 -317h-53l246 321h186v-4zM1215 447l59 -3l-34 -444h-1179v60h125q80 0 80 90v1052q0 46 -19.5 68t-67.5 22h-118v60h1126l22 -349l-60 -3l-21 208q-12 47 -37 64t-71 17h-627v-548h415q86 0 86 70v122h61v-460h-61v129q0 76 -84 76h-417v-518
q0 -48 18 -72.5t65 -24.5h574q59 0 86.5 20t37.5 65z" />
    <glyph glyph-name="Ecircumflex" unicode="&#xca;" horiz-adv-x="1393" 
d="M697 1729l-302 -259h-53l263 322h183l263 -322h-53zM1215 447l59 -3l-34 -444h-1179v60h125q80 0 80 90v1052q0 46 -19.5 68t-67.5 22h-118v60h1126l22 -349l-60 -3l-21 208q-12 47 -37 64t-71 17h-627v-548h415q86 0 86 70v122h61v-460h-61v129q0 76 -84 76h-417v-518
q0 -48 18 -72.5t65 -24.5h574q59 0 86.5 20t37.5 65z" />
    <glyph glyph-name="Edieresis" unicode="&#xcb;" horiz-adv-x="1393" 
d="M518 1524q-35 0 -58.5 25t-23.5 57q0 34 24 57.5t58 23.5t58 -23.5t24 -57.5q0 -36 -24 -59t-58 -23zM874 1524q-34 0 -58 25t-24 57q0 34 24 57.5t58 23.5t58 -23.5t24 -57.5q0 -35 -24 -58.5t-58 -23.5zM1215 447l59 -3l-34 -444h-1179v60h125q80 0 80 90v1052
q0 46 -19.5 68t-67.5 22h-118v60h1126l22 -349l-60 -3l-21 208q-12 47 -37 64t-71 17h-627v-548h415q86 0 86 70v122h61v-460h-61v129q0 76 -84 76h-417v-518q0 -48 18 -72.5t65 -24.5h574q59 0 86.5 20t37.5 65z" />
    <glyph glyph-name="Igrave" unicode="&#xcc;" horiz-adv-x="746" 
d="M347 1438l-378 317v4h185l247 -321h-54zM63 0v60h159q49 0 68.5 22.5t19.5 67.5v1053q0 45 -19.5 67.5t-68.5 22.5h-159v60h621v-60h-158q-50 0 -70 -21.5t-20 -68.5v-1053q0 -47 20 -68.5t70 -21.5h158v-60h-621z" />
    <glyph glyph-name="Iacute" unicode="&#xcd;" horiz-adv-x="746" 
d="M348 1438l246 321h186v-4l-379 -317h-53zM63 0v60h159q49 0 68.5 22.5t19.5 67.5v1053q0 45 -19.5 67.5t-68.5 22.5h-159v60h621v-60h-158q-50 0 -70 -21.5t-20 -68.5v-1053q0 -47 20 -68.5t70 -21.5h158v-60h-621z" />
    <glyph glyph-name="Icircumflex" unicode="&#xce;" horiz-adv-x="746" 
d="M19 1470l263 322h183l263 -322h-53l-301 259l-302 -259h-53zM63 0v60h159q49 0 68.5 22.5t19.5 67.5v1053q0 45 -19.5 67.5t-68.5 22.5h-159v60h621v-60h-158q-50 0 -70 -21.5t-20 -68.5v-1053q0 -47 20 -68.5t70 -21.5h158v-60h-621z" />
    <glyph glyph-name="Idieresis" unicode="&#xcf;" horiz-adv-x="746" 
d="M195 1524q-35 0 -58.5 25t-23.5 57q0 34 24 57.5t58 23.5t58 -23.5t24 -57.5q0 -36 -24 -59t-58 -23zM551 1524q-34 0 -58 25t-24 57q0 34 24 57.5t58 23.5t58 -23.5t24 -57.5q0 -35 -24 -58.5t-58 -23.5zM63 0v60h159q49 0 68.5 22.5t19.5 67.5v1053q0 45 -19.5 67.5
t-68.5 22.5h-159v60h621v-60h-158q-50 0 -70 -21.5t-20 -68.5v-1053q0 -47 20 -68.5t70 -21.5h158v-60h-621z" />
    <glyph glyph-name="Eth" unicode="&#xd0;" horiz-adv-x="1556" 
d="M695 1352q229 0 399.5 -77.5t265.5 -231t95 -367.5q0 -217 -95.5 -370.5t-265 -229.5t-399.5 -76h-632v60h134q74 0 74 90v494h-210v63h210v496q0 90 -75 90h-133v59h632zM759 63q253 0 404 171t151 442q0 149 -45.5 267.5t-126 194.5t-188.5 116t-236 40h-321v-587h481
v-63h-481v-483q0 -49 19 -73.5t72 -24.5h271z" />
    <glyph glyph-name="Ntilde" unicode="&#xd1;" horiz-adv-x="1564" 
d="M499 1440h-52q-2 116 49 183.5t143 67.5q36 0 71 -14.5t52.5 -27.5t51.5 -41q30 -28 42.5 -38.5t40 -22.5t57.5 -12q59 0 93 44t35 125h53q3 -115 -48 -188t-144 -73q-41 0 -79 15.5t-56.5 29.5t-51.5 43q-24 23 -40.5 35.5t-41.5 23t-52 10.5q-58 0 -90 -43.5
t-33 -116.5zM1052 1352h477v-60h-118q-42 0 -62.5 -29.5t-20.5 -77.5v-1208h-72l-926 1269v-1077q0 -109 90 -109h117v-60h-477v60h118q35 0 56.5 21t26.5 42.5t5 45.5v1021q0 47 -23 74.5t-68 27.5h-116v60h351l854 -1176v1010q0 42 -20.5 74t-67.5 32h-124v60z" />
    <glyph glyph-name="Ograve" unicode="&#xd2;" horiz-adv-x="1490" 
d="M718 1438l-378 317v4h185l247 -321h-54zM746 -23q-190 0 -336 90t-224.5 249.5t-78.5 362.5q0 143 44.5 269t124.5 221t201 150t266 55q149 0 271.5 -56t202.5 -151.5t123.5 -222t43.5 -268.5q0 -145 -44.5 -272.5t-125 -222t-202 -149.5t-266.5 -55zM743 43
q227 0 362 170t135 464q0 295 -135.5 463.5t-360.5 168.5q-152 0 -265 -81t-171.5 -222.5t-58.5 -323.5q0 -104 20 -199t61.5 -175t99.5 -139t138.5 -92.5t174.5 -33.5z" />
    <glyph glyph-name="Oacute" unicode="&#xd3;" horiz-adv-x="1490" 
d="M719 1438l246 321h186v-4l-379 -317h-53zM746 -23q-190 0 -336 90t-224.5 249.5t-78.5 362.5q0 143 44.5 269t124.5 221t201 150t266 55q149 0 271.5 -56t202.5 -151.5t123.5 -222t43.5 -268.5q0 -145 -44.5 -272.5t-125 -222t-202 -149.5t-266.5 -55zM743 43
q227 0 362 170t135 464q0 295 -135.5 463.5t-360.5 168.5q-152 0 -265 -81t-171.5 -222.5t-58.5 -323.5q0 -104 20 -199t61.5 -175t99.5 -139t138.5 -92.5t174.5 -33.5z" />
    <glyph glyph-name="Ocircumflex" unicode="&#xd4;" horiz-adv-x="1490" 
d="M390 1470l263 322h183l263 -322h-53l-301 259l-302 -259h-53zM746 -23q-190 0 -336 90t-224.5 249.5t-78.5 362.5q0 143 44.5 269t124.5 221t201 150t266 55q149 0 271.5 -56t202.5 -151.5t123.5 -222t43.5 -268.5q0 -145 -44.5 -272.5t-125 -222t-202 -149.5t-266.5 -55
zM743 43q227 0 362 170t135 464q0 295 -135.5 463.5t-360.5 168.5q-152 0 -265 -81t-171.5 -222.5t-58.5 -323.5q0 -104 20 -199t61.5 -175t99.5 -139t138.5 -92.5t174.5 -33.5z" />
    <glyph glyph-name="Otilde" unicode="&#xd5;" horiz-adv-x="1490" 
d="M401 1440q-2 116 49 183.5t143 67.5q36 0 71 -14.5t52.5 -27.5t51.5 -41q30 -28 42.5 -38.5t40 -22.5t57.5 -12q59 0 93 44t35 125h53q3 -115 -48 -188t-144 -73q-41 0 -79 15.5t-56.5 29.5t-51.5 43q-24 23 -40.5 35.5t-41.5 23t-52 10.5q-58 0 -90 -43.5t-33 -116.5
h-52zM746 -23q-190 0 -336 90t-224.5 249.5t-78.5 362.5q0 143 44.5 269t124.5 221t201 150t266 55q149 0 271.5 -56t202.5 -151.5t123.5 -222t43.5 -268.5q0 -145 -44.5 -272.5t-125 -222t-202 -149.5t-266.5 -55zM743 43q227 0 362 170t135 464q0 295 -135.5 463.5
t-360.5 168.5q-152 0 -265 -81t-171.5 -222.5t-58.5 -323.5q0 -104 20 -199t61.5 -175t99.5 -139t138.5 -92.5t174.5 -33.5z" />
    <glyph glyph-name="Odieresis" unicode="&#xd6;" horiz-adv-x="1490" 
d="M566 1524q-35 0 -58.5 25t-23.5 57q0 34 24 57.5t58 23.5t58 -23.5t24 -57.5q0 -36 -24 -59t-58 -23zM922 1524q-34 0 -58 25t-24 57q0 34 24 57.5t58 23.5t58 -23.5t24 -57.5q0 -35 -24 -58.5t-58 -23.5zM746 -23q-190 0 -336 90t-224.5 249.5t-78.5 362.5
q0 143 44.5 269t124.5 221t201 150t266 55q149 0 271.5 -56t202.5 -151.5t123.5 -222t43.5 -268.5q0 -145 -44.5 -272.5t-125 -222t-202 -149.5t-266.5 -55zM743 43q227 0 362 170t135 464q0 295 -135.5 463.5t-360.5 168.5q-152 0 -265 -81t-171.5 -222.5t-58.5 -323.5
q0 -104 20 -199t61.5 -175t99.5 -139t138.5 -92.5t174.5 -33.5z" />
    <glyph glyph-name="multiply" unicode="&#xd7;" horiz-adv-x="1081" 
d="M178 223l-61 62l361 362l-361 362l61 61l362 -362l362 362l61 -61l-361 -362l361 -362l-61 -62l-362 362z" />
    <glyph glyph-name="Oslash" unicode="&#xd8;" horiz-adv-x="1490" 
d="M1218 1166q81 -96 123.5 -222t42.5 -268q0 -145 -44.5 -272.5t-125 -222t-202 -149.5t-266.5 -55q-259 0 -431 163l-135 -154l-47 40l140 159q-166 194 -166 494q0 143 44.5 269t124.5 221t201 150t266 55q262 0 432 -164l136 154l45 -41zM249 682q0 -241 101 -410
l759 863q-134 174 -365 174q-152 0 -265 -81t-171.5 -222.5t-58.5 -323.5zM743 43q227 0 362 170t135 464q0 246 -96 405l-759 -863q135 -176 358 -176z" />
    <glyph glyph-name="Ugrave" unicode="&#xd9;" horiz-adv-x="1526" 
d="M730 1438l-378 317v4h185l247 -321h-54zM768 -23q-263 0 -398.5 131.5t-135.5 382.5v711q0 45 -19.5 67.5t-67.5 22.5h-116v60h592v-60h-175q-48 0 -68 -22t-20 -68v-711q0 -445 433 -445q233 0 340.5 115t107.5 340v689q0 46 -22.5 74t-69.5 28h-104v60h436v-60h-93
q-42 0 -62.5 -27.5t-20.5 -73.5v-691q0 -523 -537 -523z" />
    <glyph glyph-name="Uacute" unicode="&#xda;" horiz-adv-x="1526" 
d="M731 1438l246 321h186v-4l-379 -317h-53zM768 -23q-263 0 -398.5 131.5t-135.5 382.5v711q0 45 -19.5 67.5t-67.5 22.5h-116v60h592v-60h-175q-48 0 -68 -22t-20 -68v-711q0 -445 433 -445q233 0 340.5 115t107.5 340v689q0 46 -22.5 74t-69.5 28h-104v60h436v-60h-93
q-42 0 -62.5 -27.5t-20.5 -73.5v-691q0 -523 -537 -523z" />
    <glyph glyph-name="Ucircumflex" unicode="&#xdb;" horiz-adv-x="1526" 
d="M402 1470l263 322h183l263 -322h-53l-301 259l-302 -259h-53zM768 -23q-263 0 -398.5 131.5t-135.5 382.5v711q0 45 -19.5 67.5t-67.5 22.5h-116v60h592v-60h-175q-48 0 -68 -22t-20 -68v-711q0 -445 433 -445q233 0 340.5 115t107.5 340v689q0 46 -22.5 74t-69.5 28
h-104v60h436v-60h-93q-42 0 -62.5 -27.5t-20.5 -73.5v-691q0 -523 -537 -523z" />
    <glyph glyph-name="Udieresis" unicode="&#xdc;" horiz-adv-x="1526" 
d="M578 1524q-35 0 -58.5 25t-23.5 57q0 34 24 57.5t58 23.5t58 -23.5t24 -57.5q0 -36 -24 -59t-58 -23zM934 1524q-34 0 -58 25t-24 57q0 34 24 57.5t58 23.5t58 -23.5t24 -57.5q0 -35 -24 -58.5t-58 -23.5zM768 -23q-263 0 -398.5 131.5t-135.5 382.5v711q0 45 -19.5 67.5
t-67.5 22.5h-116v60h592v-60h-175q-48 0 -68 -22t-20 -68v-711q0 -445 433 -445q233 0 340.5 115t107.5 340v689q0 46 -22.5 74t-69.5 28h-104v60h436v-60h-93q-42 0 -62.5 -27.5t-20.5 -73.5v-691q0 -523 -537 -523z" />
    <glyph glyph-name="Yacute" unicode="&#xdd;" horiz-adv-x="1419" 
d="M687 1438l246 321h186v-4l-379 -317h-53zM402 0v60h185q48 0 67 22.5t19 66.5v321l-454 743q-23 41 -46.5 60t-56.5 19h-94v60h526v-60h-134q-46 0 -55 -29t17 -69l396 -647l389 632q29 49 17 81t-63 32h-109v60h391v-60h-39q-58 0 -104 -81l-455 -735v-326
q0 -45 19 -67.5t68 -22.5h184v-60h-668z" />
    <glyph glyph-name="Thorn" unicode="&#xde;" horiz-adv-x="1221" 
d="M62 0v60h115q49 0 68.5 22t19.5 68v1053q0 46 -19.5 68t-68.5 22h-114v60h532v-60h-114q-90 0 -90 -71v-79h312q215 0 332.5 -91t117.5 -267q0 -174 -113.5 -269.5t-324.5 -95.5h-322v-270q0 -43 19 -66.5t70 -23.5h118v-60h-538zM393 483h313q154 0 233 76t79 224
q0 146 -77 224t-234 78h-314v-602z" />
    <glyph glyph-name="germandbls" unicode="&#xdf;" horiz-adv-x="1212" 
d="M821 -20q-58 0 -99 16.5t-60 43.5t-27 52t-8 50q0 18 8 29t20 11q24 0 24 -32q5 -113 126 -113q99 0 150 81t51 231q0 347 -425 344v60q58 1 101.5 7t86.5 23.5t71 47.5t45 80.5t17 119.5q0 139 -71.5 214.5t-217.5 75.5q-156 0 -227.5 -98.5t-71.5 -290.5l4 -795
q0 -77 63 -77h170v-60h-517v60h92q41 0 57 21t16 61l-3 746q-1 111 19.5 197.5t67 155t130 105t200.5 36.5q201 0 302.5 -91.5t101.5 -255.5q0 -124 -64.5 -200.5t-162.5 -105.5q161 -25 249.5 -120t88.5 -253q0 -175 -84 -275.5t-223 -100.5z" />
    <glyph glyph-name="agrave" unicode="&#xe0;" horiz-adv-x="1033" 
d="M465 1030l-378 318v4h185l247 -322h-54zM300 -20q-101 0 -151 50t-50 136q0 92 57 150t169 113l351 173q-8 115 -58 159t-159 44q-116 0 -173 -43t-83 -116q-12 -52 -58 -48q-23 2 -33.5 17.5t-6.5 38.5q11 40 34.5 75t65.5 67.5t112.5 51t163.5 18.5q57 0 102.5 -7.5
t86.5 -27.5t68 -52t43 -84t15 -121l-1 -352q0 -92 19.5 -132t61.5 -40q80 0 84 133h52q-1 -100 -46 -151.5t-123 -51.5q-79 0 -115.5 50.5t-45.5 158.5q-185 -209 -382 -209zM341 50q173 0 336 218l1 270l-325 -169q-79 -42 -109.5 -85.5t-30.5 -99.5q0 -134 128 -134z" />
    <glyph glyph-name="aacute" unicode="&#xe1;" horiz-adv-x="1033" 
d="M465 1030h-54l247 322h185v-4zM300 -20q-101 0 -151 50t-50 136q0 92 57 150t169 113l351 173q-8 115 -58 159t-159 44q-116 0 -173 -43t-83 -116q-12 -52 -58 -48q-23 2 -33.5 17.5t-6.5 38.5q11 40 34.5 75t65.5 67.5t112.5 51t163.5 18.5q57 0 102.5 -7.5t86.5 -27.5
t68 -52t43 -84t15 -121l-1 -352q0 -92 19.5 -132t61.5 -40q80 0 84 133h52q-1 -100 -46 -151.5t-123 -51.5q-79 0 -115.5 50.5t-45.5 158.5q-185 -209 -382 -209zM341 50q173 0 336 218l1 270l-325 -169q-79 -42 -109.5 -85.5t-30.5 -99.5q0 -134 128 -134z" />
    <glyph glyph-name="acircumflex" unicode="&#xe2;" horiz-adv-x="1033" 
d="M110 1030l269 322h171l269 -322h-53l-301 259l-302 -259h-53zM300 -20q-101 0 -151 50t-50 136q0 92 57 150t169 113l351 173q-8 115 -58 159t-159 44q-116 0 -173 -43t-83 -116q-12 -52 -58 -48q-23 2 -33.5 17.5t-6.5 38.5q11 40 34.5 75t65.5 67.5t112.5 51
t163.5 18.5q57 0 102.5 -7.5t86.5 -27.5t68 -52t43 -84t15 -121l-1 -352q0 -92 19.5 -132t61.5 -40q80 0 84 133h52q-1 -100 -46 -151.5t-123 -51.5q-79 0 -115.5 50.5t-45.5 158.5q-185 -209 -382 -209zM341 50q173 0 336 218l1 270l-325 -169q-79 -42 -109.5 -85.5
t-30.5 -99.5q0 -134 128 -134z" />
    <glyph glyph-name="atilde" unicode="&#xe3;" horiz-adv-x="1033" 
d="M121 1004q-2 117 49 184.5t143 67.5q36 0 71.5 -15t52 -27.5t51.5 -41.5q2 -2 12.5 -11.5t12.5 -11.5t11.5 -10t13 -10t12 -8t13.5 -8t14 -5.5t16 -5t16 -2.5t19 -1q59 0 93 44t35 125h53q3 -115 -48 -188t-144 -73q-41 0 -79 15.5t-56.5 29.5t-51.5 43
q-25 24 -40.5 36.5t-41 23t-52.5 10.5q-59 0 -90.5 -44t-32.5 -117h-52zM300 -20q-101 0 -151 50t-50 136q0 92 57 150t169 113l351 173q-8 115 -58 159t-159 44q-116 0 -173 -43t-83 -116q-12 -52 -58 -48q-23 2 -33.5 17.5t-6.5 38.5q11 40 34.5 75t65.5 67.5t112.5 51
t163.5 18.5q57 0 102.5 -7.5t86.5 -27.5t68 -52t43 -84t15 -121l-1 -352q0 -92 19.5 -132t61.5 -40q80 0 84 133h52q-1 -100 -46 -151.5t-123 -51.5q-79 0 -115.5 50.5t-45.5 158.5q-185 -209 -382 -209zM341 50q173 0 336 218l1 270l-325 -169q-79 -42 -109.5 -85.5
t-30.5 -99.5q0 -134 128 -134z" />
    <glyph glyph-name="adieresis" unicode="&#xe4;" horiz-adv-x="1033" 
d="M285 1142q-35 0 -58.5 25t-23.5 56q0 34 24 58t58 24q35 0 58.5 -23.5t23.5 -58.5t-24 -58t-58 -23zM641 1142q-34 0 -58 24.5t-24 56.5q0 34 24 58t58 24t58 -24t24 -58q0 -35 -24 -58t-58 -23zM300 -20q-101 0 -151 50t-50 136q0 92 57 150t169 113l351 173
q-8 115 -58 159t-159 44q-116 0 -173 -43t-83 -116q-12 -52 -58 -48q-23 2 -33.5 17.5t-6.5 38.5q11 40 34.5 75t65.5 67.5t112.5 51t163.5 18.5q57 0 102.5 -7.5t86.5 -27.5t68 -52t43 -84t15 -121l-1 -352q0 -92 19.5 -132t61.5 -40q80 0 84 133h52q-1 -100 -46 -151.5
t-123 -51.5q-79 0 -115.5 50.5t-45.5 158.5q-185 -209 -382 -209zM341 50q173 0 336 218l1 270l-325 -169q-79 -42 -109.5 -85.5t-30.5 -99.5q0 -134 128 -134z" />
    <glyph glyph-name="aring" unicode="&#xe5;" horiz-adv-x="1033" 
d="M465 965q-76 0 -129 53t-53 130q0 76 53 129.5t129 53.5t129.5 -53.5t53.5 -129.5t-53.5 -129.5t-129.5 -53.5zM465 1016q56 0 94 38t38 94t-38 94t-94 38q-55 0 -92.5 -38t-37.5 -94t37.5 -94t92.5 -38zM300 -20q-101 0 -151 50t-50 136q0 92 57 150t169 113l351 173
q-8 115 -58 159t-159 44q-116 0 -173 -43t-83 -116q-12 -52 -58 -48q-23 2 -33.5 17.5t-6.5 38.5q11 40 34.5 75t65.5 67.5t112.5 51t163.5 18.5q57 0 102.5 -7.5t86.5 -27.5t68 -52t43 -84t15 -121l-1 -352q0 -92 19.5 -132t61.5 -40q80 0 84 133h52q-1 -100 -46 -151.5
t-123 -51.5q-79 0 -115.5 50.5t-45.5 158.5q-185 -209 -382 -209zM341 50q173 0 336 218l1 270l-325 -169q-79 -42 -109.5 -85.5t-30.5 -99.5q0 -134 128 -134z" />
    <glyph glyph-name="ae" unicode="&#xe6;" horiz-adv-x="1578" 
d="M1126 41q96 0 172.5 52t118.5 143l53 -28q-51 -107 -148.5 -169.5t-220.5 -62.5q-129 0 -229.5 67t-149.5 183q-127 -138 -218 -192t-204 -54q-101 0 -151 50t-50 136q0 92 57 150t169 113l351 173q-8 115 -58 159t-159 44q-116 0 -173 -43t-83 -116q-12 -52 -58 -48
q-23 2 -33.5 17.5t-6.5 38.5q11 40 34.5 75t65.5 67.5t112.5 51t163.5 18.5q114 0 189 -34.5t106 -120.5q57 74 140.5 114.5t181.5 40.5q107 0 196.5 -48.5t148 -148t61.5 -233.5h-697q0 -79 20.5 -149.5t59.5 -125.5t100.5 -87.5t138.5 -32.5zM1098 805q-122 0 -199 -90
t-90 -221h581q-14 132 -91.5 221.5t-200.5 89.5zM677 268l1 270l-325 -169q-79 -42 -109.5 -85.5t-30.5 -99.5q0 -66 33.5 -100t96.5 -34q84 0 170.5 57t163.5 161z" />
    <glyph glyph-name="ccedilla" unicode="&#xe7;" horiz-adv-x="954" 
d="M512 -24h-16l-26 -123q55 0 96.5 -5.5t80.5 -20t59.5 -44t20.5 -73.5q0 -83 -83 -141t-225 -58q-98 0 -197 25l14 60q82 -21 171 -21q112 0 177 37.5t65 93.5q0 14 -4.5 26t-15 20t-20.5 14t-28.5 9.5t-32 6t-37.5 3.5t-38 1.5t-40.5 0.5h-39.5l38 196
q-156 27 -252.5 145t-96.5 289q0 196 126 322.5t315 126.5q74 0 141 -20.5t121.5 -65.5t77.5 -109q5 -25 -5 -43.5t-32 -20.5q-18 -1 -31 8t-19 19.5t-12 28.5q-38 66 -100 104.5t-145 38.5q-97 0 -170 -54.5t-108 -137t-35 -178.5q0 -180 89 -287t236 -107q109 0 187 58.5
t116 150.5l54 -25q-50 -115 -143.5 -182.5t-232.5 -67.5z" />
    <glyph glyph-name="egrave" unicode="&#xe8;" horiz-adv-x="979" 
d="M489 1030l-378 318v4h185l247 -322h-54zM502 -24q-181 0 -299.5 125.5t-118.5 321.5q0 194 118.5 318.5t295.5 124.5q79 0 151 -29t128.5 -82t91 -135.5t36.5 -183.5h-697q0 -106 34.5 -194t108.5 -144.5t175 -56.5q96 0 173 52t119 143l52 -28q-50 -107 -147.5 -169.5
t-220.5 -62.5zM209 494h581q-14 132 -91 221.5t-200 89.5q-122 0 -199 -90t-91 -221z" />
    <glyph glyph-name="eacute" unicode="&#xe9;" horiz-adv-x="979" 
d="M489 1030h-54l247 322h185v-4zM502 -24q-181 0 -299.5 125.5t-118.5 321.5q0 194 118.5 318.5t295.5 124.5q79 0 151 -29t128.5 -82t91 -135.5t36.5 -183.5h-697q0 -106 34.5 -194t108.5 -144.5t175 -56.5q96 0 173 52t119 143l52 -28q-50 -107 -147.5 -169.5
t-220.5 -62.5zM209 494h581q-14 132 -91 221.5t-200 89.5q-122 0 -199 -90t-91 -221z" />
    <glyph glyph-name="ecircumflex" unicode="&#xea;" horiz-adv-x="979" 
d="M134 1030l269 322h171l269 -322h-53l-301 259l-302 -259h-53zM502 -24q-181 0 -299.5 125.5t-118.5 321.5q0 194 118.5 318.5t295.5 124.5q79 0 151 -29t128.5 -82t91 -135.5t36.5 -183.5h-697q0 -106 34.5 -194t108.5 -144.5t175 -56.5q96 0 173 52t119 143l52 -28
q-50 -107 -147.5 -169.5t-220.5 -62.5zM209 494h581q-14 132 -91 221.5t-200 89.5q-122 0 -199 -90t-91 -221z" />
    <glyph glyph-name="edieresis" unicode="&#xeb;" horiz-adv-x="979" 
d="M309 1142q-35 0 -58.5 25t-23.5 56q0 34 24 58t58 24q35 0 58.5 -23.5t23.5 -58.5t-24 -58t-58 -23zM665 1142q-34 0 -58 24.5t-24 56.5q0 34 24 58t58 24t58 -24t24 -58q0 -35 -24 -58t-58 -23zM502 -24q-181 0 -299.5 125.5t-118.5 321.5q0 194 118.5 318.5
t295.5 124.5q79 0 151 -29t128.5 -82t91 -135.5t36.5 -183.5h-697q0 -106 34.5 -194t108.5 -144.5t175 -56.5q96 0 173 52t119 143l52 -28q-50 -107 -147.5 -169.5t-220.5 -62.5zM209 494h581q-14 132 -91 221.5t-200 89.5q-122 0 -199 -90t-91 -221z" />
    <glyph glyph-name="igrave" unicode="&#xec;" horiz-adv-x="572" 
d="M292 1030l-378 318v4h185l247 -322h-54zM63 0v60h107q42 0 59.5 19.5t17.5 63.5v550q0 91 -82 77l-102 -26l-9 59l311 70v-730q0 -83 72 -83h118v-60h-492z" />
    <glyph glyph-name="iacute" unicode="&#xed;" horiz-adv-x="572" 
d="M292 1030h-54l247 322h185v-4zM63 0v60h107q42 0 59.5 19.5t17.5 63.5v550q0 91 -82 77l-102 -26l-9 59l311 70v-730q0 -83 72 -83h118v-60h-492z" />
    <glyph glyph-name="icircumflex" unicode="&#xee;" horiz-adv-x="572" 
d="M-63 1030l269 322h171l269 -322h-53l-301 259l-302 -259h-53zM63 0v60h107q42 0 59.5 19.5t17.5 63.5v550q0 91 -82 77l-102 -26l-9 59l311 70v-730q0 -83 72 -83h118v-60h-492z" />
    <glyph glyph-name="idieresis" unicode="&#xef;" horiz-adv-x="572" 
d="M112 1142q-35 0 -58.5 25t-23.5 56q0 34 24 58t58 24t58 -23.5t24 -58.5t-24 -58t-58 -23zM468 1142q-34 0 -58 24.5t-24 56.5q0 34 24 58t58 24t58 -24t24 -58q0 -35 -24 -58t-58 -23zM63 0v60h107q42 0 59.5 19.5t17.5 63.5v550q0 91 -82 77l-102 -26l-9 59l311 70
v-730q0 -83 72 -83h118v-60h-492z" />
    <glyph glyph-name="eth" unicode="&#xf0;" horiz-adv-x="1034" 
d="M961 1205l-170 -57q131 -199 131 -588q0 -283 -118 -433t-316 -150q-171 0 -285.5 120t-114.5 320q0 107 31 190.5t86.5 135t127 77.5t156.5 26q233 0 309 -230q-4 343 -94 502l-315 -106l-19 57l299 101q-115 148 -347 140l-7 63q290 0 439 -175l189 64zM489 38
q270 0 308 393q-41 354 -289 354q-149 0 -224 -99.5t-75 -283.5q0 -166 74 -265t206 -99z" />
    <glyph glyph-name="ntilde" unicode="&#xf1;" horiz-adv-x="1196" 
d="M252 1004q-2 117 49 184.5t143 67.5q36 0 71.5 -15t52 -27.5t51.5 -41.5q2 -2 12.5 -11.5t12.5 -11.5t11.5 -10t13 -10t12 -8t13.5 -8t14 -5.5t16 -5t16 -2.5t19 -1q59 0 93 44t35 125h53q3 -115 -48 -188t-144 -73q-41 0 -79 15.5t-56.5 29.5t-51.5 43
q-25 24 -40.5 36.5t-41 23t-52.5 10.5q-59 0 -90.5 -44t-32.5 -117h-52zM65 0v60h104q41 0 57.5 21t16.5 62v545q0 91 -77 76l-101 -26l-9 60l306 72v-278q64 116 160 195t203 79q141 0 209.5 -76.5t68.5 -239.5v-407q0 -83 73 -83h101v-60h-477v60h117q68 0 68 83v406
q0 126 -44.5 183t-149.5 57q-72 0 -141.5 -52.5t-115.5 -123.5t-72 -147v-323q0 -37 16.5 -60t49.5 -23h114v-60h-477z" />
    <glyph glyph-name="ograve" unicode="&#xf2;" horiz-adv-x="1032" 
d="M517 1030l-378 318v4h185l247 -322h-54zM516 -24q-30 0 -63 4.5t-76 18t-82.5 34t-78 56t-67 80.5t-46 110.5t-17.5 143.5q0 93 27 169t70.5 126t101 84t115.5 49t116 15q56 0 112.5 -14t114.5 -48t102.5 -83.5t72.5 -126.5t28 -171q0 -102 -31 -183.5t-77.5 -129.5
t-107 -79.5t-113 -43t-101.5 -11.5zM517 37q38 0 78.5 12.5t81.5 42t73 72.5t52.5 110t20.5 148q0 178 -89 280.5t-218 102.5q-128 0 -217.5 -102t-89.5 -277q0 -82 20 -149.5t52.5 -111t74 -73.5t82 -42.5t79.5 -12.5z" />
    <glyph glyph-name="oacute" unicode="&#xf3;" horiz-adv-x="1032" 
d="M517 1030h-54l247 322h185v-4zM516 -24q-30 0 -63 4.5t-76 18t-82.5 34t-78 56t-67 80.5t-46 110.5t-17.5 143.5q0 93 27 169t70.5 126t101 84t115.5 49t116 15q56 0 112.5 -14t114.5 -48t102.5 -83.5t72.5 -126.5t28 -171q0 -102 -31 -183.5t-77.5 -129.5t-107 -79.5
t-113 -43t-101.5 -11.5zM517 37q38 0 78.5 12.5t81.5 42t73 72.5t52.5 110t20.5 148q0 178 -89 280.5t-218 102.5q-128 0 -217.5 -102t-89.5 -277q0 -82 20 -149.5t52.5 -111t74 -73.5t82 -42.5t79.5 -12.5z" />
    <glyph glyph-name="ocircumflex" unicode="&#xf4;" horiz-adv-x="1032" 
d="M162 1030l269 322h171l269 -322h-53l-301 259l-302 -259h-53zM516 -24q-30 0 -63 4.5t-76 18t-82.5 34t-78 56t-67 80.5t-46 110.5t-17.5 143.5q0 93 27 169t70.5 126t101 84t115.5 49t116 15q56 0 112.5 -14t114.5 -48t102.5 -83.5t72.5 -126.5t28 -171
q0 -102 -31 -183.5t-77.5 -129.5t-107 -79.5t-113 -43t-101.5 -11.5zM517 37q38 0 78.5 12.5t81.5 42t73 72.5t52.5 110t20.5 148q0 178 -89 280.5t-218 102.5q-128 0 -217.5 -102t-89.5 -277q0 -82 20 -149.5t52.5 -111t74 -73.5t82 -42.5t79.5 -12.5z" />
    <glyph glyph-name="otilde" unicode="&#xf5;" horiz-adv-x="1032" 
d="M173 1004q-2 117 49 184.5t143 67.5q36 0 71.5 -15t52 -27.5t51.5 -41.5q2 -2 12.5 -11.5t12.5 -11.5t11.5 -10t13 -10t12 -8t13.5 -8t14 -5.5t16 -5t16 -2.5t19 -1q59 0 93 44t35 125h53q3 -115 -48 -188t-144 -73q-41 0 -79 15.5t-56.5 29.5t-51.5 43
q-25 24 -40.5 36.5t-41 23t-52.5 10.5q-59 0 -90.5 -44t-32.5 -117h-52zM516 -24q-30 0 -63 4.5t-76 18t-82.5 34t-78 56t-67 80.5t-46 110.5t-17.5 143.5q0 93 27 169t70.5 126t101 84t115.5 49t116 15q56 0 112.5 -14t114.5 -48t102.5 -83.5t72.5 -126.5t28 -171
q0 -102 -31 -183.5t-77.5 -129.5t-107 -79.5t-113 -43t-101.5 -11.5zM517 37q38 0 78.5 12.5t81.5 42t73 72.5t52.5 110t20.5 148q0 178 -89 280.5t-218 102.5q-128 0 -217.5 -102t-89.5 -277q0 -82 20 -149.5t52.5 -111t74 -73.5t82 -42.5t79.5 -12.5z" />
    <glyph glyph-name="odieresis" unicode="&#xf6;" horiz-adv-x="1032" 
d="M337 1142q-35 0 -58.5 25t-23.5 56q0 34 24 58t58 24q35 0 58.5 -23.5t23.5 -58.5t-24 -58t-58 -23zM693 1142q-34 0 -58 24.5t-24 56.5q0 34 24 58t58 24t58 -24t24 -58q0 -35 -24 -58t-58 -23zM516 -24q-30 0 -63 4.5t-76 18t-82.5 34t-78 56t-67 80.5t-46 110.5
t-17.5 143.5q0 93 27 169t70.5 126t101 84t115.5 49t116 15q56 0 112.5 -14t114.5 -48t102.5 -83.5t72.5 -126.5t28 -171q0 -102 -31 -183.5t-77.5 -129.5t-107 -79.5t-113 -43t-101.5 -11.5zM517 37q38 0 78.5 12.5t81.5 42t73 72.5t52.5 110t20.5 148q0 178 -89 280.5
t-218 102.5q-128 0 -217.5 -102t-89.5 -277q0 -82 20 -149.5t52.5 -111t74 -73.5t82 -42.5t79.5 -12.5z" />
    <glyph glyph-name="divide" unicode="&#xf7;" horiz-adv-x="1310" 
d="M648 1003q-39 0 -65.5 27t-26.5 66q0 37 27 64.5t65 27.5q37 0 64.5 -27.5t27.5 -64.5q0 -39 -27 -66t-65 -27zM93 632v87h1110v-87h-1110zM648 164q-39 0 -65.5 26.5t-26.5 65.5q0 38 26.5 65t65.5 27q38 0 65 -27t27 -65q0 -39 -27 -65.5t-65 -26.5z" />
    <glyph glyph-name="oslash" unicode="&#xf8;" horiz-adv-x="1032" 
d="M832 735q114 -119 114 -312q0 -102 -31 -183.5t-77.5 -129.5t-107 -79.5t-113 -43t-101.5 -11.5q-60 0 -133 20.5t-137 67.5l-110 -126l-46 40l110 126q-114 117 -114 319q0 93 27 169t70.5 126t101 84t115.5 49t116 15q150 0 270 -90l112 128l45 -41zM209 426
q0 -145 61 -242l458 525q-85 96 -212 96q-128 0 -217.5 -102t-89.5 -277zM517 37q38 0 78.5 12.5t81.5 42t73 72.5t52.5 110t20.5 148q0 139 -58 237l-458 -525q45 -48 101.5 -72.5t108.5 -24.5z" />
    <glyph glyph-name="ugrave" unicode="&#xf9;" horiz-adv-x="1163" 
d="M581 1030l-378 318v4h185l247 -322h-54zM472 -24q-141 0 -210 76.5t-69 238.5v408q0 83 -73 83h-100v60h292v-549q0 -126 44.5 -183t149.5 -57q72 0 141.5 52.5t115.5 123.5t72 147v323q0 37 -16.5 60t-48.5 23h-115v60h299v-698q0 -90 77 -75l101 25l9 -60l-306 -57v273
q-64 -116 -160 -195t-203 -79z" />
    <glyph glyph-name="uacute" unicode="&#xfa;" horiz-adv-x="1163" 
d="M581 1030h-54l247 322h185v-4zM472 -24q-141 0 -210 76.5t-69 238.5v408q0 83 -73 83h-100v60h292v-549q0 -126 44.5 -183t149.5 -57q72 0 141.5 52.5t115.5 123.5t72 147v323q0 37 -16.5 60t-48.5 23h-115v60h299v-698q0 -90 77 -75l101 25l9 -60l-306 -57v273
q-64 -116 -160 -195t-203 -79z" />
    <glyph glyph-name="ucircumflex" unicode="&#xfb;" horiz-adv-x="1163" 
d="M226 1030l269 322h171l269 -322h-53l-301 259l-302 -259h-53zM472 -24q-141 0 -210 76.5t-69 238.5v408q0 83 -73 83h-100v60h292v-549q0 -126 44.5 -183t149.5 -57q72 0 141.5 52.5t115.5 123.5t72 147v323q0 37 -16.5 60t-48.5 23h-115v60h299v-698q0 -90 77 -75
l101 25l9 -60l-306 -57v273q-64 -116 -160 -195t-203 -79z" />
    <glyph glyph-name="udieresis" unicode="&#xfc;" horiz-adv-x="1163" 
d="M401 1142q-35 0 -58.5 25t-23.5 56q0 34 24 58t58 24q35 0 58.5 -23.5t23.5 -58.5t-24 -58t-58 -23zM757 1142q-34 0 -58 24.5t-24 56.5q0 34 24 58t58 24t58 -24t24 -58q0 -35 -24 -58t-58 -23zM472 -24q-141 0 -210 76.5t-69 238.5v408q0 83 -73 83h-100v60h292v-549
q0 -126 44.5 -183t149.5 -57q72 0 141.5 52.5t115.5 123.5t72 147v323q0 37 -16.5 60t-48.5 23h-115v60h299v-698q0 -90 77 -75l101 25l9 -60l-306 -57v273q-64 -116 -160 -195t-203 -79z" />
    <glyph glyph-name="yacute" unicode="&#xfd;" horiz-adv-x="1061" 
d="M532 1030h-54l247 322h185v-4zM213 -462q-29 -2 -46 11t-18 37q-1 23 15.5 35.5t39.5 17.5q97 21 169 80t133 187l40 87l-407 720q-21 39 -40 54t-47 15h-54v60h403v-60h-84q-41 0 -49.5 -25.5t12.5 -61.5l325 -579l261 564q45 102 -38 102h-98v60h331v-60h-27
q-30 0 -51.5 -18.5t-41.5 -66.5l-384 -828q-75 -161 -155 -237t-189 -94z" />
    <glyph glyph-name="thorn" unicode="&#xfe;" horiz-adv-x="1081" 
d="M-12 -497v60h108q72 0 72 83v1557q0 88 -84 76l-96 -25l-8 59l305 69v-648q61 62 140 97t164 35q169 0 290.5 -127t121.5 -315q0 -190 -123.5 -319t-294.5 -129t-296 125v-455q0 -41 17.5 -62t62.5 -21h117v-60h-496zM552 47q96 0 172.5 56.5t115 140.5t38.5 175
q0 153 -91.5 264t-230.5 111q-79 0 -150.5 -38.5t-118.5 -104.5v-471q50 -63 121 -98t144 -35z" />
    <glyph glyph-name="ydieresis" unicode="&#xff;" horiz-adv-x="1061" 
d="M352 1142q-35 0 -58.5 25t-23.5 56q0 34 24 58t58 24t58 -23.5t24 -58.5t-24 -58t-58 -23zM708 1142q-34 0 -58 24.5t-24 56.5q0 34 24 58t58 24t58 -24t24 -58q0 -35 -24 -58t-58 -23zM213 -462q-29 -2 -46 11t-18 37q-1 23 15.5 35.5t39.5 17.5q97 21 169 80t133 187
l40 87l-407 720q-21 39 -40 54t-47 15h-54v60h403v-60h-84q-41 0 -49.5 -25.5t12.5 -61.5l325 -579l261 564q45 102 -38 102h-98v60h331v-60h-27q-30 0 -51.5 -18.5t-41.5 -66.5l-384 -828q-75 -161 -155 -237t-189 -94z" />
    <glyph glyph-name="dotlessi" unicode="&#x131;" horiz-adv-x="572" 
d="M63 0v60h107q42 0 59.5 19.5t17.5 63.5v550q0 91 -82 77l-102 -26l-9 59l311 70v-730q0 -83 72 -83h118v-60h-492z" />
    <glyph glyph-name="Lslash" unicode="&#x141;" horiz-adv-x="1319" 
d="M1186 449l59 -3l-34 -446h-1148v60h162q45 0 65 20.5t20 69.5v349l-228 -175v88l228 175v615q0 46 -19 68t-67 22h-161v60h623v-60h-161q-48 0 -68 -21.5t-20 -68.5v-517l446 342v-87l-446 -343v-439q0 -49 18.5 -72t70.5 -23h483q122 0 148 117z" />
    <glyph glyph-name="lslash" unicode="&#x142;" horiz-adv-x="525" 
d="M583 904l-262 -201v-560q0 -83 64 -83h119v-60h-481v60h107q40 0 56.5 20.5t16.5 62.5v470l-263 -202v81l263 202v511q0 93 -79 77l-101 -26l-9 60l307 69v-600l262 201v-82z" />
    <glyph glyph-name="OE" unicode="&#x152;" horiz-adv-x="2285" 
d="M834 0q-221 0 -385.5 77.5t-256 231.5t-91.5 367q0 210 91.5 362.5t256 231.5t385.5 81l1245 1l21 -349l-59 -3l-21 208q-12 47 -37 64t-71 17h-570q-58 -10 -58 -86v-462h416q86 0 86 70v122h60v-460h-60v129q0 76 -85 76h-417v-518q0 -48 18.5 -72.5t65.5 -24.5h573
q59 0 87 20t38 65l41 299l59 -3l-34 -444h-1298zM807 63h283q68 0 68 92v1047q0 90 -65 90h-273q-121 0 -225.5 -40t-183.5 -115.5t-124.5 -194t-45.5 -266.5q0 -178 67 -316t196.5 -217.5t302.5 -79.5z" />
    <glyph glyph-name="oe" unicode="&#x153;" horiz-adv-x="1727" 
d="M1276 41q96 0 173 52t119 143l52 -28q-50 -107 -147.5 -169.5t-220.5 -62.5q-117 0 -211.5 56t-148.5 155q-32 -58 -80.5 -101.5t-102 -66t-101.5 -33t-92 -10.5q-30 0 -63 4.5t-76 18t-82.5 34t-78 56t-67 80.5t-46 110.5t-17.5 143.5q0 93 27 169t70.5 126t101 84
t115.5 49t116 15q67 0 134 -20t134 -69.5t107 -121.5q53 99 147 155t210 56q79 0 151 -29t128.5 -82t91 -135.5t36.5 -183.5h-697q0 -106 34.5 -194t108.5 -144.5t175 -56.5zM517 37q38 0 78.5 12.5t81.5 42t73 72.5t52.5 110t20.5 148q0 178 -89 280.5t-218 102.5
q-128 0 -217.5 -102t-89.5 -277q0 -82 20 -149.5t52.5 -111t74 -73.5t82 -42.5t79.5 -12.5zM1249 805q-122 0 -199 -90t-90 -221h581q-14 132 -91.5 221.5t-200.5 89.5z" />
    <glyph glyph-name="Scaron" unicode="&#x160;" horiz-adv-x="1165" 
d="M503 1456l-269 322h53l301 -259l302 259h53l-269 -322h-171zM652 -23q-148 0 -262.5 64t-173.5 184l-9 -204h-63v465h63q7 -197 122 -320t313 -123q50 0 100.5 17t96.5 50t75 90.5t29 129.5q0 54 -18.5 98t-46 73.5t-76 56.5t-90.5 43.5t-109 38.5q-185 67 -254 107
q-140 79 -171 203q-10 41 -10 89q0 146 107.5 241.5t265.5 95.5q109 0 205.5 -55.5t151.5 -149.5l9 182h61v-397h-61q-10 156 -114.5 256.5t-244.5 100.5q-126 0 -201.5 -69t-75.5 -169q0 -53 20 -95.5t43 -69t81.5 -55.5t92.5 -42t120 -43q7 -3 11 -4q54 -18 89 -31t83 -35
t79 -42.5t64.5 -51.5t53 -65t32.5 -79.5t13 -98.5q0 -79 -26.5 -145.5t-69 -109.5t-96.5 -73.5t-107 -44t-102 -13.5z" />
    <glyph glyph-name="scaron" unicode="&#x161;" horiz-adv-x="1001" 
d="M587 1030h-171l-269 322h53l301 -259l302 259h53zM509 506q56 -7 95 -14t89 -19.5t84 -31t64.5 -45t46 -65t15.5 -86.5q0 -129 -104 -199t-267 -70q-112 0 -199 32.5t-134 85.5l-26 -118h-46l-2 261h58q38 -97 131.5 -149t220.5 -52q122 0 199 48t77 135q0 39 -18 67.5
t-43 45.5t-71 29.5t-81 18t-94 12.5q-39 5 -63 8t-60.5 9.5t-60 13t-53.5 16.5t-49 22t-39 29t-31.5 36.5t-19 45.5t-7.5 56q0 113 91.5 175.5t250.5 62.5q209 0 308 -110l21 110h45l2 -253h-49q-29 90 -113 141t-217 51q-115 0 -182.5 -38t-67.5 -111q0 -24 8.5 -43
t20 -32.5t35.5 -24.5t44.5 -18t57 -13.5t62 -10t71.5 -8.5z" />
    <glyph glyph-name="Wcircumflex" unicode="&#x174;" horiz-adv-x="2019" 
d="M1007 1729l-302 -259h-53l263 322h183l263 -322h-53zM1562 1352h433v-60h-62q-38 0 -60.5 -29t-39.5 -92l-324 -1194h-124l-366 1259l-340 -1259h-124l-365 1223q-15 52 -35.5 72t-58.5 20h-72v60h555v-60h-202q-85 0 -56 -101l322 -1085h12l338 1261h110l367 -1259l9 -2
l285 1055q33 131 -59 131h-143v60z" />
    <glyph glyph-name="wcircumflex" unicode="&#x175;" horiz-adv-x="1620" 
d="M810 1289l-302 -259h-53l269 322h171l269 -322h-53zM1276 842h344v-60h-61q-56 0 -83 -75l-277 -727h-104l-270 762l-278 -762h-103l-266 728q-16 41 -35.5 57.5t-50.5 16.5h-91v60h458v-60h-106q-81 0 -52 -83l224 -615l284 773h92l275 -774l226 599q20 49 8.5 74.5
t-59.5 25.5h-75v60z" />
    <glyph glyph-name="Ycircumflex" unicode="&#x176;" horiz-adv-x="1419" 
d="M358 1470l263 322h183l263 -322h-53l-301 259l-302 -259h-53zM402 0v60h185q48 0 67 22.5t19 66.5v321l-454 743q-23 41 -46.5 60t-56.5 19h-94v60h526v-60h-134q-46 0 -55 -29t17 -69l396 -647l389 632q29 49 17 81t-63 32h-109v60h391v-60h-39q-58 0 -104 -81
l-455 -735v-326q0 -45 19 -67.5t68 -22.5h184v-60h-668z" />
    <glyph glyph-name="ycircumflex" unicode="&#x177;" horiz-adv-x="1061" 
d="M177 1030l269 322h171l269 -322h-53l-301 259l-302 -259h-53zM213 -462q-29 -2 -46 11t-18 37q-1 23 15.5 35.5t39.5 17.5q97 21 169 80t133 187l40 87l-407 720q-21 39 -40 54t-47 15h-54v60h403v-60h-84q-41 0 -49.5 -25.5t12.5 -61.5l325 -579l261 564q45 102 -38 102
h-98v60h331v-60h-27q-30 0 -51.5 -18.5t-41.5 -66.5l-384 -828q-75 -161 -155 -237t-189 -94z" />
    <glyph glyph-name="Ydieresis" unicode="&#x178;" horiz-adv-x="1419" 
d="M534 1524q-35 0 -58.5 25t-23.5 57q0 34 24 57.5t58 23.5t58 -23.5t24 -57.5q0 -36 -24 -59t-58 -23zM890 1524q-34 0 -58 25t-24 57q0 34 24 57.5t58 23.5t58 -23.5t24 -57.5q0 -35 -24 -58.5t-58 -23.5zM402 0v60h185q48 0 67 22.5t19 66.5v321l-454 743
q-23 41 -46.5 60t-56.5 19h-94v60h526v-60h-134q-46 0 -55 -29t17 -69l396 -647l389 632q29 49 17 81t-63 32h-109v60h391v-60h-39q-58 0 -104 -81l-455 -735v-326q0 -45 19 -67.5t68 -22.5h184v-60h-668z" />
    <glyph glyph-name="Zcaron" unicode="&#x17d;" horiz-adv-x="1390" 
d="M769 1456h-171l-269 322h53l301 -259l302 259h53zM1233 436l60 -3l-39 -433h-1158v94l1008 1208h-760q-67 0 -102.5 -19.5t-47.5 -72.5l-28 -207l-60 3l38 359h1097v-90l-1016 -1212h830q57 0 92 20.5t52 77.5z" />
    <glyph glyph-name="zcaron" unicode="&#x17e;" horiz-adv-x="965" 
d="M569 1030h-171l-269 322h53l301 -259l302 259h53zM810 274l58 -2l-27 -272h-759v82l646 699l7 1h-468q-32 0 -49.5 -15.5t-28.5 -57.5l-22 -131l-60 4l31 260h723v-82l-648 -700h488q33 0 54 16.5t33 58.5z" />
    <glyph glyph-name="florin" unicode="&#x192;" horiz-adv-x="1118" 
d="M219 -453q-63 0 -97.5 31t-39.5 83q-4 35 9.5 54.5t33.5 18.5q14 -2 26 -21.5t14 -44.5q5 -43 20 -59t51 -16q23 0 40.5 10.5t29 24.5t22.5 48t17 59t18 80q7 41 41.5 198t56.5 267l99 508h-199l7 63h90q79 0 109.5 32t50.5 117q13 60 25.5 104.5t35 98.5t48.5 88
t66 57.5t88 23.5q53 0 91.5 -25t49.5 -72q9 -33 -2 -55.5t-33 -22.5q-13 0 -23 12t-14 21.5t-9 27.5q-1 3 -4.5 15.5t-5 16t-5.5 12.5t-7.5 12t-9.5 7.5t-14.5 6t-18.5 1.5q-41 0 -74 -27t-51 -81q-4 -10 -8.5 -21.5t-7.5 -21.5t-6.5 -25t-6 -24.5t-5.5 -27.5t-4.5 -26.5
t-4.5 -28.5t-4 -26.5t-3.5 -28t-3.5 -26.5q-11 -84 -17 -114h249l-7 -63h-255l-99 -505q-74 -382 -139 -540q-59 -196 -210 -196z" />
    <glyph glyph-name="oslashacute" unicode="&#x1ff;" horiz-adv-x="1032" 
d="M895 1348l-378 -318h-54l247 322h185v-4zM832 735q114 -119 114 -312q0 -102 -31 -183.5t-77.5 -129.5t-107 -79.5t-113 -43t-101.5 -11.5q-60 0 -133 20.5t-137 67.5l-110 -126l-46 40l110 126q-114 117 -114 319q0 93 27 169t70.5 126t101 84t115.5 49t116 15
q150 0 270 -90l112 128l45 -41zM209 426q0 -145 61 -242l458 525q-85 96 -212 96q-128 0 -217.5 -102t-89.5 -277zM517 37q38 0 78.5 12.5t81.5 42t73 72.5t52.5 110t20.5 148q0 139 -58 237l-458 -525q45 -48 101.5 -72.5t108.5 -24.5z" />
    <glyph glyph-name="uni0237" unicode="&#x237;" horiz-adv-x="494" 
d="M-6 -508q-110 0 -181 55t-87 156q-2 25 11 41t35 17q38 3 51 -47q15 -77 62.5 -118.5t124.5 -41.5q99 0 149 71.5t50 199.5v867q0 92 -86 77l-101 -26l-8 60l313 70v-1003q0 -188 -81 -283t-252 -95z" />
    <glyph glyph-name="circumflex" unicode="&#x2c6;" horiz-adv-x="811" 
d="M51 1030l269 322h171l269 -322h-53l-301 259l-302 -259h-53z" />
    <glyph glyph-name="caron" unicode="&#x2c7;" horiz-adv-x="817" 
d="M323 1030l-269 322h53l301 -259l302 259h53l-269 -322h-171z" />
    <glyph glyph-name="breve" unicode="&#x2d8;" horiz-adv-x="1087" 
d="M389 1008q-117 0 -193.5 66.5t-101.5 170.5h52q57 -158 244 -158q49 0 88.5 12.5t63 28.5t43 41t27 40.5t15.5 35.5h49q-6 -34 -22 -70t-47.5 -76t-88 -65.5t-129.5 -25.5z" />
    <glyph glyph-name="dotaccent" unicode="&#x2d9;" horiz-adv-x="427" 
d="M213 1121q-35 0 -58.5 25t-23.5 57q0 34 24 57.5t58 23.5t58 -23.5t24 -57.5q0 -36 -24 -59t-58 -23z" />
    <glyph glyph-name="ring" unicode="&#x2da;" horiz-adv-x="499" 
d="M249 981q-81 0 -138.5 57.5t-57.5 139.5q0 81 57.5 137.5t138.5 56.5q82 0 139.5 -56.5t57.5 -137.5q0 -82 -57.5 -139.5t-139.5 -57.5zM249 1059q49 0 84 34.5t35 84.5q0 49 -35 83.5t-84 34.5t-83 -34.5t-34 -83.5q0 -50 34 -84.5t83 -34.5z" />
    <glyph glyph-name="ogonek" unicode="&#x2db;" horiz-adv-x="1035" 
d="M355 -363q-108 0 -175.5 68.5t-67.5 157.5q0 87 73 160l27 -23q-42 -45 -42 -107q0 -80 61.5 -141.5t147.5 -61.5q77 0 146 50l24 -32q-92 -71 -194 -71z" />
    <glyph glyph-name="tilde" unicode="&#x2dc;" horiz-adv-x="928" 
d="M119 1004q-2 117 49 184.5t143 67.5q36 0 71.5 -15t52 -27.5t51.5 -41.5q2 -2 12.5 -11.5t12.5 -11.5t11.5 -10t13 -10t12 -8t13.5 -8t14 -5.5t16 -5t16 -2.5t19 -1q59 0 93 44t35 125h53q3 -115 -48 -188t-144 -73q-41 0 -79 15.5t-56.5 29.5t-51.5 43
q-25 24 -40.5 36.5t-41 23t-52.5 10.5q-59 0 -90.5 -44t-32.5 -117h-52z" />
    <glyph glyph-name="hungarumlaut" unicode="&#x2dd;" horiz-adv-x="888" 
d="M50 1030l247 322h185v-4l-378 -318h-54zM425 1030l247 322h185v-4l-378 -318h-54z" />
    <glyph glyph-name="gravecomb" unicode="&#x300;" 
d="M-104 1030l-378 318v4h185l247 -322h-54z" />
    <glyph glyph-name="acutecomb" unicode="&#x301;" 
d="M-401 1030h-54l247 322h185v-4z" />
    <glyph glyph-name="uni0302" unicode="&#x302;" 
d="M-760 1030l269 322h171l269 -322h-53l-301 259l-302 -259h-53z" />
    <glyph glyph-name="tildecomb" unicode="&#x303;" 
d="M-809 1004q-2 117 49 184.5t143 67.5q36 0 71.5 -15t52 -27.5t51.5 -41.5q2 -2 12.5 -11.5t12.5 -11.5t11.5 -10t13 -10t12 -8t13.5 -8t14 -5.5t16 -5t16 -2.5t19 -1q59 0 93 44t35 125h53q3 -115 -48 -188t-144 -73q-41 0 -79 15.5t-56.5 29.5t-51.5 43
q-25 24 -40.5 36.5t-41 23t-52.5 10.5q-59 0 -90.5 -44t-32.5 -117h-52z" />
    <glyph glyph-name="uni0304" unicode="&#x304;" 
d="M-881 1122v92h725v-92h-725z" />
    <glyph glyph-name="uni0306" unicode="&#x306;" 
d="M-383 1008q-117 0 -193.5 66.5t-101.5 170.5h52q57 -158 244 -158q49 0 88.5 12.5t63 28.5t43 41t27 40.5t15.5 35.5h49q-6 -34 -22 -70t-47.5 -76t-88 -65.5t-129.5 -25.5z" />
    <glyph glyph-name="uni0307" unicode="&#x307;" 
d="M-214 1121q-35 0 -58.5 25t-23.5 57q0 34 24 57.5t58 23.5t58 -23.5t24 -57.5q0 -36 -24 -59t-58 -23z" />
    <glyph glyph-name="uni0308" unicode="&#x308;" 
d="M-570 1142q-35 0 -58.5 25t-23.5 56q0 34 24 58t58 24t58 -23.5t24 -58.5t-24 -58t-58 -23zM-214 1142q-34 0 -58 24.5t-24 56.5q0 34 24 58t58 24t58 -24t24 -58q0 -35 -24 -58t-58 -23z" />
    <glyph glyph-name="uni030A" unicode="&#x30a;" 
d="M-296 965q-76 0 -129 53t-53 130q0 76 53 129.5t129 53.5t129.5 -53.5t53.5 -129.5t-53.5 -129.5t-129.5 -53.5zM-296 1016q56 0 94 38t38 94t-38 94t-94 38q-55 0 -92.5 -38t-37.5 -94t37.5 -94t92.5 -38z" />
    <glyph glyph-name="uni030B" unicode="&#x30b;" 
d="M-838 1030l247 322h185v-4l-378 -318h-54zM-463 1030l247 322h185v-4l-378 -318h-54z" />
    <glyph glyph-name="uni030C" unicode="&#x30c;" 
d="M-494 1030l-269 322h53l301 -259l302 259h53l-269 -322h-171z" />
    <glyph glyph-name="uni0327" unicode="&#x327;" 
d="M-374 -489q-98 0 -197 25l14 60q83 -21 171 -21q112 0 177 37.5t65 93.5q0 14 -4.5 26t-15 20t-20.5 14t-28.5 9.5t-32 6t-37.5 3.5t-38 1.5t-40.5 0.5h-39.5l46 235l65 -8l-34 -161q55 0 96.5 -5.5t80.5 -20t59.5 -44t20.5 -73.5q0 -83 -83 -141t-225 -58z" />
    <glyph glyph-name="uni0328" unicode="&#x328;" 
d="M-237 -363q-108 0 -175.5 68.5t-67.5 157.5q0 87 73 160l27 -23q-42 -45 -42 -107q0 -80 61.5 -141.5t147.5 -61.5q77 0 146 50l24 -32q-92 -71 -194 -71z" />
    <glyph glyph-name="uni0337" unicode="&#x337;" 
d="M-659 444v81l643 494v-82z" />
    <glyph glyph-name="uni0338" unicode="&#x338;" 
d="M-798 -36l-46 40l808 926l45 -41z" />
    <glyph glyph-name="uni0394" unicode="&#x394;" horiz-adv-x="1012" 
d="M111 0l309 1425h175l307 -1425h-791zM188 60h584l-271 1263h-35z" />
    <glyph glyph-name="uni03A9" unicode="&#x3a9;" horiz-adv-x="1466" 
d="M157 0v280h51v-110q0 -86 84 -86h311v184q-388 182 -388 586q0 262 136 413.5t382 151.5q245 0 382 -153.5t137 -410.5q0 -201 -99.5 -350.5t-287.5 -232.5v-188h309q43 0 64 23t21 62v111h51v-280h-508v312q161 80 240 220t79 321q0 254 -101 382.5t-287 128.5
q-191 0 -291.5 -133t-100.5 -377q0 -193 81.5 -332t243.5 -213v-309h-509z" />
    <glyph glyph-name="Wgrave" unicode="&#x1e80;" horiz-adv-x="2019" 
d="M1034 1438h-54l-378 317v4h185zM1562 1352h433v-60h-62q-38 0 -60.5 -29t-39.5 -92l-324 -1194h-124l-366 1259l-340 -1259h-124l-365 1223q-15 52 -35.5 72t-58.5 20h-72v60h555v-60h-202q-85 0 -56 -101l322 -1085h12l338 1261h110l367 -1259l9 -2l285 1055
q33 131 -59 131h-143v60z" />
    <glyph glyph-name="wgrave" unicode="&#x1e81;" horiz-adv-x="1620" 
d="M864 1030h-54l-378 318v4h185zM1276 842h344v-60h-61q-56 0 -83 -75l-277 -727h-104l-270 762l-278 -762h-103l-266 728q-16 41 -35.5 57.5t-50.5 16.5h-91v60h458v-60h-106q-81 0 -52 -83l224 -615l284 773h92l275 -774l226 599q20 49 8.5 74.5t-59.5 25.5h-75v60z" />
    <glyph glyph-name="Wacute" unicode="&#x1e82;" horiz-adv-x="2019" 
d="M1413 1755l-379 -317h-53l246 321h186v-4zM1562 1352h433v-60h-62q-38 0 -60.5 -29t-39.5 -92l-324 -1194h-124l-366 1259l-340 -1259h-124l-365 1223q-15 52 -35.5 72t-58.5 20h-72v60h555v-60h-202q-85 0 -56 -101l322 -1085h12l338 1261h110l367 -1259l9 -2l285 1055
q33 131 -59 131h-143v60z" />
    <glyph glyph-name="wacute" unicode="&#x1e83;" horiz-adv-x="1620" 
d="M1188 1348l-378 -318h-54l247 322h185v-4zM1276 842h344v-60h-61q-56 0 -83 -75l-277 -727h-104l-270 762l-278 -762h-103l-266 728q-16 41 -35.5 57.5t-50.5 16.5h-91v60h458v-60h-106q-81 0 -52 -83l224 -615l284 773h92l275 -774l226 599q20 49 8.5 74.5t-59.5 25.5
h-75v60z" />
    <glyph glyph-name="Wdieresis" unicode="&#x1e84;" horiz-adv-x="2019" 
d="M828 1524q-35 0 -58.5 25t-23.5 57q0 34 24 57.5t58 23.5t58 -23.5t24 -57.5q0 -36 -24 -59t-58 -23zM1184 1524q-34 0 -58 25t-24 57q0 34 24 57.5t58 23.5t58 -23.5t24 -57.5q0 -35 -24 -58.5t-58 -23.5zM1562 1352h433v-60h-62q-38 0 -60.5 -29t-39.5 -92l-324 -1194
h-124l-366 1259l-340 -1259h-124l-365 1223q-15 52 -35.5 72t-58.5 20h-72v60h555v-60h-202q-85 0 -56 -101l322 -1085h12l338 1261h110l367 -1259l9 -2l285 1055q33 131 -59 131h-143v60z" />
    <glyph glyph-name="wdieresis" unicode="&#x1e85;" horiz-adv-x="1620" 
d="M630 1142q-35 0 -58.5 25t-23.5 56q0 34 24 58t58 24t58 -23.5t24 -58.5t-24 -58t-58 -23zM986 1142q-34 0 -58 24.5t-24 56.5q0 34 24 58t58 24t58 -24t24 -58q0 -35 -24 -58t-58 -23zM1276 842h344v-60h-61q-56 0 -83 -75l-277 -727h-104l-270 762l-278 -762h-103
l-266 728q-16 41 -35.5 57.5t-50.5 16.5h-91v60h458v-60h-106q-81 0 -52 -83l224 -615l284 773h92l275 -774l226 599q20 49 8.5 74.5t-59.5 25.5h-75v60z" />
    <glyph glyph-name="Ygrave" unicode="&#x1ef2;" horiz-adv-x="1419" 
d="M686 1438l-378 317v4h185l247 -321h-54zM402 0v60h185q48 0 67 22.5t19 66.5v321l-454 743q-23 41 -46.5 60t-56.5 19h-94v60h526v-60h-134q-46 0 -55 -29t17 -69l396 -647l389 632q29 49 17 81t-63 32h-109v60h391v-60h-39q-58 0 -104 -81l-455 -735v-326
q0 -45 19 -67.5t68 -22.5h184v-60h-668z" />
    <glyph glyph-name="ygrave" unicode="&#x1ef3;" horiz-adv-x="1061" 
d="M532 1030l-378 318v4h185l247 -322h-54zM213 -462q-29 -2 -46 11t-18 37q-1 23 15.5 35.5t39.5 17.5q97 21 169 80t133 187l40 87l-407 720q-21 39 -40 54t-47 15h-54v60h403v-60h-84q-41 0 -49.5 -25.5t12.5 -61.5l325 -579l261 564q45 102 -38 102h-98v60h331v-60h-27
q-30 0 -51.5 -18.5t-41.5 -66.5l-384 -828q-75 -161 -155 -237t-189 -94z" />
    <glyph glyph-name="endash" unicode="&#x2013;" horiz-adv-x="1358" 
d="M155 366v80h1048v-80h-1048z" />
    <glyph glyph-name="emdash" unicode="&#x2014;" horiz-adv-x="2358" 
d="M155 366v80h2048v-80h-2048z" />
    <glyph glyph-name="quoteleft" unicode="&#x2018;" horiz-adv-x="543" 
d="M271 854q-65 0 -101.5 49t-36.5 129q0 123 78 221t190 127l12 -59q-97 -27 -150 -96t-53 -127q0 -19 8 -28.5t21 -5.5q28 6 41 6q40 0 71 -29.5t31 -75.5q0 -44 -30.5 -77.5t-80.5 -33.5z" />
    <glyph glyph-name="quoteright" unicode="&#x2019;" horiz-adv-x="545" 
d="M142 854l-12 60q51 14 91.5 42t64 60.5t35.5 63.5t12 56q0 20 -8 29.5t-21 5.5q-33 -7 -41 -7q-40 0 -71 30t-31 76q0 44 30.5 77t80.5 33q65 0 101.5 -48.5t36.5 -128.5q0 -124 -77.5 -221.5t-190.5 -127.5z" />
    <glyph glyph-name="quotesinglbase" unicode="&#x201a;" horiz-adv-x="545" 
d="M142 -344l-12 60q51 14 91.5 42t64 60.5t35.5 63.5t12 56q0 19 -7.5 28.5t-21.5 6.5q-33 -7 -41 -7q-40 0 -71 30t-31 76q0 44 30.5 77t80.5 33q65 0 101.5 -49t36.5 -128q0 -124 -77.5 -221.5t-190.5 -127.5z" />
    <glyph glyph-name="quotedblleft" unicode="&#x201c;" horiz-adv-x="940" 
d="M270 854q-65 0 -101 49t-36 129q0 123 77 221t189 127l11 -59q-66 -19 -113.5 -61.5t-67 -84.5t-19.5 -77q0 -19 8 -28.5t21 -5.5q26 6 40 6q40 0 70.5 -29.5t30.5 -75.5q0 -44 -30.5 -77.5t-79.5 -33.5zM669 854q-65 0 -101 49t-36 129q0 123 77 221t188 127l12 -59
q-66 -19 -114 -61.5t-67.5 -84.5t-19.5 -77q0 -19 8 -28.5t22 -5.5q28 6 40 6q40 0 70.5 -29.5t30.5 -75.5q0 -44 -30.5 -77.5t-79.5 -33.5z" />
    <glyph glyph-name="quotedblright" unicode="&#x201d;" horiz-adv-x="942" 
d="M142 854l-12 60q50 14 90.5 42t63.5 60.5t35 63.5t12 56q0 20 -8 29.5t-21 5.5q-33 -7 -41 -7q-39 0 -69.5 30t-30.5 76q0 44 30 77t80 33q65 0 100.5 -48.5t35.5 -128.5q0 -124 -76.5 -221.5t-188.5 -127.5zM541 854l-12 60q66 18 114 60.5t67.5 84.5t19.5 77
q0 20 -8 29.5t-21 5.5q-33 -7 -41 -7q-39 0 -70 30t-31 76q0 44 30.5 77t80.5 33q65 0 101 -48.5t36 -128.5q0 -124 -77 -221.5t-189 -127.5z" />
    <glyph glyph-name="quotedblbase" unicode="&#x201e;" horiz-adv-x="947" 
d="M142 -344l-12 60q51 14 91.5 42t64 60.5t35.5 63.5t12 56q0 19 -7.5 28.5t-21.5 6.5q-33 -7 -41 -7q-40 0 -71 30t-31 76q0 44 30.5 77t80.5 33q65 0 101.5 -49t36.5 -128q0 -124 -77.5 -221.5t-190.5 -127.5zM545 -344l-12 60q51 14 91.5 42t64 60.5t35.5 63.5t12 56
q0 19 -7.5 28.5t-21.5 6.5q-35 -7 -42 -7q-39 0 -70 30t-31 76q0 44 31 77t80 33q65 0 101.5 -49t36.5 -128q0 -124 -77.5 -221.5t-190.5 -127.5z" />
    <glyph glyph-name="dagger" unicode="&#x2020;" horiz-adv-x="894" 
d="M416 -167v123q0 146 -10.5 360t-16.5 271q-13 145 25 203q-26 -3 -109.5 -27t-125.5 -24q-12 0 -25.5 2.5t-33.5 10t-32.5 26.5t-12.5 48q0 35 18 56t38 27t41 6q44 0 127.5 -26.5t114.5 -30.5q-2 9 -12 42t-15 53.5t-12 52.5t-10.5 61t-3.5 57q0 41 9.5 69.5t24.5 40.5
t27.5 16.5t24.5 4.5q33 0 59.5 -29.5t26.5 -91.5q0 -24 -3 -50t-10 -61t-11 -52.5t-15 -61.5t-13 -51q35 8 82.5 22.5t83.5 23t72 8.5q50 0 75.5 -25.5t25.5 -60.5q0 -36 -25 -62t-76 -26q-43 0 -128 25t-103 27q24 -38 26 -87.5t-7 -117.5q-1 -21 -7 -104.5t-10 -149
t-8 -172t-4 -205.5v-121h-62z" />
    <glyph glyph-name="daggerdbl" unicode="&#x2021;" horiz-adv-x="946" 
d="M745 16q51 0 76 -26t25 -62q0 -35 -25.5 -60.5t-75.5 -25.5q-36 0 -72 8t-83.5 22.5t-81.5 22.5q2 -8 11 -43t12 -49t10 -45t10 -49.5t5.5 -43t2.5 -44.5q0 -62 -26.5 -92t-59.5 -30q-12 0 -24.5 4.5t-27.5 16.5t-24.5 40.5t-9.5 69.5q0 18 1.5 37.5t3.5 35.5t6.5 37.5
t7 33.5t9 35t8.5 30.5t9 31t8 26.5q-30 -4 -114 -30.5t-128 -26.5q-36 0 -67 19.5t-31 68.5q0 29 12.5 48t32.5 26.5t33.5 10t26.5 2.5q42 0 125 -23.5t108 -26.5q-38 67 -23 203q7 43 7 209t-7 210q-8 69 -3 116.5t26 86.5q-24 -3 -107.5 -27t-125.5 -24q-13 0 -26.5 2.5
t-33.5 10t-32.5 26.5t-12.5 48q0 26 10 45t26.5 28t31.5 12.5t30 3.5q44 0 128 -27t114 -31q-1 3 -12.5 42.5t-15 55.5t-11.5 50.5t-11 62.5t-3 56q0 41 9.5 69.5t24.5 40.5t27.5 16.5t24.5 4.5q33 0 59.5 -29.5t26.5 -91.5q0 -20 -3 -45.5t-5.5 -43t-9.5 -51t-10 -44
t-12.5 -49.5t-10.5 -42q34 8 81.5 22.5t83.5 22.5t72 8q50 0 75.5 -25.5t25.5 -60.5q0 -36 -25 -62t-76 -26q-43 0 -128 25t-103 27q24 -38 25.5 -87.5t-6.5 -117.5q-10 -92 -9.5 -212t9.5 -203q8 -68 6.5 -118t-25.5 -88q18 2 103 27t128 25z" />
    <glyph glyph-name="bullet" unicode="&#x2022;" horiz-adv-x="821" 
d="M410 430q-100 0 -171.5 71.5t-71.5 172.5q0 102 71.5 171.5t171.5 69.5q99 0 170.5 -69.5t71.5 -171.5q0 -101 -71 -172.5t-171 -71.5z" />
    <glyph glyph-name="twodotenleader" unicode="&#x2025;" horiz-adv-x="1177" 
d="M302 -34q-45 0 -77 32t-32 78q0 44 32 76t77 32q44 0 75.5 -32t31.5 -76q0 -46 -31.5 -78t-75.5 -32zM875 -34q-45 0 -77 32t-32 78q0 44 32 76t77 32q44 0 76 -32t32 -76q0 -46 -32 -78t-76 -32z" />
    <glyph glyph-name="ellipsis" unicode="&#x2026;" horiz-adv-x="1751" 
d="M302 -34q-45 0 -77 32t-32 78q0 44 32 76t77 32q44 0 75.5 -32t31.5 -76q0 -46 -31.5 -78t-75.5 -32zM875 -34q-45 0 -77 32t-32 78q0 44 32 76t77 32q44 0 76 -32t32 -76q0 -46 -32 -78t-76 -32zM1449 -34q-45 0 -77.5 32t-32.5 78q0 44 32.5 76t77.5 32q44 0 75.5 -32
t31.5 -76q0 -46 -31.5 -78t-75.5 -32z" />
    <glyph glyph-name="perthousand" unicode="&#x2030;" horiz-adv-x="2353" 
d="M376 674q-61 0 -108.5 25t-75.5 62.5t-46 86t-24.5 90t-6.5 80.5q0 165 69.5 260.5t190.5 95.5q70 0 123 -30t82.5 -81.5t44 -112.5t14.5 -130q0 -42 -7 -85.5t-26 -91t-47.5 -84.5t-76 -61t-106.5 -24zM471 0l693 1352h74l-694 -1352h-73zM378 722q47 0 81 28t50 74
t23 91.5t7 93.5q0 317 -164 317q-79 0 -119.5 -78t-40.5 -227q0 -53 6.5 -100t23 -95t50.5 -76t83 -28zM1307 -23q-61 0 -109 25t-76 63t-46 86.5t-24.5 90t-6.5 80.5q0 165 69.5 260.5t190.5 95.5q70 0 123 -30t82.5 -82t44 -113t14.5 -130q0 -53 -12.5 -108t-40.5 -111
t-82 -91.5t-127 -35.5zM1976 -23q-61 0 -109 25t-76 63t-46 86.5t-24.5 90t-6.5 80.5q0 165 69.5 260.5t191.5 95.5q70 0 122.5 -30t82 -82t44 -113t14.5 -130q0 -53 -12.5 -108t-40.5 -111t-82 -91.5t-127 -35.5zM1308 26q47 0 81 28t50 74t23 91.5t7 93.5q0 316 -164 316
q-79 0 -119.5 -77.5t-40.5 -226.5q0 -53 6.5 -100t23 -95t50.5 -76t83 -28zM1977 26q47 0 81 28t50 74t23 91.5t7 93.5q0 316 -163 316q-161 0 -161 -304q0 -53 6.5 -100t23 -95t50.5 -76t83 -28z" />
    <glyph glyph-name="guilsinglleft" unicode="&#x2039;" horiz-adv-x="512" 
d="M363 0l-308 440l308 441h64l-257 -441l257 -440h-64z" />
    <glyph glyph-name="guilsinglright" unicode="&#x203a;" horiz-adv-x="512" 
d="M149 0h-64l257 440l-257 441h64l308 -441z" />
    <glyph glyph-name="Euro" unicode="&#x20ac;" horiz-adv-x="1239" 
d="M674 -23q-178 0 -299.5 159t-149.5 405h-98l8 60h85q-2 23 -2 73q0 27 4 79h-95l8 60h91q20 162 79 287.5t155.5 199t215.5 73.5q101 0 182.5 -55t130.5 -158l2 179h59l2 -396l-60 -1q-21 168 -100.5 269.5t-200.5 101.5q-95 0 -170 -66.5t-119 -178t-57 -255.5h528
l-9 -60h-521q-3 -72 -3 -75q0 -52 1 -77h499l-9 -60h-487q21 -228 111 -365t233 -137q121 0 206.5 107t102.5 265l56 -7q-25 -206 -129.5 -316.5t-249.5 -110.5z" />
    <glyph glyph-name="uni2113" unicode="&#x2113;" horiz-adv-x="884" 
d="M499 -22q-97 0 -151 87.5t-54 232.5l-3 144q-17 -17 -88 -82.5t-88 -83.5l-34 42q18 19 102.5 97t105.5 100l-7 460q0 200 68 325t193 125q89 0 129 -57.5t40 -184.5q0 -259 -204 -514q-64 -84 -102 -122l4 -247q0 -117 31 -183t83 -66q58 0 91.5 60.5t45.5 190.5l55 -10
q-16 -159 -69 -236.5t-148 -77.5zM404 633q29 32 82 105q171 221 171 442q0 101 -23 144.5t-78 43.5q-76 0 -117 -90t-41 -258z" />
    <glyph glyph-name="trademark" unicode="&#x2122;" horiz-adv-x="2213" 
d="M131 1352h740l9 -215l-38 -2l-9 106q-8 43 -25.5 56.5t-51.5 13.5h-212v-670q0 -28 11.5 -42.5t44.5 -14.5h81v-37h-361v37h81q33 0 44.5 15t11.5 42v670h-214q-31 0 -51 -14t-25 -57l-7 -105l-38 2zM1973 1314q-33 0 -44.5 -14.5t-11.5 -43.5v-615q0 -27 11.5 -42
t44.5 -15h90v-37h-370v37h82q31 0 43 13.5t12 43.5v632h-13l-328 -726h-47l-322 726h-8v-616q0 -73 55 -73h65v-37h-279v37h65q53 0 53 74v597q0 29 -11.5 44t-42.5 15h-64v38h223l315 -707l321 707h251v-38h-90z" />
    <glyph glyph-name="uni2126" unicode="&#x2126;" horiz-adv-x="1466" 
d="M157 0v280h51v-110q0 -86 84 -86h311v184q-388 182 -388 586q0 262 136 413.5t382 151.5q245 0 382 -153.5t137 -410.5q0 -201 -99.5 -350.5t-287.5 -232.5v-188h309q43 0 64 23t21 62v111h51v-280h-508v312q161 80 240 220t79 321q0 254 -101 382.5t-287 128.5
q-191 0 -291.5 -133t-100.5 -377q0 -193 81.5 -332t243.5 -213v-309h-509z" />
    <glyph glyph-name="partialdiff" unicode="&#x2202;" horiz-adv-x="1072" 
d="M639 1470q133 0 202.5 -133.5t69.5 -358.5q0 -121 -23 -264t-61 -259q-77 -232 -175.5 -352t-227.5 -120q-145 0 -226 93.5t-81 258.5q0 102 34.5 207.5t94 191t147.5 140t186 54.5q107 0 164 -60.5t76 -149.5q16 107 16 238q0 186 -60.5 309.5t-163.5 123.5
q-155 0 -258 -181l-37 29q58 108 139.5 170.5t183.5 62.5zM797 582q2 36 -1 72t-15 75.5t-33 69t-58.5 49t-87.5 19.5q-103 0 -190 -84.5t-134.5 -211t-47.5 -257.5q0 -128 60.5 -198t165.5 -70q60 0 115 44t97.5 120.5t74.5 170t54 201.5z" />
    <glyph glyph-name="uni2206" unicode="&#x2206;" horiz-adv-x="1012" 
d="M111 0l309 1425h175l307 -1425h-791zM188 60h584l-271 1263h-35z" />
    <glyph glyph-name="product" unicode="&#x220f;" horiz-adv-x="1294" 
d="M128 -246v51h91q31 0 46.5 25.5t15.5 66.5v1378q0 93 -62 93h-108v51h1073v-51h-108q-63 0 -63 -93v-1378q0 -41 15.5 -66.5t46.5 -25.5h91v-51h-422v51h90q31 0 46.5 25.5t15.5 66.5v1461h-499v-1461q0 -41 15 -66.5t46 -25.5h91v-51h-421z" />
    <glyph glyph-name="summation" unicode="&#x2211;" horiz-adv-x="1019" 
d="M829 156l51 -5l-28 -400h-732v72l335 749l-330 775v73h686l36 -322l-50 -3l-25 184q-6 44 -24.5 62t-50.5 18h-469l317 -740l-349 -771h540q68 0 75 73z" />
    <glyph glyph-name="minus" unicode="&#x2212;" horiz-adv-x="1588" 
d="M239 632v87h1110v-87h-1110z" />
    <glyph glyph-name="radical" unicode="&#x221a;" horiz-adv-x="769" 
d="M552 1506h51l-168 -1513h-76l-168 689l-93 -70l-32 43l169 125l160 -673z" />
    <glyph glyph-name="infinity" unicode="&#x221e;" horiz-adv-x="1373" 
d="M952 826q105 0 169 -68t64 -180q0 -108 -66.5 -178t-170.5 -70q-150 0 -256 181q-50 -85 -114.5 -137.5t-156.5 -52.5q-105 0 -169 67.5t-64 179.5q0 109 66.5 179t171.5 70q149 0 255 -182q110 191 271 191zM948 385q82 0 132 54.5t50 138.5q0 88 -46 139.5t-129 51.5
q-43 0 -79 -16.5t-65 -50.5t-47.5 -62.5t-41.5 -73.5q95 -181 226 -181zM420 376q42 0 78 17.5t65.5 52t47.5 62.5t41 73q-98 180 -225 180q-81 0 -132.5 -53t-51.5 -140q0 -89 46.5 -140.5t130.5 -51.5z" />
    <glyph glyph-name="integral" unicode="&#x222b;" horiz-adv-x="624" 
d="M219 -410q-61 0 -88.5 36t-27.5 84q0 49 38 49q23 0 31 -33q6 -62 63 -62q26 0 39.5 17t19.5 65q4 5 1.5 57t-4.5 77t-8 95.5t-9 112.5q-16 206 -16 438q0 50 -1 192.5t0 212.5q-1 193 6.5 308.5t33.5 174.5q41 99 124 99q100 0 116 -91q3 -19 -5 -33.5t-25 -15.5
q-25 -3 -37 30q-14 37 -64 37q-44 0 -61 -45q-8 -22 -12 -50t-3 -78.5t2 -80t5.5 -112t6.5 -116.5q20 -228 20 -431q0 -424 -1 -456q-2 -262 -22 -350q-14 -65 -43 -98t-79 -33z" />
    <glyph glyph-name="approxequal" unicode="&#x2248;" horiz-adv-x="1308" 
d="M205 712l-62 61q68 93 144 143.5t186 50.5q126 0 245 -65q118 -66 193 -66q88 0 177 131l61 -61q-49 -71 -105.5 -114t-130.5 -43q-95 0 -218 68q-112 63 -220 63q-81 0 -144 -41t-126 -127zM205 245l-62 62q68 93 144 143.5t186 50.5q129 0 245 -65q117 -67 193 -67
q88 0 177 132l61 -61q-49 -71 -105.5 -114t-130.5 -43q-98 0 -218 68q-115 63 -220 63q-81 0 -144 -41.5t-126 -127.5z" />
    <glyph glyph-name="notequal" unicode="&#x2260;" horiz-adv-x="1361" 
d="M1235 870h-388l-200 -388h588v-87h-633l-221 -428h-114l221 428h-363v87h408l201 388h-609v87h654l205 396h112l-204 -396h343v-87z" />
    <glyph glyph-name="lessequal" unicode="&#x2264;" horiz-adv-x="1203" 
d="M1033 1224v-95l-830 -341l830 -342v-95l-907 380v113zM156 0v87h877v-87h-877z" />
    <glyph glyph-name="greaterequal" unicode="&#x2265;" horiz-adv-x="1203" 
d="M170 1224l907 -380v-113l-907 -380v95l830 342l-830 341v95zM170 0v87h877v-87h-877z" />
    <glyph glyph-name="a.sc" horiz-adv-x="1350" 
d="M1194 48l65 -1v-47h-425v47l106 1q28 1 40.5 13.5t3.5 32.5l-81 182h-534l-80 -169q-13 -28 3.5 -43t48.5 -16h116v-48h-365v48l47 3q39 11 60 29.5t36 47.5l398 835h86l379 -835q17 -35 38.5 -55t57.5 -25zM392 324h490l-223 500h-30z" />
    <glyph glyph-name="aacute.sc" horiz-adv-x="1350" 
d="M1057 1452l-378 -318h-54l247 322h185v-4zM1194 48l65 -1v-47h-425v47l106 1q28 1 40.5 13.5t3.5 32.5l-81 182h-534l-80 -169q-13 -28 3.5 -43t48.5 -16h116v-48h-365v48l47 3q39 11 60 29.5t36 47.5l398 835h86l379 -835q17 -35 38.5 -55t57.5 -25zM392 324h490
l-223 500h-30z" />
    <glyph glyph-name="acircumflex.sc" horiz-adv-x="1350" 
d="M679 1393l-302 -259h-53l269 322h171l269 -322h-53zM1194 48l65 -1v-47h-425v47l106 1q28 1 40.5 13.5t3.5 32.5l-81 182h-534l-80 -169q-13 -28 3.5 -43t48.5 -16h116v-48h-365v48l47 3q39 11 60 29.5t36 47.5l398 835h86l379 -835q17 -35 38.5 -55t57.5 -25zM392 324
h490l-223 500h-30z" />
    <glyph glyph-name="adieresis.sc" horiz-adv-x="1350" 
d="M499 1246q-35 0 -58.5 25t-23.5 56q0 34 24 58t58 24q35 0 58.5 -23.5t23.5 -58.5t-24 -58t-58 -23zM855 1246q-34 0 -58 24.5t-24 56.5q0 34 24 58t58 24t58 -24t24 -58q0 -35 -24 -58t-58 -23zM1194 48l65 -1v-47h-425v47l106 1q28 1 40.5 13.5t3.5 32.5l-81 182h-534
l-80 -169q-13 -28 3.5 -43t48.5 -16h116v-48h-365v48l47 3q39 11 60 29.5t36 47.5l398 835h86l379 -835q17 -35 38.5 -55t57.5 -25zM392 324h490l-223 500h-30z" />
    <glyph glyph-name="agrave.sc" horiz-adv-x="1350" 
d="M733 1134h-54l-378 318v4h185zM1194 48l65 -1v-47h-425v47l106 1q28 1 40.5 13.5t3.5 32.5l-81 182h-534l-80 -169q-13 -28 3.5 -43t48.5 -16h116v-48h-365v48l47 3q39 11 60 29.5t36 47.5l398 835h86l379 -835q17 -35 38.5 -55t57.5 -25zM392 324h490l-223 500h-30z" />
    <glyph glyph-name="aring.sc" horiz-adv-x="1350" 
d="M679 1069q-76 0 -129 53t-53 130q0 76 53 129.5t129 53.5t129.5 -53.5t53.5 -129.5t-53.5 -129.5t-129.5 -53.5zM679 1384q-55 0 -92.5 -38t-37.5 -94t37.5 -94t92.5 -38q56 0 94 38t38 94t-38 94t-94 38zM1194 48l65 -1v-47h-425v47l106 1q28 1 40.5 13.5t3.5 32.5
l-81 182h-534l-80 -169q-13 -28 3.5 -43t48.5 -16h116v-48h-365v48l47 3q39 11 60 29.5t36 47.5l398 835h86l379 -835q17 -35 38.5 -55t57.5 -25zM392 324h490l-223 500h-30z" />
    <glyph glyph-name="atilde.sc" horiz-adv-x="1350" 
d="M387 1108h-52q-2 117 49 184.5t143 67.5q36 0 71.5 -15t52 -27.5t51.5 -41.5q2 -2 12.5 -11.5t12.5 -11.5t11.5 -10t13 -10t12 -8t13.5 -8t14 -5.5t16 -5t16 -2.5t19 -1q59 0 93 44t35 125h53q3 -115 -48 -188t-144 -73q-41 0 -79 15.5t-56.5 29.5t-51.5 43
q-25 24 -40.5 36.5t-41 23t-52.5 10.5q-59 0 -90.5 -44t-32.5 -117zM1194 48l65 -1v-47h-425v47l106 1q28 1 40.5 13.5t3.5 32.5l-81 182h-534l-80 -169q-13 -28 3.5 -43t48.5 -16h116v-48h-365v48l47 3q39 11 60 29.5t36 47.5l398 835h86l379 -835q17 -35 38.5 -55
t57.5 -25zM392 324h490l-223 500h-30z" />
    <glyph glyph-name="b.sc" horiz-adv-x="1341" 
d="M877 507q57 -10 105.5 -29.5t91 -49t66 -75t21.5 -100.5q-1 -69 -39.5 -120t-103 -78.5t-137 -40.5t-155.5 -13h-567v47h92q67 0 67 71v706q0 72 -62 72h-97v49l579 -1q180 -1 278 -61.5t93 -164.5q-3 -91 -69 -143t-163 -69zM683 899h-245v-369h260q145 0 213 43t72 137
q3 93 -75 141t-225 48zM1031 263q4 115 -85 166t-251 51h-257v-362q0 -27 14 -47t46 -20h221q148 0 228.5 59.5t83.5 152.5z" />
    <glyph glyph-name="c.sc" horiz-adv-x="1480" 
d="M720 -17q-125 0 -230 38.5t-174.5 105.5t-108 155.5t-38.5 189.5q0 98 38.5 187t108 156.5t175.5 107.5t232 40q139 0 251.5 -57t187.5 -162l10 180h55l3 -329h-52q-17 58 -54.5 112.5t-92 100.5t-131.5 74t-164 28q-105 0 -189.5 -37t-136.5 -100.5t-79.5 -143
t-27.5 -167.5q0 -191 116.5 -308.5t319.5 -117.5q162 0 282 86t161 235h53v-336h-53l-16 182q-64 -101 -176 -160.5t-270 -59.5z" />
    <glyph glyph-name="ccedilla.sc" horiz-adv-x="1480" 
d="M1182 357h53v-336h-53l-16 182q-133 -209 -419 -220l-28 -130q55 0 96.5 -5.5t80.5 -20t59.5 -44t20.5 -73.5q0 -83 -83 -141t-225 -58q-98 0 -197 25l14 60q83 -21 171 -21q112 0 177 37.5t65 93.5q0 14 -4.5 26t-15 20t-20.5 14t-28.5 9.5t-32 6t-37.5 3.5t-38 1.5
t-40.5 0.5h-39.5l39 197q-234 12 -373 150.5t-139 337.5q0 98 38.5 187t108 156.5t175.5 107.5t232 40q139 0 251.5 -57t187.5 -162l10 180h55l3 -329h-52q-17 58 -54.5 112.5t-92 100.5t-131.5 74t-164 28q-105 0 -189.5 -37t-136.5 -100.5t-79.5 -143t-27.5 -167.5
q0 -191 116.5 -308.5t319.5 -117.5q162 0 282 86t161 235z" />
    <glyph glyph-name="d.sc" horiz-adv-x="1518" 
d="M147 0v48h114q65 0 65 71v709q0 72 -66 72h-113v46h541q308 0 486 -121.5t178 -351.5q0 -157 -83.5 -264.5t-230.5 -158t-350 -50.5h-541zM527 50h225q213 0 339.5 119t126.5 304q0 107 -39 190t-108 134t-160 77.5t-199 26.5h-266v-772q0 -39 17 -59t64 -20z" />
    <glyph glyph-name="e.sc" horiz-adv-x="1390" 
d="M1142 312l54 -1l-28 -311h-1018v48h104q72 0 72 71v708q0 37 -17.5 54.5t-60.5 17.5h-98v47h972l18 -244l-54 -1l-18 134q-15 35 -37 48t-62 13h-523v-376h344q77 0 77 53v80h55v-321h-55v82q0 57 -76 57h-345v-343q0 -38 15.5 -58t58.5 -20h472q55 0 79 15.5t37 51.5z
" />
    <glyph glyph-name="eacute.sc" horiz-adv-x="1390" 
d="M1074 1348l-378 -318h-54l247 322h185v-4zM1142 312l54 -1l-28 -311h-1018v48h104q72 0 72 71v708q0 37 -17.5 54.5t-60.5 17.5h-98v47h972l18 -244l-54 -1l-18 134q-15 35 -37 48t-62 13h-523v-376h344q77 0 77 53v80h55v-321h-55v82q0 57 -76 57h-345v-343
q0 -38 15.5 -58t58.5 -20h472q55 0 79 15.5t37 51.5z" />
    <glyph glyph-name="ecircumflex.sc" horiz-adv-x="1390" 
d="M696 1289l-302 -259h-53l269 322h171l269 -322h-53zM1142 312l54 -1l-28 -311h-1018v48h104q72 0 72 71v708q0 37 -17.5 54.5t-60.5 17.5h-98v47h972l18 -244l-54 -1l-18 134q-15 35 -37 48t-62 13h-523v-376h344q77 0 77 53v80h55v-321h-55v82q0 57 -76 57h-345v-343
q0 -38 15.5 -58t58.5 -20h472q55 0 79 15.5t37 51.5z" />
    <glyph glyph-name="edieresis.sc" horiz-adv-x="1390" 
d="M516 1142q-35 0 -58.5 25t-23.5 56q0 34 24 58t58 24t58 -23.5t24 -58.5t-24 -58t-58 -23zM872 1142q-34 0 -58 24.5t-24 56.5q0 34 24 58t58 24t58 -24t24 -58q0 -35 -24 -58t-58 -23zM1142 312l54 -1l-28 -311h-1018v48h104q72 0 72 71v708q0 37 -17.5 54.5t-60.5 17.5
h-98v47h972l18 -244l-54 -1l-18 134q-15 35 -37 48t-62 13h-523v-376h344q77 0 77 53v80h55v-321h-55v82q0 57 -76 57h-345v-343q0 -38 15.5 -58t58.5 -20h472q55 0 79 15.5t37 51.5z" />
    <glyph glyph-name="egrave.sc" horiz-adv-x="1390" 
d="M750 1030h-54l-378 318v4h185zM1142 312l54 -1l-28 -311h-1018v48h104q72 0 72 71v708q0 37 -17.5 54.5t-60.5 17.5h-98v47h972l18 -244l-54 -1l-18 134q-15 35 -37 48t-62 13h-523v-376h344q77 0 77 53v80h55v-321h-55v82q0 57 -76 57h-345v-343q0 -38 15.5 -58
t58.5 -20h472q55 0 79 15.5t37 51.5z" />
    <glyph glyph-name="f.sc" horiz-adv-x="1262" 
d="M150 0v48h98q42 0 59.5 17t17.5 54v708q0 38 -17.5 55t-61.5 17h-97v47h967l16 -246l-54 -1l-15 129q-29 68 -104 68h-514v-373h340q72 0 72 62v68h55v-322h-55v75q0 66 -73 66h-339v-353q0 -35 18 -53t63 -18h119v-48h-495z" />
    <glyph glyph-name="g.sc" horiz-adv-x="1520" 
d="M736 -17q-127 0 -235.5 39.5t-181.5 106.5t-114 155t-41 185q0 132 72 245.5t199.5 181t281.5 67.5q145 0 262.5 -59.5t178.5 -150.5l10 179h52l5 -321h-53q-41 120 -157 207.5t-279 87.5q-102 0 -186.5 -37.5t-138.5 -100.5t-83.5 -141.5t-29.5 -162.5
q0 -85 29.5 -161.5t84 -136.5t140.5 -95t191 -35q150 0 252.5 60t129.5 180q0 38 -19 55t-62 17h-342v47h675v-47h-70q-62 0 -62 -75v-282h-56l-32 160q-83 -94 -184.5 -131t-236.5 -37z" />
    <glyph glyph-name="h.sc" horiz-adv-x="1619" 
d="M138 0v48h134q42 0 59 17.5t17 53.5v708q0 37 -16.5 54.5t-59.5 17.5h-134v47h538v-47h-133q-42 0 -58.5 -18.5t-16.5 -53.5v-300h684v300q0 35 -16.5 53.5t-57.5 18.5h-133v47h536v-47h-134q-42 0 -59 -18t-17 -54v-708q0 -36 17.5 -53.5t58.5 -17.5h134v-48h-536v48
h137q70 0 70 71v355h-684v-355q0 -71 69 -71h139v-48h-538z" />
    <glyph glyph-name="i.sc" horiz-adv-x="817" 
d="M138 0v48h131q45 0 62.5 17t17.5 54v709q0 37 -17.5 54.5t-62.5 17.5h-131v47h540v-47h-129q-46 0 -63.5 -17t-17.5 -55v-709q0 -38 17.5 -54.5t63.5 -16.5h129v-48h-540z" />
    <glyph glyph-name="iacute.sc" horiz-adv-x="817" 
d="M409 1134h-54l247 322h185v-4zM138 0v48h131q45 0 62.5 17t17.5 54v709q0 37 -17.5 54.5t-62.5 17.5h-131v47h540v-47h-129q-46 0 -63.5 -17t-17.5 -55v-709q0 -38 17.5 -54.5t63.5 -16.5h129v-48h-540z" />
    <glyph glyph-name="icircumflex.sc" horiz-adv-x="817" 
d="M54 1134l269 322h171l269 -322h-53l-301 259l-302 -259h-53zM138 0v48h131q45 0 62.5 17t17.5 54v709q0 37 -17.5 54.5t-62.5 17.5h-131v47h540v-47h-129q-46 0 -63.5 -17t-17.5 -55v-709q0 -38 17.5 -54.5t63.5 -16.5h129v-48h-540z" />
    <glyph glyph-name="idieresis.sc" horiz-adv-x="817" 
d="M229 1246q-35 0 -58.5 25t-23.5 56q0 34 24 58t58 24q35 0 58.5 -23.5t23.5 -58.5t-24 -58t-58 -23zM585 1246q-34 0 -58 24.5t-24 56.5q0 34 24 58t58 24t58 -24t24 -58q0 -35 -24 -58t-58 -23zM138 0v48h131q45 0 62.5 17t17.5 54v709q0 37 -17.5 54.5t-62.5 17.5h-131
v47h540v-47h-129q-46 0 -63.5 -17t-17.5 -55v-709q0 -38 17.5 -54.5t63.5 -16.5h129v-48h-540z" />
    <glyph glyph-name="igrave.sc" horiz-adv-x="817" 
d="M409 1134l-378 318v4h185l247 -322h-54zM138 0v48h131q45 0 62.5 17t17.5 54v709q0 37 -17.5 54.5t-62.5 17.5h-131v47h540v-47h-129q-46 0 -63.5 -17t-17.5 -55v-709q0 -38 17.5 -54.5t63.5 -16.5h129v-48h-540z" />
    <glyph glyph-name="j.sc" horiz-adv-x="847" 
d="M157 -347q-73 0 -138.5 18.5t-113 62.5t-47.5 106q0 23 16.5 40t45.5 17q30 0 50 -15t20 -41q0 -11 -17.5 -29.5t-10.5 -32.5q21 -43 78.5 -62.5t128.5 -19.5q137 0 199 76t62 233v821q0 34 -16.5 53t-62.5 19h-247v47h625v-47h-102q-43 0 -60 -17.5t-17 -54.5v-795
q0 -59 -9.5 -109.5t-36 -102t-69 -87t-114 -58t-164.5 -22.5z" />
    <glyph glyph-name="k.sc" horiz-adv-x="1573" 
d="M138 0v48h124q41 0 58 16t17 55v708q0 39 -17 55.5t-61 16.5h-121v47h530v-47h-133q-46 0 -62.5 -19t-16.5 -54v-427l516 415q41 27 41 54q0 31 -51 31h-108v47h511v-47h-138q-14 0 -27 -2t-26.5 -7.5t-22.5 -9t-23.5 -13t-19.5 -13t-21 -15.5t-19 -14l-259 -217
l403 -485q37 -41 61.5 -58t59.5 -17h134v-48h-539v48h112q58 0 58 32q0 21 -41 66l-337 398l-264 -215v-210q0 -37 15.5 -53.5t52.5 -17.5l137 -1l3 -47h-526z" />
    <glyph glyph-name="l.sc" horiz-adv-x="1300" 
d="M138 0v48h133q42 0 60 15.5t18 55.5v708q0 37 -17.5 54.5t-61.5 17.5h-132v47h542v-47h-132q-45 0 -62.5 -16.5t-17.5 -55.5v-701q0 -39 16.5 -57.5t63.5 -18.5h396q138 0 140 97l22 167l54 -1l-28 -313h-994z" />
    <glyph glyph-name="lslash.sc" horiz-adv-x="1300" 
d="M1106 314l54 -1l-28 -313h-994v48h133q42 0 60 15.5t18 55.5v209l-185 -142v81l185 142v418q0 37 -17.5 54.5t-61.5 17.5h-132v47h542v-47h-132q-45 0 -62.5 -16.5t-17.5 -55.5v-326l339 260v-82l-339 -260v-293q0 -39 16.5 -57.5t63.5 -18.5h396q138 0 140 97z" />
    <glyph glyph-name="m.sc" horiz-adv-x="1896" 
d="M1626 48h134v-48h-534v48h122q44 0 61.5 16.5t17.5 54.5v725h-19l-478 -844h-69l-469 844h-11v-704q0 -92 77 -92h98v-48h-406v48h99q23 0 39.5 9.5t23.5 25t10 29.5t3 29v685q0 35 -16.5 54t-60.5 19h-98v47h320l460 -821l467 821h362v-47h-133q-46 0 -63 -19t-17 -53
v-708q0 -34 17 -52.5t63 -18.5z" />
    <glyph glyph-name="n.sc" horiz-adv-x="1541" 
d="M1005 946h412v-47h-99q-37 0 -55.5 -25t-18.5 -63v-827h-64l-796 864v-710q0 -90 81 -90h97v-48h-412v48h98q32 0 51 18.5t23 36t4 35.5v679q0 37 -21 59.5t-61 22.5h-96v47h307l731 -787v652q0 34 -18 61t-61 27h-102v47z" />
    <glyph glyph-name="ntilde.sc" horiz-adv-x="1541" 
d="M488 1108h-52q-2 117 49 184.5t143 67.5q36 0 71.5 -15t52 -27.5t51.5 -41.5q2 -2 12.5 -11.5t12.5 -11.5t11.5 -10t13 -10t12 -8t13.5 -8t14 -5.5t16 -5t16 -2.5t19 -1q59 0 93 44t35 125h53q3 -115 -48 -188t-144 -73q-41 0 -79 15.5t-56.5 29.5t-51.5 43
q-25 24 -40.5 36.5t-41 23t-52.5 10.5q-59 0 -90.5 -44t-32.5 -117zM1005 946h412v-47h-99q-37 0 -55.5 -25t-18.5 -63v-827h-64l-796 864v-710q0 -90 81 -90h97v-48h-412v48h98q32 0 51 18.5t23 36t4 35.5v679q0 37 -21 59.5t-61 22.5h-96v47h307l731 -787v652q0 34 -18 61
t-61 27h-102v47z" />
    <glyph glyph-name="o.sc" horiz-adv-x="1450" 
d="M725 -17q-250 0 -403 138t-153 355q0 97 38 184.5t107.5 155t175.5 107.5t233 40q131 0 238 -40.5t176 -108.5t106.5 -156t37.5 -185q0 -100 -38 -188.5t-108 -156t-176 -106.5t-234 -39zM723 36q194 0 307.5 115.5t113.5 322.5q0 208 -114 322t-306 114
q-195 0 -307 -120.5t-112 -311.5q0 -87 27 -165.5t78 -140.5t132 -99t181 -37z" />
    <glyph glyph-name="oacute.sc" horiz-adv-x="1450" 
d="M725 1134h-54l247 322h185v-4zM725 -17q-250 0 -403 138t-153 355q0 97 38 184.5t107.5 155t175.5 107.5t233 40q131 0 238 -40.5t176 -108.5t106.5 -156t37.5 -185q0 -100 -38 -188.5t-108 -156t-176 -106.5t-234 -39zM723 36q194 0 307.5 115.5t113.5 322.5
q0 208 -114 322t-306 114q-195 0 -307 -120.5t-112 -311.5q0 -87 27 -165.5t78 -140.5t132 -99t181 -37z" />
    <glyph glyph-name="ocircumflex.sc" horiz-adv-x="1450" 
d="M370 1134l269 322h171l269 -322h-53l-301 259l-302 -259h-53zM725 -17q-250 0 -403 138t-153 355q0 97 38 184.5t107.5 155t175.5 107.5t233 40q131 0 238 -40.5t176 -108.5t106.5 -156t37.5 -185q0 -100 -38 -188.5t-108 -156t-176 -106.5t-234 -39zM723 36
q194 0 307.5 115.5t113.5 322.5q0 208 -114 322t-306 114q-195 0 -307 -120.5t-112 -311.5q0 -87 27 -165.5t78 -140.5t132 -99t181 -37z" />
    <glyph glyph-name="odieresis.sc" horiz-adv-x="1450" 
d="M545 1246q-35 0 -58.5 25t-23.5 56q0 34 24 58t58 24q35 0 58.5 -23.5t23.5 -58.5t-24 -58t-58 -23zM901 1246q-34 0 -58 24.5t-24 56.5q0 34 24 58t58 24t58 -24t24 -58q0 -35 -24 -58t-58 -23zM725 -17q-250 0 -403 138t-153 355q0 97 38 184.5t107.5 155t175.5 107.5
t233 40q131 0 238 -40.5t176 -108.5t106.5 -156t37.5 -185q0 -100 -38 -188.5t-108 -156t-176 -106.5t-234 -39zM723 36q194 0 307.5 115.5t113.5 322.5q0 208 -114 322t-306 114q-195 0 -307 -120.5t-112 -311.5q0 -87 27 -165.5t78 -140.5t132 -99t181 -37z" />
    <glyph glyph-name="ograve.sc" horiz-adv-x="1450" 
d="M725 1134l-378 318v4h185l247 -322h-54zM725 -17q-250 0 -403 138t-153 355q0 97 38 184.5t107.5 155t175.5 107.5t233 40q131 0 238 -40.5t176 -108.5t106.5 -156t37.5 -185q0 -100 -38 -188.5t-108 -156t-176 -106.5t-234 -39zM723 36q194 0 307.5 115.5t113.5 322.5
q0 208 -114 322t-306 114q-195 0 -307 -120.5t-112 -311.5q0 -87 27 -165.5t78 -140.5t132 -99t181 -37z" />
    <glyph glyph-name="oslash.sc" horiz-adv-x="1450" 
d="M1094 850q90 -68 138.5 -167t48.5 -210q0 -100 -38 -188.5t-108 -156t-176 -106.5t-234 -39q-183 0 -319 78l-62 -71l-46 40l56 64q-89 66 -137 164.5t-48 217.5q0 97 38 184.5t107.5 155t175.5 107.5t233 40q183 0 320 -79l63 72l45 -41zM305 478q0 -188 111 -313
l578 663q-106 82 -270 82q-195 0 -307 -120.5t-112 -311.5zM723 36q194 0 307.5 115.5t113.5 322.5q0 197 -105 313l-579 -664q108 -87 263 -87z" />
    <glyph glyph-name="oslashacute.sc" horiz-adv-x="1450" 
d="M1103 1452l-378 -318h-54l247 322h185v-4zM1094 850q90 -68 138.5 -167t48.5 -210q0 -100 -38 -188.5t-108 -156t-176 -106.5t-234 -39q-183 0 -319 78l-62 -71l-46 40l56 64q-89 66 -137 164.5t-48 217.5q0 97 38 184.5t107.5 155t175.5 107.5t233 40q183 0 320 -79
l63 72l45 -41zM305 478q0 -188 111 -313l578 663q-106 82 -270 82q-195 0 -307 -120.5t-112 -311.5zM723 36q194 0 307.5 115.5t113.5 322.5q0 197 -105 313l-579 -664q108 -87 263 -87z" />
    <glyph glyph-name="otilde.sc" horiz-adv-x="1450" 
d="M381 1108q-2 117 49 184.5t143 67.5q36 0 71.5 -15t52 -27.5t51.5 -41.5q2 -2 12.5 -11.5t12.5 -11.5t11.5 -10t13 -10t12 -8t13.5 -8t14 -5.5t16 -5t16 -2.5t19 -1q59 0 93 44t35 125h53q3 -115 -48 -188t-144 -73q-41 0 -79 15.5t-56.5 29.5t-51.5 43
q-25 24 -40.5 36.5t-41 23t-52.5 10.5q-59 0 -90.5 -44t-32.5 -117h-52zM725 -17q-250 0 -403 138t-153 355q0 97 38 184.5t107.5 155t175.5 107.5t233 40q131 0 238 -40.5t176 -108.5t106.5 -156t37.5 -185q0 -100 -38 -188.5t-108 -156t-176 -106.5t-234 -39zM723 36
q194 0 307.5 115.5t113.5 322.5q0 208 -114 322t-306 114q-195 0 -307 -120.5t-112 -311.5q0 -87 27 -165.5t78 -140.5t132 -99t181 -37z" />
    <glyph glyph-name="p.sc" horiz-adv-x="1235" 
d="M150 0v48h99q42 0 59.5 17t17.5 54v709q0 34 -16.5 53t-62.5 19h-99v46h538q412 0 412 -252q0 -127 -99.5 -192t-286.5 -65h-266v-318q0 -34 17 -52.5t63 -18.5h97v-48h-473zM446 487h258q267 0 267 206q0 207 -266 207h-259v-413z" />
    <glyph glyph-name="q.sc" horiz-adv-x="1345" 
d="M672 -17q-251 0 -404 138t-153 355q0 97 38.5 184.5t107.5 155t175.5 107.5t233.5 40q130 0 237.5 -40.5t176 -108.5t106 -156t37.5 -185q0 -100 -38 -188.5t-108 -156t-176 -106.5t-233 -39zM670 36q194 0 307 115.5t113 322.5q0 208 -114 322t-306 114
q-195 0 -307 -120.5t-112 -311.5q0 -87 27 -165.5t78 -140.5t132.5 -99t181.5 -37zM849 -137q38 -13 95 -41.5t106.5 -46t102.5 -17.5q150 0 227 73l52 -54q-103 -101 -294 -101q-51 0 -94 9t-83.5 30t-62 34.5t-62.5 43.5q-119 85 -213 85q-53 0 -105.5 -24.5t-122.5 -75.5
l-34 32q76 52 132.5 79t115.5 31q108 9 240 -57z" />
    <glyph glyph-name="r.sc" horiz-adv-x="1427" 
d="M149 0v48h98q44 0 61.5 16.5t17.5 54.5v709q0 37 -17 54t-59 17h-101v47h586q180 0 282 -65t102 -188q0 -96 -71.5 -160.5t-193.5 -75.5q31 -18 56 -42.5t68 -73.5l208 -244q46 -49 88 -49h60v-48h-206l-262 322q-54 67 -97.5 90.5t-106.5 23.5h-216v-317q0 -37 17 -54
t61 -17h97v-48h-472zM446 487h258q140 0 216 51t76 156q0 98 -74.5 150.5t-213.5 52.5h-262v-410z" />
    <glyph glyph-name="s.sc" horiz-adv-x="1187" 
d="M653 -17q-125 0 -223 42t-149 123l-10 -133h-56v326h56q8 -132 108 -218.5t273 -86.5q41 0 81.5 10t79 30.5t62 58t23.5 86.5q0 23 -5 43t-18 37t-25 30t-36 25.5t-41 21t-50 19.5t-52.5 17t-58.5 17q-175 57 -232 86q-121 62 -141 157q-5 23 -5 47q0 104 94 173.5
t229 69.5q93 0 175 -36t130 -98l10 117h55v-277h-55q-9 108 -98.5 176t-207.5 68q-106 0 -170 -47t-64 -111q0 -25 8 -46t18 -36.5t35 -31.5t41 -25.5t56.5 -23.5t61 -20.5t72.5 -22.5q5 -2 8 -2.5t7 -2t8 -2.5q66 -19 107 -33t93.5 -39.5t82 -52.5t50.5 -68.5t21 -92.5
q0 -68 -34.5 -123t-88 -86.5t-112 -48t-113.5 -16.5z" />
    <glyph glyph-name="scaron.sc" horiz-adv-x="1187" 
d="M514 1134l-269 322h53l301 -259l302 259h53l-269 -322h-171zM653 -17q-125 0 -223 42t-149 123l-10 -133h-56v326h56q8 -132 108 -218.5t273 -86.5q41 0 81.5 10t79 30.5t62 58t23.5 86.5q0 23 -5 43t-18 37t-25 30t-36 25.5t-41 21t-50 19.5t-52.5 17t-58.5 17
q-175 57 -232 86q-121 62 -141 157q-5 23 -5 47q0 104 94 173.5t229 69.5q93 0 175 -36t130 -98l10 117h55v-277h-55q-9 108 -98.5 176t-207.5 68q-106 0 -170 -47t-64 -111q0 -25 8 -46t18 -36.5t35 -31.5t41 -25.5t56.5 -23.5t61 -20.5t72.5 -22.5q5 -2 8 -2.5t7 -2
t8 -2.5q66 -19 107 -33t93.5 -39.5t82 -52.5t50.5 -68.5t21 -92.5q0 -68 -34.5 -123t-88 -86.5t-112 -48t-113.5 -16.5z" />
    <glyph glyph-name="t.sc" horiz-adv-x="1360" 
d="M420 0v48h121q46 0 63.5 18.5t17.5 52.5v777h-318q-22 0 -38 -3t-33 -11.5t-27 -28t-12 -49.5l-8 -113l-54 1l13 254h1070l14 -254l-54 -1l-8 114q-8 54 -35.5 72.5t-76.5 18.5h-316v-777q0 -34 17 -52.5t65 -18.5h120v-48h-521z" />
    <glyph glyph-name="u.sc" horiz-adv-x="1487" 
d="M747 -17q-227 0 -344 93t-117 273v478q0 36 -17.5 54t-61.5 18h-96v47h516v-47h-145q-43 0 -60.5 -17t-17.5 -55v-478q0 -310 368 -310q199 0 290.5 82t91.5 239v456q0 37 -21 60t-62 23h-87v47h380v-47h-78q-37 0 -56 -22.5t-19 -59.5v-458q0 -376 -464 -376z" />
    <glyph glyph-name="uacute.sc" horiz-adv-x="1487" 
d="M744 1136h-54l247 322h185v-4zM747 -17q-227 0 -344 93t-117 273v478q0 36 -17.5 54t-61.5 18h-96v47h516v-47h-145q-43 0 -60.5 -17t-17.5 -55v-478q0 -310 368 -310q199 0 290.5 82t91.5 239v456q0 37 -21 60t-62 23h-87v47h380v-47h-78q-37 0 -56 -22.5t-19 -59.5
v-458q0 -376 -464 -376z" />
    <glyph glyph-name="ucircumflex.sc" horiz-adv-x="1487" 
d="M389 1136l269 322h171l269 -322h-53l-301 259l-302 -259h-53zM747 -17q-227 0 -344 93t-117 273v478q0 36 -17.5 54t-61.5 18h-96v47h516v-47h-145q-43 0 -60.5 -17t-17.5 -55v-478q0 -310 368 -310q199 0 290.5 82t91.5 239v456q0 37 -21 60t-62 23h-87v47h380v-47h-78
q-37 0 -56 -22.5t-19 -59.5v-458q0 -376 -464 -376z" />
    <glyph glyph-name="udieresis.sc" horiz-adv-x="1487" 
d="M564 1248q-35 0 -58.5 25t-23.5 56q0 34 24 58t58 24t58 -23.5t24 -58.5t-24 -58t-58 -23zM920 1248q-34 0 -58 24.5t-24 56.5q0 34 24 58t58 24t58 -24t24 -58q0 -35 -24 -58t-58 -23zM747 -17q-227 0 -344 93t-117 273v478q0 36 -17.5 54t-61.5 18h-96v47h516v-47h-145
q-43 0 -60.5 -17t-17.5 -55v-478q0 -310 368 -310q199 0 290.5 82t91.5 239v456q0 37 -21 60t-62 23h-87v47h380v-47h-78q-37 0 -56 -22.5t-19 -59.5v-458q0 -376 -464 -376z" />
    <glyph glyph-name="ugrave.sc" horiz-adv-x="1487" 
d="M744 1136l-378 318v4h185l247 -322h-54zM747 -17q-227 0 -344 93t-117 273v478q0 36 -17.5 54t-61.5 18h-96v47h516v-47h-145q-43 0 -60.5 -17t-17.5 -55v-478q0 -310 368 -310q199 0 290.5 82t91.5 239v456q0 37 -21 60t-62 23h-87v47h380v-47h-78q-37 0 -56 -22.5
t-19 -59.5v-458q0 -376 -464 -376z" />
    <glyph glyph-name="v.sc" horiz-adv-x="1403" 
d="M929 946h384v-47h-67q-34 0 -55 -21t-53 -82l-373 -813h-88l-412 831q-28 51 -46 68t-53 17h-76v47h509v-47h-159q-46 0 -58.5 -21t8.5 -57l364 -722l328 705q23 38 11.5 66.5t-58.5 28.5h-106v47z" />
    <glyph glyph-name="w.sc" horiz-adv-x="1885" 
d="M1418 946h373v-47h-52q-33 0 -52.5 -24.5t-38.5 -78.5l-275 -813h-109l-315 851l-291 -851h-109l-311 840q-17 44 -34.5 60t-50.5 16h-60v47h481v-47h-165q-40 0 -52 -21.5t4 -57.5l271 -721h6l292 856h97l316 -854l3 -2l237 692q20 43 9.5 75.5t-56.5 32.5h-118v47z" />
    <glyph glyph-name="wacute.sc" horiz-adv-x="1885" 
d="M1318 1452l-378 -318h-54l247 322h185v-4zM1418 946h373v-47h-52q-33 0 -52.5 -24.5t-38.5 -78.5l-275 -813h-109l-315 851l-291 -851h-109l-311 840q-17 44 -34.5 60t-50.5 16h-60v47h481v-47h-165q-40 0 -52 -21.5t4 -57.5l271 -721h6l292 856h97l316 -854l3 -2
l237 692q20 43 9.5 75.5t-56.5 32.5h-118v47z" />
    <glyph glyph-name="wcircumflex.sc" horiz-adv-x="1885" 
d="M940 1393l-302 -259h-53l269 322h171l269 -322h-53zM1418 946h373v-47h-52q-33 0 -52.5 -24.5t-38.5 -78.5l-275 -813h-109l-315 851l-291 -851h-109l-311 840q-17 44 -34.5 60t-50.5 16h-60v47h481v-47h-165q-40 0 -52 -21.5t4 -57.5l271 -721h6l292 856h97l316 -854
l3 -2l237 692q20 43 9.5 75.5t-56.5 32.5h-118v47z" />
    <glyph glyph-name="wdieresis.sc" horiz-adv-x="1885" 
d="M760 1246q-35 0 -58.5 25t-23.5 56q0 34 24 58t58 24t58 -23.5t24 -58.5t-24 -58t-58 -23zM1116 1246q-34 0 -58 24.5t-24 56.5q0 34 24 58t58 24t58 -24t24 -58q0 -35 -24 -58t-58 -23zM1418 946h373v-47h-52q-33 0 -52.5 -24.5t-38.5 -78.5l-275 -813h-109l-315 851
l-291 -851h-109l-311 840q-17 44 -34.5 60t-50.5 16h-60v47h481v-47h-165q-40 0 -52 -21.5t4 -57.5l271 -721h6l292 856h97l316 -854l3 -2l237 692q20 43 9.5 75.5t-56.5 32.5h-118v47z" />
    <glyph glyph-name="wgrave.sc" horiz-adv-x="1885" 
d="M994 1134h-54l-378 318v4h185zM1418 946h373v-47h-52q-33 0 -52.5 -24.5t-38.5 -78.5l-275 -813h-109l-315 851l-291 -851h-109l-311 840q-17 44 -34.5 60t-50.5 16h-60v47h481v-47h-165q-40 0 -52 -21.5t4 -57.5l271 -721h6l292 856h97l316 -854l3 -2l237 692
q20 43 9.5 75.5t-56.5 32.5h-118v47z" />
    <glyph glyph-name="x.sc" horiz-adv-x="1608" 
d="M142 0v48h65q49 0 126 62l408 360l-380 355q-4 4 -15 14t-14.5 13.5t-12 11t-12 10l-10.5 7.5t-11 6.5t-10.5 5t-12 4t-12.5 1.5t-14 1h-109v47h534v-47h-123q-42 0 -49.5 -20t23.5 -50l308 -284l316 280q36 31 28 52.5t-53 21.5h-134v47h454v-47h-73q-57 0 -136 -64
l-364 -325l406 -382l15 -15t14.5 -14t13 -12t13.5 -11.5t12.5 -9t14 -8.5t14 -5t16 -4t16.5 -1h98v-48h-568v48h152q52 0 61.5 22t-28.5 58l-333 307l-345 -308q-36 -31 -25.5 -55t59.5 -24h151v-48h-474z" />
    <glyph glyph-name="y.sc" horiz-adv-x="1365" 
d="M414 0v48h153q44 0 61 18t17 53v218l-383 498q-27 34 -47 49t-47 15h-78v47h497v-47h-149q-40 0 -48 -23t17 -51l333 -423l323 409q31 35 19.5 61.5t-57.5 26.5h-126v47h376v-47h-29q-28 0 -50 -15.5t-50 -49.5l-381 -490l-1 -225q0 -36 17 -53.5t61 -17.5h151v-48h-579z
" />
    <glyph glyph-name="yacute.sc" horiz-adv-x="1365" 
d="M685 1134h-54l247 322h185v-4zM414 0v48h153q44 0 61 18t17 53v218l-383 498q-27 34 -47 49t-47 15h-78v47h497v-47h-149q-40 0 -48 -23t17 -51l333 -423l323 409q31 35 19.5 61.5t-57.5 26.5h-126v47h376v-47h-29q-28 0 -50 -15.5t-50 -49.5l-381 -490l-1 -225
q0 -36 17 -53.5t61 -17.5h151v-48h-579z" />
    <glyph glyph-name="ycircumflex.sc" horiz-adv-x="1365" 
d="M330 1134l269 322h171l269 -322h-53l-301 259l-302 -259h-53zM414 0v48h153q44 0 61 18t17 53v218l-383 498q-27 34 -47 49t-47 15h-78v47h497v-47h-149q-40 0 -48 -23t17 -51l333 -423l323 409q31 35 19.5 61.5t-57.5 26.5h-126v47h376v-47h-29q-28 0 -50 -15.5
t-50 -49.5l-381 -490l-1 -225q0 -36 17 -53.5t61 -17.5h151v-48h-579z" />
    <glyph glyph-name="ydieresis.sc" horiz-adv-x="1365" 
d="M505 1246q-35 0 -58.5 25t-23.5 56q0 34 24 58t58 24q35 0 58.5 -23.5t23.5 -58.5t-24 -58t-58 -23zM861 1246q-34 0 -58 24.5t-24 56.5q0 34 24 58t58 24t58 -24t24 -58q0 -35 -24 -58t-58 -23zM414 0v48h153q44 0 61 18t17 53v218l-383 498q-27 34 -47 49t-47 15h-78
v47h497v-47h-149q-40 0 -48 -23t17 -51l333 -423l323 409q31 35 19.5 61.5t-57.5 26.5h-126v47h376v-47h-29q-28 0 -50 -15.5t-50 -49.5l-381 -490l-1 -225q0 -36 17 -53.5t61 -17.5h151v-48h-579z" />
    <glyph glyph-name="ygrave.sc" horiz-adv-x="1365" 
d="M685 1134l-378 318v4h185l247 -322h-54zM414 0v48h153q44 0 61 18t17 53v218l-383 498q-27 34 -47 49t-47 15h-78v47h497v-47h-149q-40 0 -48 -23t17 -51l333 -423l323 409q31 35 19.5 61.5t-57.5 26.5h-126v47h376v-47h-29q-28 0 -50 -15.5t-50 -49.5l-381 -490l-1 -225
q0 -36 17 -53.5t61 -17.5h151v-48h-579z" />
    <glyph glyph-name="z.sc" horiz-adv-x="1372" 
d="M1148 302l55 -2l-32 -300h-1002v65l853 839h-626q-97 0 -133 -63l-30 -140l-53 1l31 252h948v-64l-858 -840h685q53 0 83.5 12.5t47.5 52.5z" />
    <glyph glyph-name="zcaron.sc" horiz-adv-x="1372" 
d="M764 1134h-171l-269 322h53l301 -259l302 259h53zM1148 302l55 -2l-32 -300h-1002v65l853 839h-626q-97 0 -133 -63l-30 -140l-53 1l31 252h948v-64l-858 -840h685q53 0 83.5 12.5t47.5 52.5z" />
    <glyph glyph-name="zero.sc" horiz-adv-x="1113" 
d="M557 -17q-88 0 -163.5 27.5t-138 84t-98.5 154.5t-36 227q0 229 119 357.5t317 128.5q93 0 171.5 -30.5t138.5 -89t93.5 -153.5t33.5 -216q0 -231 -118 -360.5t-319 -129.5zM559 34q307 0 307 425q0 452 -310 452q-152 0 -230.5 -116t-78.5 -320q0 -218 78.5 -329.5
t233.5 -111.5z" />
    <glyph glyph-name="one.sc" horiz-adv-x="1112" 
d="M729 49h249v-49h-822v49h292q79 0 79 62v759q-62 -41 -138 -57t-233 -16v48q184 2 267.5 25.5t143.5 91.5h83v-849q0 -64 79 -64z" />
    <glyph glyph-name="two.sc" horiz-adv-x="1112" 
d="M969 213h58l-111 -245h-61q8 16 2.5 24t-33.5 8h-672v58q246 140 442 323q195 175 195 323q0 90 -71.5 148t-193.5 58q-115 0 -192 -47t-77 -117q0 -50 40 -100l-78 -32q-50 64 -50 120q0 99 110.5 163.5t268.5 64.5q163 0 266 -70t103 -185q0 -76 -56.5 -154
t-171.5 -181q-24 -22 -46 -41t-47 -38.5t-40.5 -32t-45.5 -33t-41 -28.5t-47 -31t-43.5 -28t-51.5 -32t-52 -32h560q68 0 89 39z" />
    <glyph glyph-name="three.sc" horiz-adv-x="1112" 
d="M480 -17q-137 0 -235.5 44t-125.5 106q-7 25 6.5 38.5t34.5 14.5q16 0 29 -8.5t17.5 -15t13.5 -21.5q88 -107 263 -107q161 0 263.5 75.5t102.5 187.5q0 48 -19 84.5t-47 56t-67 31.5t-70.5 15.5t-66.5 3.5q-56 0 -101 -18l-63 -29l-34 40l144 61q57 23 100.5 44.5t86 50
t65 61.5t22.5 69q0 68 -72.5 105.5t-188.5 37.5q-119 0 -195 -39.5t-76 -104.5q0 -42 35 -85l-84 -33q-41 46 -41 102q0 94 111 153t276 59q98 0 177.5 -20t128.5 -61.5t49 -97.5q0 -45 -30 -86t-79 -71t-95.5 -50.5t-96.5 -36.5q161 1 259.5 -57.5t98.5 -170.5
q0 -94 -70.5 -170.5t-183.5 -117t-242 -40.5z" />
    <glyph glyph-name="four.sc" horiz-adv-x="1112" 
d="M462 0v49h138q46 0 63 16t17 51v215h-583v76l604 553h101v-570h205v-59h-205v-216q0 -66 81 -66h125v-49h-546zM166 390h514v469h-13l-501 -457v-12z" />
    <glyph glyph-name="five.sc" horiz-adv-x="1112" 
d="M563 629q111 0 200 -33t145 -104t56 -169q0 -89 -39.5 -157t-105.5 -106.5t-142 -57.5t-158 -19q-126 0 -230.5 32.5t-147.5 95.5q-6 18 5 32t31 17q28 4 60 -30q97 -91 292 -91q133 0 223 75t90 203q0 114 -80.5 184t-220.5 70q-164 0 -240 -92h-79l26 467h612l-32 -77
h-523l-20 -332q43 44 117 68t161 24z" />
    <glyph glyph-name="six.sc" horiz-adv-x="1112" 
d="M582 -17q-194 0 -309.5 103t-115.5 306q0 280 131 425t348 145q103 0 182.5 -29t117.5 -79q6 -17 -3 -31t-29 -17q-20 -4 -63 28q-92 76 -229 76q-76 0 -135 -28.5t-95 -73.5t-60 -109t-34 -127t-12 -135q81 162 311 160q175 -2 281 -82.5t106 -220.5q0 -143 -112 -227
t-280 -84zM580 34q128 0 198.5 66.5t70.5 178.5q0 126 -71.5 195.5t-214.5 69.5q-236 0 -277 -244q37 -266 294 -266z" />
    <glyph glyph-name="seven.sc" horiz-adv-x="1112" 
d="M425 -14q-29 0 -41 14.5t-6 37t27 48.5l489 770h-590q-67 0 -89 -39l-46 -97h-59l115 258h59q-8 -16 -2.5 -24t33.5 -8h681l-498 -899q-16 -34 -32.5 -48t-40.5 -13z" />
    <glyph glyph-name="eight.sc" horiz-adv-x="1110" 
d="M557 -17q-122 0 -219 27t-160 89.5t-63 152.5q0 58 24.5 103.5t68.5 74.5t94 46.5t110 27.5q-103 20 -172 72.5t-69 144.5q0 118 108.5 179.5t275.5 61.5q110 0 195 -26t137 -81.5t52 -133.5q0 -90 -68 -143.5t-169 -73.5q294 -50 294 -250q0 -88 -59.5 -150.5
t-157 -91.5t-222.5 -29zM556 525q127 0 194.5 52.5t67.5 147.5q0 83 -68.5 135t-194.5 52t-194 -52t-68 -133q0 -94 67 -148t196 -54zM556 33q149 0 231.5 61.5t82.5 157.5q0 108 -81 165.5t-234 57.5q-151 0 -232.5 -59t-81.5 -155q0 -104 81.5 -166t233.5 -62z" />
    <glyph glyph-name="nine.sc" horiz-adv-x="1112" 
d="M478 -17q-103 0 -181.5 29t-118.5 79q-7 17 2.5 31t29.5 17q23 4 60 -27q91 -77 232 -77q76 0 135 27.5t95.5 72.5t60.5 108t33 127t9 136q-79 -159 -301 -159q-178 0 -286.5 81.5t-108.5 222.5q0 143 113 227t280 84q194 0 309.5 -103t115.5 -306q0 -280 -131.5 -425
t-347.5 -145zM552 401q234 0 275 244q-36 266 -294 266q-126 0 -197 -66.5t-71 -178.5q0 -126 71.5 -195.5t215.5 -69.5z" />
    <glyph glyph-name="uni0308.case" 
d="M-570 1524q-35 0 -58.5 25t-23.5 57q0 34 24 57.5t58 23.5t58 -23.5t24 -57.5q0 -36 -24 -59t-58 -23zM-214 1524q-34 0 -58 25t-24 57q0 34 24 57.5t58 23.5t58 -23.5t24 -57.5q0 -35 -24 -58.5t-58 -23.5z" />
    <glyph glyph-name="gravecomb.case" 
d="M-104 1438l-378 317v4h185l247 -321h-54z" />
    <glyph glyph-name="acutecomb.case" 
d="M-462 1438l246 321h186v-4l-379 -317h-53z" />
    <glyph glyph-name="uni0302.case" 
d="M-760 1470l263 322h183l263 -322h-53l-301 259l-302 -259h-53z" />
    <glyph glyph-name="uni030C.case" 
d="M-494 1456l-269 322h53l301 -259l302 259h53l-269 -322h-171z" />
    <glyph glyph-name="uni030A.case" 
d="M-295 1446q-74 0 -127 53t-53 129t52.5 128.5t127.5 52.5t128.5 -53t53.5 -128q0 -74 -53.5 -128t-128.5 -54zM-295 1497q55 0 93 38t38 93t-38 93t-93 38q-53 0 -90.5 -38t-37.5 -93t37.5 -93t90.5 -38z" />
    <glyph glyph-name="tildecomb.case" 
d="M-809 1440q-2 116 49 183.5t143 67.5q36 0 71 -14.5t52.5 -27.5t51.5 -41q30 -28 42.5 -38.5t40 -22.5t57.5 -12q59 0 93 44t35 125h53q3 -115 -48 -188t-144 -73q-41 0 -79 15.5t-56.5 29.5t-51.5 43q-24 23 -40.5 35.5t-41.5 23t-52 10.5q-58 0 -90 -43.5t-33 -116.5
h-52z" />
    <glyph glyph-name="uni0335.case" 
d="M-971 653v63h817v-63h-817z" />
    <glyph glyph-name="uni0337.case" 
d="M-815 376v88l801 615v-87z" />
    <glyph glyph-name="uni0338.case" 
d="M-1155 15l-47 40l1178 1338l45 -41z" />
    </font>
</defs>
</svg>
