<?xml version="1.0" standalone="no"?>
<!DOCTYPE svg PUBLIC "-//W3C//DTD SVG 1.1//EN" "http://www.w3.org/Graphics/SVG/1.1/DTD/svg11.dtd" >
<svg xmlns="http://www.w3.org/2000/svg" xmlns:xlink="http://www.w3.org/1999/xlink" version="1.1">
<metadata>
Created by FontForge 20170731 at Wed Dec 13 17:12:53 2017
 By ,,,
Copyright (c)2017 HK CartaTM by Alfredo Marco Pradil
</metadata>
<defs>
<font id="HKCarta-Italic" horiz-adv-x="0" >
  <font-face 
    font-family="HK Carta"
    font-weight="400"
    font-style="italic"
    font-stretch="normal"
    units-per-em="2048"
    panose-1="0 0 5 0 0 0 0 0 0 0"
    ascent="1393"
    descent="-655"
    x-height="855"
    cap-height="1353"
    bbox="-1012 -546 2289.5 1812"
    underline-thickness="50"
    underline-position="-200"
    slope="-12"
    unicode-range="U+0020-FB02"
  />
<missing-glyph horiz-adv-x="1169" 
d="M114 0l288 1352h758l-287 -1352h-759zM185 59h642l263 1234h-643z" />
    <glyph glyph-name="fi" unicode="fi" horiz-adv-x="1116" 
d="M803 1381q146 0 225.5 -62t59.5 -174q-7 -31 -29.5 -50t-56.5 -20q-19 0 -31.5 6t-17.5 19.5t-7 23.5t-2.5 29.5t-1.5 25.5q1 62 -35 95.5t-112 33.5q-217 0 -276 -259l-45 -194h557l-171 -737q-6 -25 10 -35.5t52 -10.5h77l-15 -72h-318l184 784h-394l-301 -1289h-164
l301 1289h-205l16 71h207l44 185q40 169 160 255t289 86z" />
    <glyph glyph-name="fl" unicode="fl" horiz-adv-x="1115" 
d="M-9 -505l301 1289h-206l17 71h207l43 185q40 168 159 254.5t278 86.5q138 0 201 -65l165 77l-296 -1275q-6 -25 10 -35.5t52 -10.5h77l-15 -72h-318l249 1064q17 77 15.5 131t-35.5 83.5t-104 29.5q-114 0 -180 -72.5t-92 -186.5l-46 -194h264l-18 -71h-263l-301 -1289
h-164z" />
    <glyph glyph-name="f_f" unicode="ff" horiz-adv-x="1208" 
d="M1337 1381q116 0 186 -60.5t54 -175.5q-5 -29 -29.5 -49t-53.5 -21q-31 -1 -49 25t-15 67q5 141 -123 141q-86 0 -147.5 -70.5t-88.5 -188.5l-46 -194h264l-17 -71h-263l-301 -1289h-164l301 1289h-389l-301 -1289h-164l301 1289h-205l16 71h207l44 185q39 167 157 254
t274 87q84 0 146.5 -32.5t85.5 -94.5q123 127 320 127zM862 855l43 185q3 14 11 40q-45 21 -37 87q5 141 -123 141q-87 0 -148.5 -70t-88.5 -189l-45 -194h388z" />
    <glyph glyph-name="f_f_i" unicode="ffi" horiz-adv-x="1668" 
d="M1347 1381q153 0 230.5 -59t62.5 -177q-5 -29 -29.5 -49t-54.5 -21q-14 0 -24.5 2.5t-17 9.5t-10.5 12t-6 18.5t-2.5 18.5t-1 22.5t-0.5 21.5q-2 128 -152 128q-110 0 -176.5 -69t-94.5 -190l-46 -194h558l-170 -737q-6 -25 10 -35.5t52 -10.5h77l-16 -72h-317l183 784
h-393l-301 -1289h-164l301 1289h-389l-301 -1289h-164l301 1289h-205l16 71h207l44 185q39 167 157 254t274 87q84 0 146.5 -32.5t85.5 -95.5q124 128 330 128zM862 855l43 185q3 14 11 40q-45 21 -37 87q5 141 -123 141q-87 0 -148.5 -70t-88.5 -189l-45 -194h388z" />
    <glyph glyph-name="f_f_l" unicode="ffl" horiz-adv-x="1667" 
d="M1413 118q-6 -25 10 -35.5t52 -10.5h77l-16 -72h-317l249 1064q17 77 15 131t-36 83.5t-104 29.5q-59 0 -106.5 -21t-79.5 -58.5t-53 -82t-33 -97.5l-46 -194h264l-17 -71h-263l-301 -1289h-164l301 1289h-389l-301 -1289h-164l301 1289h-205l16 71h207l44 185
q27 112 93 191t151 114.5t183 35.5q95 0 154.5 -34t81.5 -94q124 128 325 128q137 0 202 -65l164 77zM862 855l43 185q3 14 11 40q-22 10 -31.5 37t-6.5 50q4 63 -26 102t-96 39q-87 0 -148.5 -70t-88.5 -189l-45 -194h388z" />
    <glyph glyph-name=".notdef" horiz-adv-x="1169" 
d="M114 0l288 1352h758l-287 -1352h-759zM185 59h642l263 1234h-643z" />
    <glyph glyph-name=".null" 
 />
    <glyph glyph-name="nonmarkingreturn" horiz-adv-x="682" 
 />
    <glyph glyph-name="space" unicode=" " horiz-adv-x="503" 
 />
    <glyph glyph-name="exclam" unicode="!" horiz-adv-x="569" 
d="M254 446l113 713q3 14 11 67t14 83q3 14 6.5 22.5t12.5 20.5t27 18t43 6q89 0 66 -97q0 -2 -34 -126l-188 -707h-71zM215 -33q-51 0 -87.5 37t-36.5 89t36.5 89t87.5 37t87 -37t36 -89t-36 -89t-87 -37z" />
    <glyph glyph-name="quotedbl" unicode="&#x22;" horiz-adv-x="886" 
d="M277 714l51 463q8 71 20 132q6 31 30 49t55 18q37 0 54.5 -27.5t7.5 -67.5q-4 -18 -17.5 -62t-16.5 -57l-140 -448h-44zM689 714l52 463q9 83 19 132q7 31 30.5 49t54.5 18q37 0 54.5 -27.5t8.5 -67.5q-4 -17 -18 -60.5t-17 -58.5l-139 -448h-45z" />
    <glyph glyph-name="numbersign" unicode="#" horiz-adv-x="1416" 
d="M138 -37l177 417h-223l23 107h244l163 385h-325l22 107h346l174 413h110l-175 -413h435l174 413h110l-175 -413h212l-23 -107h-233l-160 -385h311l-23 -107h-334l-177 -417h-108l177 417h-437l-177 -417h-108zM468 487h437l160 385h-435z" />
    <glyph glyph-name="dollar" unicode="$" horiz-adv-x="1175" 
d="M935 1335q101 -52 180 -194l-29 -141q-8 -44 -38 -44q-40 0 -38 62q1 157 -109 234l-194 -469q3 -1 9 -4t9 -4q40 -15 71 -28.5t66.5 -31.5t61.5 -37.5t51 -44t40.5 -53t25.5 -62.5t9.5 -75.5t-10.5 -88.5q-20 -94 -74.5 -169.5t-125 -119.5t-143.5 -66.5t-139 -22.5
q-98 0 -173 25l-67 -163h-59l75 183q-143 67 -223 251l34 170q10 44 42 44q41 0 36 -62q-9 -111 27 -196t116 -130l221 537q-43 19 -74 34t-65.5 34t-58 38t-46.5 42.5t-35.5 50t-20.5 57.5t-7 68t10 80q30 146 160 242t285 96q86 0 149 -21l48 117h60zM657 805l195 475
q-49 21 -110 21q-119 0 -202.5 -69.5t-103.5 -163.5q-6 -27 -6 -49.5t6 -42.5t14.5 -36t25.5 -31.5t33 -27.5t42.5 -26t49 -24.5t56.5 -25.5zM647 609q-1 0 -4.5 1.5t-5.5 2.5l-221 -536q58 -20 131 -20q67 0 135.5 29.5t125 94.5t75.5 151q12 55 0.5 97t-48.5 74.5
t-78 54.5t-110 51z" />
    <glyph glyph-name="percent" unicode="%" horiz-adv-x="1707" 
d="M436 672q-66 0 -112 26t-68.5 65t-31.5 89.5t-7 95t11 85.5q35 160 126 251.5t218 91.5q55 0 97 -16.5t66 -45t39 -64.5t18.5 -78.5t0.5 -83t-12 -82.5q-11 -53 -36 -106.5t-65.5 -107t-104 -87t-139.5 -33.5zM383 0l980 1352h94l-983 -1352h-91zM437 726q43 0 80 27.5
t62 73.5t41.5 92.5t27.5 98.5q27 117 21.5 184.5t-28.5 93.5t-68 26q-147 0 -215 -314q-58 -282 79 -282zM1239 -24q-66 0 -112 26t-68.5 65t-31.5 89.5t-7 94.5t11 85q34 161 124.5 252t218.5 91q55 0 97 -16.5t66 -45t39 -64.5t18.5 -78.5t0.5 -83t-12 -82.5
q-9 -41 -25.5 -83.5t-46 -88.5t-66.5 -81t-91 -57.5t-115 -22.5zM1239 30q43 0 79.5 27.5t62 73.5t42 92.5t28.5 98.5q27 117 21.5 184.5t-28.5 93.5t-68 26q-147 0 -215 -314q-60 -282 78 -282z" />
    <glyph glyph-name="ampersand" unicode="&#x26;" horiz-adv-x="1601" 
d="M390 -24q-171 0 -263 99t-61 245q28 131 141 226t354 213q-44 58 -66.5 95t-36.5 95t-2 117q24 112 119 176.5t227 64.5q134 0 199.5 -67.5t42.5 -176.5q-34 -168 -298 -307q86 -107 138 -194.5t91 -204.5q84 88 160.5 190t118.5 187q28 51 -41 51h-84l14 70h406l-15 -70
h-61q-38 0 -80.5 -37t-96.5 -104q-70 -98 -99.5 -138t-87.5 -111.5t-102 -115.5q14 -39 20 -54t18 -43t19.5 -38.5t20.5 -26.5t25.5 -21.5t30 -10.5t38.5 -5q79 0 134.5 59.5t80.5 164.5l71 -15q-35 -163 -129.5 -237.5t-211.5 -74.5q-37 0 -66.5 6.5t-53 23t-38.5 30
t-32.5 44t-25 45.5t-24.5 54q-98 -86 -227 -145t-267 -59zM701 827q222 123 252 271q14 63 -26.5 100.5t-125.5 37.5q-82 0 -141 -44.5t-72 -114.5q-10 -57 20.5 -116.5t92.5 -133.5zM469 80q184 0 377 173q-44 133 -97.5 224t-149.5 210q-62 -33 -94 -50t-76.5 -43t-67 -43
t-50.5 -41.5t-42 -46.5t-27 -50t-20 -60q-11 -48 0.5 -96.5t41.5 -88t83.5 -64t121.5 -24.5z" />
    <glyph glyph-name="quotesingle" unicode="'" horiz-adv-x="474" 
d="M277 714l51 463q8 71 20 132q6 31 30 49t55 18q37 0 54.5 -27.5t7.5 -67.5q-4 -18 -17.5 -62t-16.5 -57l-140 -448h-44z" />
    <glyph glyph-name="parenleft" unicode="(" horiz-adv-x="511" 
d="M197 -484q-104 199 -129 438t31 497q21 102 58 210.5t94.5 233.5t145 252t193.5 233l99 -13q-179 -182 -311.5 -428t-190.5 -517q-53 -256 -28 -479t130 -440z" />
    <glyph glyph-name="parenright" unicode=")" horiz-adv-x="514" 
d="M-171 -484q199 219 322 446t179 490q55 268 27.5 507t-128.5 421l91 -13q61 -106 95 -233.5t39 -254t-4.5 -238.5t-31.5 -220q-53 -249 -178.5 -485.5t-311.5 -432.5z" />
    <glyph glyph-name="asterisk" unicode="*" horiz-adv-x="1107" 
d="M423 455q-33 0 -60 24.5t-27 55.5q0 12 5 24.5t11 22t21 25t25 24.5t33.5 30.5t36.5 33.5q23 20 44 40t48.5 48.5t37.5 38.5q17 19 13 32q-4 12 -28 19q-58 15 -152 28q-21 4 -80.5 9t-80.5 8q-39 2 -61 21.5t-22 54.5q0 33 22 59.5t53 26.5q45 0 172 -83q67 -42 160 -84
q25 -12 34 -1q12 10 9 31q-3 20 -8.5 56t-10.5 66t-11 56q-26 93 -29 167q-1 31 19.5 53.5t58.5 22.5q37 0 58.5 -21t20.5 -54q-3 -66 -25 -159q-13 -53 -32 -187q-3 -20 9 -32q8 -8 33 2q35 15 88 46t68 38q21 12 52.5 30.5t44 25t30 15.5t27.5 11.5t21 2.5q35 0 56.5 -27
t21.5 -60q0 -34 -23.5 -53.5t-53.5 -21.5q-21 -4 -81.5 -10t-81.5 -10q-115 -16 -154 -26q-23 -7 -28 -19q-5 -17 11 -33q16 -15 48 -46.5t56 -53.5t54 -47l19.5 -19.5l19.5 -19.5t17 -17.5t16 -18t12.5 -16.5t11 -17t6 -15.5t2.5 -16.5q0 -31 -28 -55.5t-60 -24.5
q-54 0 -80 90q-41 88 -54 113q-51 100 -74 141q-13 22 -26 22q-15 0 -26 -22q-45 -83 -72 -142q-24 -53 -61 -130q-6 -15 -9.5 -22t-12.5 -21.5t-22.5 -21.5t-31.5 -7z" />
    <glyph glyph-name="plus" unicode="+" horiz-adv-x="1275" 
d="M633 121v497h-497v115h497v498h115v-498h498v-115h-498v-497h-115z" />
    <glyph glyph-name="comma" unicode="," horiz-adv-x="616" 
d="M5 -356v74q73 16 133 59t91 88t40 85q4 15 -2 20.5t-18 2.5q-10 0 -25.5 -4t-26.5 -4q-44 0 -72.5 38.5t-16.5 96.5q10 45 49.5 79t96.5 34q76 0 106.5 -60.5t9.5 -159.5q-29 -137 -135 -231t-230 -118z" />
    <glyph glyph-name="hyphen" unicode="-" horiz-adv-x="888" 
d="M129 335l30 143h592l-30 -143h-592z" />
    <glyph glyph-name="period" unicode="." horiz-adv-x="602" 
d="M230 -33q-51 0 -87.5 37t-36.5 89q0 53 36 89.5t88 36.5q50 0 86.5 -37t36.5 -89t-36.5 -89t-86.5 -37z" />
    <glyph glyph-name="slash" unicode="/" horiz-adv-x="824" 
d="M-123 -33l1012 1386h155l-1010 -1386h-157z" />
    <glyph glyph-name="zero" unicode="0" horiz-adv-x="1031" 
d="M425 -24q-57 0 -106.5 21.5t-92 74.5t-65.5 133t-21 206.5t35 284.5q70 332 214.5 505t321.5 173q81 0 142.5 -40t102 -126t43 -221t-35.5 -326q-72 -338 -215 -511.5t-323 -173.5zM432 49q119 0 208.5 154t155.5 468q70 322 49 475.5t-139 153.5q-121 0 -214 -167.5
t-156 -467.5q-67 -305 -45 -460.5t141 -155.5z" />
    <glyph glyph-name="one" unicode="1" horiz-adv-x="1031" 
d="M574 156q-10 -43 1.5 -63.5t61.5 -20.5h174l-15 -72h-693l15 72h187q88 0 109 96l223 1054q-68 -47 -132 -65t-178 -18l10 70q106 2 179.5 20.5t134.5 61.5l1 2l2 -1q47 34 94 87l84 -5z" />
    <glyph glyph-name="two" unicode="2" horiz-adv-x="1031" 
d="M968 997q-21 -104 -99.5 -216.5t-218.5 -257.5q-241 -230 -462 -410h495q75 0 109 67l60 112h68l-178 -338l-68 7q13 23 10 31t-32 8h-646l17 90q340 269 507 470q229 245 276 461q26 122 -17 200t-149 78q-102 0 -185.5 -71.5t-105.5 -174.5q-13 -63 10 -136l-104 -34
q-30 100 -12 181q29 136 154.5 223t279.5 87q162 0 244.5 -104.5t46.5 -272.5z" />
    <glyph glyph-name="three" unicode="3" horiz-adv-x="1031" 
d="M336 -24q-136 0 -217 68t-80 160q4 60 67 62q16 1 26.5 -3t16 -13.5t7.5 -16.5t4.5 -22.5t4.5 -22.5q7 -21 15 -37.5t22.5 -37t33.5 -33.5t48.5 -22t65.5 -9q144 0 255 111t146 279q14 61 8 105t-20.5 72.5t-41 45.5t-51.5 23.5t-52 6.5q-50 0 -101 -26l-69 -38l-32 58
l154 93q270 151 309 331q20 91 -32.5 139.5t-145.5 48.5q-110 0 -189 -62.5t-93 -161.5q-8 -51 10 -107l-111 -35q-32 72 -16 152q18 82 83.5 149t160 104t199.5 37q141 0 229 -73t62 -198q-40 -182 -357 -334q145 3 221.5 -85.5t41.5 -253.5q-29 -132 -120.5 -237.5
t-213.5 -161t-248 -55.5z" />
    <glyph glyph-name="four" unicode="4" horiz-adv-x="1031" 
d="M304 0l17 72h109q53 0 77 26t35 79l63 296h-524l20 108l745 790h113l-173 -814h188l-18 -84h-188l-66 -313q-13 -39 0 -63.5t68 -24.5h102l-16 -72h-552zM179 557h445l133 628h-10l-564 -611z" />
    <glyph glyph-name="five" unicode="5" horiz-adv-x="1031" 
d="M950 1237h-494l-110 -447q51 52 122.5 77.5t147.5 25.5t140 -27.5t110 -83t61 -139t-7 -196.5q-21 -100 -69 -182t-107 -134.5t-129.5 -88.5t-135.5 -51t-125 -15q-71 0 -134.5 20.5t-110 67t-52.5 109.5q0 22 17.5 39t41.5 20q16 1 27 -2t17.5 -12.5t9.5 -16t6.5 -23
t5.5 -21.5q53 -107 192 -107q127 0 234 119.5t147 307.5q16 67 14 128t-19 107.5t-61 74t-111 27.5q-145 0 -242 -137l-85 6l167 669h599z" />
    <glyph glyph-name="six" unicode="6" horiz-adv-x="1031" 
d="M448 -24q-118 0 -197.5 64t-111 197.5t12.5 338.5q43 198 114 353t158.5 251t184.5 145t199 49q103 0 169.5 -45.5t79.5 -121.5q0 -21 -16.5 -38.5t-41.5 -20.5q-42 -7 -63 61q-54 89 -170 89q-56 0 -107 -27.5t-91.5 -77.5t-75.5 -110t-63.5 -136t-49 -144.5
t-38.5 -144.5q103 193 293 193q73 0 133.5 -25.5t105.5 -79.5t58 -138t-9 -202q-29 -133 -104.5 -232.5t-171.5 -148.5t-198 -49zM450 49q111 0 190 98t114 265q79 365 -154 365q-206 0 -314 -363q-26 -184 13.5 -274.5t150.5 -90.5z" />
    <glyph glyph-name="seven" unicode="7" horiz-adv-x="1031" 
d="M312 -20q-32 1 -47 13.5t-13.5 35.5t14 51t36.5 63l682 1075h-528q-63 0 -108 -67l-61 -112h-69l186 356h69q-13 -27 -10 -35t32 -8h640l-720 -1287q-27 -51 -49 -69t-54 -16z" />
    <glyph glyph-name="eight" unicode="8" horiz-adv-x="1031" 
d="M426 -24q-82 0 -152 24t-123.5 70.5t-74.5 125t0 178.5q57 270 367 348q-31 11 -58 27t-56 43t-44.5 62t-23.5 84t7 108q17 83 62 147.5t106.5 103t130.5 58t143 19.5q77 0 140.5 -22.5t108.5 -67t61 -111.5t-1 -156q-14 -65 -47 -118t-78 -88.5t-88.5 -57.5t-90.5 -37
q41 -11 75.5 -28.5t67.5 -47.5t51 -70t25.5 -96.5t-9.5 -127.5q-25 -121 -103 -206.5t-179 -124.5t-217 -39zM579 751q111 0 183.5 78t102.5 220q24 116 -14 184.5t-145 68.5q-112 0 -184.5 -77.5t-99.5 -202.5q-56 -271 157 -271zM429 48q131 0 217.5 91t117.5 234
q63 306 -192 306q-131 0 -215.5 -88.5t-114.5 -232.5q-31 -145 13 -227.5t174 -82.5z" />
    <glyph glyph-name="nine" unicode="9" horiz-adv-x="1031" 
d="M327 -24q-104 0 -169 45.5t-79 121.5q-1 20 15.5 37.5t41.5 21.5q16 2 27 -4t15 -12.5t11.5 -22.5t10.5 -21q50 -90 169 -90q66 0 126 40.5t104 103.5t83.5 151.5t64.5 170.5t47 174q-103 -193 -293 -193q-73 0 -133.5 25.5t-105.5 79.5t-58 138t9 201q29 133 104.5 233
t171.5 149t198 49q118 0 197.5 -64t111 -197.5t-12.5 -338.5q-43 -198 -114 -353t-158.5 -251t-184.5 -145t-199 -49zM535 573q112 0 187.5 95.5t126.5 267.5q25 184 -14 274t-150 90t-189.5 -97.5t-114.5 -264.5q-79 -365 154 -365z" />
    <glyph glyph-name="colon" unicode=":" horiz-adv-x="596" 
d="M367 629q-51 0 -87.5 37t-36.5 89t36.5 88.5t87.5 36.5t87 -36.5t36 -88.5t-36.5 -89t-86.5 -37zM225 -33q-51 0 -88 37t-37 89t36.5 89t88.5 37q50 0 86.5 -37t36.5 -89t-36.5 -89t-86.5 -37z" />
    <glyph glyph-name="semicolon" unicode=";" horiz-adv-x="608" 
d="M367 629q-51 0 -87.5 37t-36.5 89t36.5 88.5t87.5 36.5t87.5 -36.5t36.5 -88.5t-36.5 -89t-87.5 -37zM2 -356l-1 74q56 12 105 40t81 61.5t52 67.5t26 63q4 15 -1.5 20.5t-18.5 2.5q-9 0 -24.5 -4t-26.5 -4q-45 0 -73 38t-17 97q10 45 49.5 79t96.5 34q77 0 107.5 -60.5
t9.5 -159.5q-29 -137 -135 -231t-230 -118z" />
    <glyph glyph-name="less" unicode="&#x3c;" horiz-adv-x="1221" 
d="M1102 1161v-126l-832 -361l832 -361v-124l-954 420v131z" />
    <glyph glyph-name="equal" unicode="=" horiz-adv-x="1489" 
d="M198 856v115h1110v-115h-1110zM198 381v115h1110v-115h-1110z" />
    <glyph glyph-name="greater" unicode="&#x3e;" horiz-adv-x="1221" 
d="M224 1161l954 -421v-131l-954 -420v124l832 361l-832 361v126z" />
    <glyph glyph-name="question" unicode="?" horiz-adv-x="877" 
d="M605 1376q117 0 197 -54.5t109.5 -144.5t7.5 -197q-33 -155 -146 -246.5t-240 -91.5q-52 0 -109 20l-46 -215h-78l64 301l60 -5q22 -18 76 -18q65 0 122 45t90.5 105.5t46.5 124.5q6 37 7.5 78t-10 81t-30.5 72t-55 52t-82 20q-73 0 -143 -45t-109 -127
q-10 -16 -15 -23.5t-21.5 -17t-36.5 -7.5q-25 1 -40 22.5t-5 53.5q41 91 147 154t239 63zM263 219q51 0 87 -37t36 -89t-36 -89t-87 -37t-87.5 37t-36.5 89t36.5 89t87.5 37z" />
    <glyph glyph-name="at" unicode="@" horiz-adv-x="1952" 
d="M822 -449q-148 0 -276 41.5t-221 117.5t-153.5 183.5t-75 239.5t15.5 286q43 202 148 378t253.5 304t340.5 201.5t400 73.5q226 0 372.5 -86t198.5 -235.5t12 -344.5q-28 -131 -97 -260.5t-161.5 -232t-211 -166.5t-235.5 -64q-232 0 -129 250q-87 -107 -180.5 -179
t-179.5 -72q-75 0 -113.5 54.5t-36.5 142t39 190.5q37 115 107 223.5t149.5 185t164 122.5t151.5 46q92 0 125.5 -67t17.5 -168l99 206l136 4l-351 -702q-45 -83 -34.5 -132t85.5 -49q76 0 171 56.5t182 149t158.5 222.5t100.5 264q57 268 -86.5 430t-442.5 162
q-197 0 -380.5 -74t-325.5 -202t-244 -303t-144 -374q-37 -174 -2.5 -317t122 -244.5t224.5 -157t305 -55.5q164 0 333.5 61.5t328.5 190.5t264 305l50 -15q-80 -132 -183 -236.5t-204.5 -169.5t-211 -107.5t-200.5 -59.5t-175 -17zM719 89q65 0 156 76.5t174 198t124 243.5
q52 130 37.5 209t-90.5 79t-172 -96t-168 -215t-112 -223q-48 -119 -32 -195.5t83 -76.5z" />
    <glyph glyph-name="A" unicode="A" horiz-adv-x="1298" 
d="M1148 72h62l-15 -72h-500l16 72h101q35 0 55 19.5t16 53.5l-33 293h-497l-168 -295q-18 -39 -4.5 -55t48.5 -16h110l-15 -72h-401l14 72h44q34 0 79.5 44.5t69.5 86.5l689 1173h96l141 -1188q7 -57 25 -86.5t67 -29.5zM395 511h447l-68 608h-32z" />
    <glyph glyph-name="B" unicode="B" horiz-adv-x="1280" 
d="M1254 1013q-16 -65 -53 -118t-86.5 -87t-96.5 -54.5t-98 -33.5q35 -8 67 -22.5t65 -36.5t57 -52t42 -69t19.5 -87.5t-10.5 -107.5q-19 -78 -64 -140t-102 -99.5t-127.5 -62t-134.5 -33.5t-128 -9h-631l16 72h90q83 0 107 115l224 990q12 45 2 72t-50 27h-100l15 75
l660 -1q186 -1 270.5 -93t46.5 -245zM1067 1030q32 124 -28 188t-199 64h-231l-117 -522h229q136 0 223 61.5t123 208.5zM978 394q12 56 12 99.5t-16 75.5t-40 54t-60.5 35.5t-77 19.5t-90.5 6h-232l-115 -513q-20 -94 47 -94h196q148 0 244 88t132 229z" />
    <glyph glyph-name="C" unicode="C" horiz-adv-x="1430" 
d="M604 -24q-93 0 -171.5 27t-134.5 75t-96 114.5t-58.5 145.5t-18 168t21.5 181q30 134 101 258t169 220t227 153.5t265 57.5q134 0 237.5 -77t153.5 -220l78 243h68l-101 -473l-66 8q2 63 -9.5 124.5t-39 118.5t-68.5 100t-102.5 69t-134.5 26q-110 0 -209 -54.5
t-172 -147.5t-126 -207.5t-82 -243.5q-59 -263 22 -424t282 -161q161 0 319.5 124.5t250.5 336.5l68 -7l-107 -482h-69l30 237q-84 -124 -226 -207t-302 -83z" />
    <glyph glyph-name="D" unicode="D" horiz-adv-x="1479" 
d="M-35 0l16 72h106q43 0 69.5 31.5t37.5 83.5l225 995q13 47 1.5 73.5t-56.5 26.5h-109l14 70h566q167 0 293.5 -41t211.5 -125.5t109.5 -215t-12.5 -308.5q-32 -143 -96 -256t-148.5 -188.5t-192 -125t-221.5 -71t-241 -21.5h-573zM448 76h205q209 0 370 173.5t222 442.5
q32 154 18.5 266t-69.5 184.5t-139 107.5t-189 35h-248l-248 -1096q-6 -34 -7.5 -59.5t19 -39.5t66.5 -14z" />
    <glyph glyph-name="E" unicode="E" horiz-adv-x="1315" 
d="M1267 1003l-68 -3l17 189q-4 56 -27.5 71t-81.5 15h-494l-119 -528h312q41 0 74.5 19.5t43.5 62.5l24 104h70l-103 -460h-70l27 121q9 47 -10 61.5t-65 14.5h-320l-109 -482q-16 -56 -3 -84t70 -28h416q75 0 115 26.5t68 82.5l102 262l70 -3l-125 -444h-1117l15 72h96
q93 0 118 115l224 993q11 55 -2 77.5t-72 22.5h-91l16 72h1058z" />
    <glyph glyph-name="F" unicode="F" horiz-adv-x="1186" 
d="M-34 0l15 72h85q54 0 84.5 28.5t42.5 86.5l224 993q12 58 -2 79t-74 21h-89l16 72h1051l-64 -353l-70 -2l21 180q-1 29 -9.5 48.5t-18 29t-28 14.5t-28 5.5t-30.5 0.5h-479l-118 -527h302q44 0 75 25t42 75l20 86h70l-104 -463h-70l25 109q11 50 -4 71t-65 21h-307
l-114 -500q-12 -54 3 -77t75 -23h108l-16 -72h-569z" />
    <glyph glyph-name="G" unicode="G" horiz-adv-x="1482" 
d="M626 -24q-98 0 -180 26.5t-141 74t-100.5 113.5t-60.5 144.5t-19 167.5t21 182q41 185 154 343t275 253.5t334 95.5q156 0 258.5 -84t134.5 -209l78 252h67l-98 -462l-66 8q0 77 -20 147t-60 130t-110 96t-161 36q-113 0 -214.5 -55.5t-175.5 -149t-126.5 -206
t-79.5 -235.5q-21 -94 -24.5 -179t14.5 -160t56 -129.5t105.5 -86.5t157.5 -32q154 0 274.5 87t182.5 261q11 53 -9 73t-73 20h-303l16 71h718l-16 -71h-62q-75 0 -100 -120l-92 -402h-73l-10 210q-111 -118 -223.5 -164t-248.5 -46z" />
    <glyph glyph-name="H" unicode="H" horiz-adv-x="1598" 
d="M-35 0l16 72h116q100 0 124 115l224 993q11 54 -2 77t-68 23h-121l15 72h600l-16 -72h-114q-53 0 -81 -30t-40 -85l-95 -411h691l99 426q11 53 -2 76.5t-67 23.5h-122l16 72h600l-15 -72h-115q-53 0 -82 -29t-41 -86l-225 -993q-13 -55 1.5 -77.5t68.5 -22.5h121l-16 -72
h-601l17 72h120q92 0 117 115l110 489h-691l-114 -504q-14 -50 -1 -75t63 -25h126l-16 -72h-600z" />
    <glyph glyph-name="I" unicode="I" horiz-adv-x="733" 
d="M-35 0l16 72h110q56 0 87.5 28.5t43.5 86.5l224 995q11 55 -2.5 77.5t-73.5 22.5h-115l14 71h605l-14 -71h-110q-59 0 -89 -27.5t-42 -87.5l-225 -995q-13 -57 2 -78.5t76 -21.5h114l-15 -72h-606z" />
    <glyph glyph-name="J" unicode="J" horiz-adv-x="735" 
d="M-141 -495q-62 0 -117.5 16.5t-98 48t-61 85t-3.5 121.5q8 32 40 54.5t73 22.5t63 -26t13 -70q-2 -10 -24 -38.5t-21 -47.5q9 -94 159 -94q138 0 222.5 108.5t134.5 330.5l261 1164q6 30 6 52t-19.5 35t-62.5 13h-216l15 72h679l-16 -72h-87q-56 0 -85.5 -30t-40.5 -85
l-253 -1120q-14 -60 -28 -108t-38 -106t-53 -102.5t-72 -88t-94.5 -72t-122 -46t-153.5 -17.5z" />
    <glyph glyph-name="K" unicode="K" horiz-adv-x="1536" 
d="M-36 0l15 72h111q97 0 122 115l223 993q12 58 -2 79t-71 21h-110l15 72h598l-16 -72h-114q-58 0 -87 -31.5t-40 -86.5l-134 -581l639 570q68 59 77 97q4 16 -9.5 24t-38.5 8h-103l16 72h554l-16 -72h-114q-19 0 -37.5 -3.5t-39 -12.5t-34 -15t-36.5 -22.5t-32 -23
t-35.5 -27t-32.5 -25.5l-316 -274l268 -689q24 -61 51 -88.5t78 -27.5h125l-17 -72h-617l15 72h100q32 0 57.5 17.5t31.5 44.5q1 5 -0.5 13t-6 20t-7.5 19.5t-10.5 23.5t-9.5 22l-206 527l-315 -283l-69 -304q-13 -56 -1 -77t58 -22l127 -1l-14 -72h-590z" />
    <glyph glyph-name="L" unicode="L" horiz-adv-x="1241" 
d="M-35 0l15 72h116q53 0 83 27t43 88l224 993q12 55 -1.5 77.5t-72.5 22.5h-119l15 72h609l-16 -72h-113q-55 0 -85.5 -27t-43.5 -88l-222 -981q-17 -53 -3.5 -80.5t79.5 -27.5h339q160 0 233 160l72 213l67 -2l-124 -447h-1095z" />
    <glyph glyph-name="M" unicode="M" horiz-adv-x="1884" 
d="M1608 1352h419l-15 -72h-114q-106 0 -131 -115l-223 -993q-6 -30 -6 -52t19.5 -35t62.5 -13h121l-15 -72h-605l15 72h106q54 0 84.5 27t43.5 88l228 1003h-20l-771 -1190h-74l-227 1190h-15l-223 -983q-29 -135 67 -135h91l-16 -72h-443l15 72h86q31 0 56 16t39.5 42
t22.5 48t13 45l216 955q15 47 1.5 74.5t-71.5 27.5h-90l15 72h384l216 -1132z" />
    <glyph glyph-name="N" unicode="N" horiz-adv-x="1485" 
d="M1199 1352h449l-17 -72h-83q-47 0 -81.5 -41t-46.5 -100l-261 -1162h-81l-584 1196l-220 -971q-6 -32 -7.5 -61t18 -49t61.5 -20h89l-16 -72h-453l15 72h85q33 0 60 17t42 43.5t22.5 46.5t11.5 38l213 945q24 118 -76 118h-88l16 72h354l524 -1091l204 894
q27 125 -70 125h-95z" />
    <glyph glyph-name="O" unicode="O" horiz-adv-x="1445" 
d="M625 -24q-115 0 -207.5 35t-153.5 98.5t-97.5 153t-38.5 198t24 234.5q30 135 98.5 256.5t166 217t229.5 151.5t277 56q103 0 187.5 -27t142.5 -76t97 -116t56 -147t15 -169t-23 -183q-31 -138 -100 -260.5t-166.5 -217t-229.5 -149.5t-277 -55zM626 57q204 0 356 167
t219 467q66 296 -12.5 450t-270.5 154q-137 0 -253.5 -82.5t-196 -222t-120.5 -321.5q-27 -120 -27 -227t29 -194.5t99.5 -139t176.5 -51.5z" />
    <glyph glyph-name="P" unicode="P" horiz-adv-x="1188" 
d="M-34 0l15 72h88q53 0 83 28.5t43 86.5l224 995q5 30 5.5 52t-19 35t-62.5 13h-92l15 70h564q69 0 128 -8t113 -25.5t91 -46.5t63.5 -71t30 -98.5t-9.5 -128.5q-27 -123 -107.5 -204t-186 -114.5t-236.5 -33.5h-248l-101 -450q-6 -30 -6 -52t20 -35t63 -13h91l-16 -72
h-553zM486 698h226q132 0 223.5 72.5t127.5 230.5q62 282 -211 282h-235z" />
    <glyph glyph-name="Q" unicode="Q" horiz-adv-x="1446" 
d="M625 -24q-115 0 -207.5 35t-153.5 98.5t-97.5 153t-38.5 198t24 234.5q30 135 98.5 256.5t166 217t229.5 151.5t277 56q103 0 187.5 -27.5t142.5 -76.5t97.5 -116t56 -147.5t14.5 -168.5t-23 -181q-31 -138 -99.5 -261t-166.5 -217.5t-229.5 -149.5t-277.5 -55zM626 57
q204 0 356 166.5t219 467.5q65 291 -12 447.5t-271 156.5q-138 0 -254.5 -82.5t-195.5 -222t-120 -321.5q-27 -120 -27 -227t29 -194.5t99.5 -139t176.5 -51.5zM1055 -457q-49 0 -90.5 12t-76 36t-57.5 45.5t-53 55.5q-5 5 -23 26t-24.5 27.5l-23 23t-26 23t-26.5 18
t-30.5 15.5t-32 8t-37.5 4q-55 0 -122.5 -37t-169.5 -114l-33 59q111 85 192 124.5t159 39.5q121 0 258 -115q46 -37 75 -57.5t77.5 -38.5t100.5 -18q138 0 251 95l53 -94q-134 -138 -341 -138z" />
    <glyph glyph-name="R" unicode="R" horiz-adv-x="1409" 
d="M-37 0l15 72h85q56 0 87 27t44 88l224 995q14 49 0 73.5t-71 24.5h-96l16 72h642q201 0 299.5 -97t57.5 -280q-56 -247 -355 -330q31 -24 52 -61t50 -110l130 -332q14 -36 49.5 -53t71.5 -17h58l-16 -72h-293l-166 462q-33 93 -70.5 126t-111.5 33h-197l-102 -449
q-12 -56 2.5 -78t71.5 -22h91l-17 -72h-551zM485 698h226q142 0 242.5 76t135.5 231q31 140 -33 205.5t-202 65.5h-240z" />
    <glyph glyph-name="S" unicode="S" horiz-adv-x="1107" 
d="M519 -24q-124 0 -215 61t-125 174l-59 -190h-73l104 465l71 -7q-19 -119 4 -212.5t95.5 -151.5t187.5 -58q102 0 197 73.5t125 203.5q6 28 6.5 52t-5 45t-14.5 39t-24.5 34t-33 29t-41 26.5t-46.5 24.5t-53 23q-160 76 -217 116q-112 81 -122 196q-5 53 10 120
q21 96 87.5 174.5t156.5 121t185 42.5q92 0 167 -51.5t109 -138.5l56 166h71l-89 -397l-68 8q19 154 -52.5 245.5t-186.5 91.5q-112 0 -191 -69.5t-101 -164.5q-24 -109 47 -173q44 -40 178 -100q8 -3 26 -11l1 -1h1l1 -1h1l1 -1h1h1l1 -1h1l1 -1h1l2 -1q38 -16 66.5 -30
t62 -32.5t56.5 -38t46.5 -44t37 -53t22.5 -62t7.5 -74t-11.5 -86.5q-21 -95 -74 -171t-121 -120t-138 -67t-134 -23z" />
    <glyph glyph-name="T" unicode="T" horiz-adv-x="1315" 
d="M256 0l17 72h104q107 0 132 115l245 1088h-287q-26 0 -47 -4.5t-48.5 -18t-50 -45.5t-38.5 -80l-41 -142l-69 2l93 365h1185l-70 -365l-70 -2l25 159q1 45 -5.5 72t-24.5 39.5t-36 16t-51 3.5h-289l-249 -1103q-6 -29 -7 -51t19 -35.5t65 -13.5h111l-16 -72h-597z" />
    <glyph glyph-name="U" unicode="U" horiz-adv-x="1441" 
d="M624 -24q-251 0 -353.5 137.5t-44.5 397.5l152 669q12 53 -1.5 76.5t-73.5 23.5h-87l16 72h585l-17 -72h-120q-57 0 -87.5 -29t-42.5 -86l-151 -669q-49 -216 15 -325.5t258 -109.5q109 0 195 33.5t145.5 97t98.5 146t64 189.5l144 634q27 119 -78 119h-80l15 72h425
l-17 -72h-66q-47 0 -81.5 -38.5t-45.5 -93.5l-144 -637q-60 -268 -213 -401.5t-410 -133.5z" />
    <glyph glyph-name="V" unicode="V" horiz-adv-x="1370" 
d="M1131 1352h424l-16 -72h-57q-44 0 -80 -36t-98 -135l-661 -1135h-99l-180 1180q-14 78 -30.5 102t-64.5 24h-75l15 72h581l-16 -72h-135q-59 0 -83 -34.5t-13 -93.5l148 -964l546 952q20 32 29.5 55t11.5 43.5t-14 31t-50 10.5h-99z" />
    <glyph glyph-name="W" unicode="W" horiz-adv-x="1868" 
d="M1645 1352h405l-16 -72h-44q-43 0 -78.5 -42t-76.5 -127l-547 -1135h-123l-77 1167l-570 -1167h-126l-61 1195q-5 63 -19.5 86t-59.5 23h-57l15 72h534l-38 -72h-139q-20 0 -44 -38t-21 -89l52 -966l570 1176h115l77 -1172l440 928q12 25 19 43t13 38t5.5 33t-5 24.5
t-18 17t-34.5 5.5h-106z" />
    <glyph glyph-name="X" unicode="X" horiz-adv-x="1551" 
d="M-46 0l16 72h59q76 0 190 107l519 486l-269 500q-35 69 -61 92t-74 23h-104l16 72h610l-16 -72h-107q-50 0 -68 -33t8 -81l210 -374l394 378q34 33 46.5 57.5t1 38.5t-50.5 14h-123l16 72h495l-15 -72h-71q-34 0 -71 -19t-58 -37t-70 -64l-457 -427l287 -537
q34 -66 64 -95t80 -29h92l-17 -72h-653l17 72h135q65 0 86.5 36t-10.5 96l-225 400l-434 -415q-35 -35 -46 -61.5t4 -41t55 -14.5h139l-16 -72h-524z" />
    <glyph glyph-name="Y" unicode="Y" horiz-adv-x="1314" 
d="M249 0l15 72h131q56 0 85 29t41 85l70 304l-230 695q-18 52 -37 73.5t-56 21.5h-75l15 72h530l-15 -72h-97q-48 0 -65.5 -37.5t0.5 -80.5l195 -576l441 564q98 130 -13 130h-84l16 72h384l-17 -72h-32q-55 0 -144 -110l-537 -670l-76 -328q-15 -50 -0.5 -75t73.5 -25h136
l-15 -72h-639z" />
    <glyph glyph-name="Z" unicode="Z" horiz-adv-x="1305" 
d="M1379 1362l-20 -90l-1153 -1196h637q70 0 120.5 25t98.5 104l82 224l70 -3l-127 -426h-1097l19 93l1144 1193h-566q-80 0 -135.5 -24t-91.5 -96l-61 -166l-68 3l111 359h1037z" />
    <glyph glyph-name="bracketleft" unicode="[" horiz-adv-x="673" 
d="M-3 -475l388 1827h463l-14 -70h-218q-95 0 -114 -95l-322 -1518q-9 -40 5 -57t71 -17h219l-15 -70h-463z" />
    <glyph glyph-name="backslash" unicode="\" horiz-adv-x="800" 
d="M594 -33l-420 1386h131l422 -1386h-133z" />
    <glyph glyph-name="bracketright" unicode="]" horiz-adv-x="672" 
d="M-171 -475l14 70h213q98 0 118 89l322 1518q9 42 -3.5 61t-66.5 19h-224l15 70h463l-388 -1827h-463z" />
    <glyph glyph-name="asciicircum" unicode="^" horiz-adv-x="1059" 
d="M1020 636h-134l-192 561l-437 -561h-132l557 717h88z" />
    <glyph glyph-name="underscore" unicode="_" horiz-adv-x="1340" 
d="M15 -189l22 105h1049l-22 -105h-1049z" />
    <glyph glyph-name="grave" unicode="`" horiz-adv-x="776" 
d="M811 1030l-399 318v4h236l223 -322h-60z" />
    <glyph glyph-name="a" unicode="a" horiz-adv-x="1090" 
d="M359 -23q-83 0 -146.5 35.5t-98.5 98t-46 146.5t12 181q26 117 85 207t130.5 139.5t140 73.5t127.5 24q68 0 138.5 -32t113.5 -95l24 100h163l-159 -704q-10 -35 -2 -56t45 -21h77l-16 -74h-282l17 105q-165 -128 -323 -128zM422 67q64 0 139 38.5t133 109.5l108 463
q-59 113 -198 113q-125 0 -223 -108t-133 -264q-34 -152 13.5 -252t160.5 -100z" />
    <glyph glyph-name="b" unicode="b" horiz-adv-x="1064" 
d="M499 -23q-84 0 -155 39.5t-115 106.5l-111 -133h-58l268 1192q13 47 1 68t-58 16l-86 -21l9 71l341 71l-140 -618q136 113 297 113q106 0 184 -58.5t109.5 -166.5t1.5 -242q-44 -193 -187 -315.5t-301 -122.5zM464 63q65 0 126 35t106.5 91.5t78 122.5t47.5 132
q32 144 -15.5 247.5t-164.5 103.5q-72 0 -143 -39.5t-124 -96.5l-108 -466q25 -58 76 -94t121 -36z" />
    <glyph glyph-name="c" unicode="c" horiz-adv-x="917" 
d="M399 -27q-185 0 -276.5 129.5t-46.5 333.5q45 197 196 321.5t336 124.5q71 0 132.5 -21.5t103.5 -71t42 -118.5q-2 -30 -20 -49.5t-47 -20.5q-19 -1 -32 8t-18.5 25t-8 30t-2.5 31q-33 115 -160 115q-54 0 -104 -22.5t-89 -60t-71 -87t-53.5 -101t-33.5 -103.5
q-40 -181 11 -280.5t177 -99.5q103 0 185 61t133 148l57 -45q-157 -247 -411 -247z" />
    <glyph glyph-name="d" unicode="d" horiz-adv-x="1091" 
d="M359 -23q-83 0 -146.5 35.5t-98.5 98t-46 146.5t12 181q26 117 85 207t130.5 139.5t140 73.5t127.5 24q68 0 138.5 -32t113.5 -95l99 425q11 47 -1.5 68t-60.5 17l-82 -20l9 69l342 73l-278 -1236q-10 -35 -1.5 -56t44.5 -21h77l-16 -74h-282l17 105q-165 -128 -323 -128
zM422 67q64 0 139 38.5t133 109.5l108 463q-59 113 -198 113q-125 0 -223 -108t-133 -264q-34 -152 13.5 -252t160.5 -100z" />
    <glyph glyph-name="e" unicode="e" horiz-adv-x="912" 
d="M390 -27q-178 0 -266 133t-42 340q44 195 184 315.5t310 120.5q123 0 208 -62.5t85 -162.5q0 -46 -21.5 -84t-56 -64t-86.5 -45.5t-104 -30.5t-117 -18t-118 -9.5t-115 -3.5q-36 -171 12 -260t173 -89q82 0 162 52t138 137l54 -48q-73 -103 -178.5 -162t-221.5 -59z
M264 470q467 16 467 193q0 68 -43 107t-115 39q-105 0 -190 -96.5t-119 -242.5z" />
    <glyph glyph-name="f" unicode="f" horiz-adv-x="616" 
d="M-11 -505l294 1289h-195l14 71h195l43 185q38 167 152 254t264 87q112 0 179 -60.5t51 -175.5q-6 -30 -29 -49t-53 -21q-32 -1 -49.5 23t-15.5 66q1 73 -24.5 108.5t-87.5 35.5q-85 0 -143 -69.5t-85 -189.5l-44 -194h253l-16 -71h-251l-295 -1289h-157z" />
    <glyph glyph-name="g" unicode="g" horiz-adv-x="1016" 
d="M261 -510q-55 0 -105 6t-101.5 23t-85.5 44t-50 73t-2 106q18 81 78 128t165 72q-147 36 -128 151q9 79 76.5 142.5t178.5 91.5q-53 18 -87 52.5t-45.5 72.5t-14 79.5t7.5 73.5q27 122 142 199t274 77q83 0 150.5 -29t107.5 -83q108 110 186 110q37 0 58 -26t19 -70
q-2 -40 -38 -42q-20 -1 -30 26q-11 34 -41 34q-26 0 -60.5 -25.5t-66.5 -68.5q22 -49 5 -134q-21 -94 -91 -159.5t-154 -93.5t-176 -30q-113 -1 -187.5 -36.5t-86.5 -91.5q-9 -38 12.5 -58t78.5 -28q61 -8 260 -8q179 0 252 -60t41 -205q-32 -139 -175 -226t-367 -87z
M446 366q91 0 163 66t97 176q10 45 0 89.5t-48 78.5t-100 34q-96 0 -167.5 -73t-91.5 -160q-18 -77 19.5 -144t127.5 -67zM272 -439q162 0 281.5 59t142.5 161q18 79 -40 112t-228 33q-368 0 -412 -194q-11 -50 2.5 -84t50.5 -52.5t86 -26.5t117 -8z" />
    <glyph glyph-name="h" unicode="h" horiz-adv-x="1087" 
d="M62 0l265 1178q13 44 1 67t-58 16l-85 -20l9 70l343 76l-171 -750q85 107 185 176t191 69q137 0 186.5 -84.5t14.5 -239.5l-91 -398q-9 -46 3 -67t53 -21h78l-16 -72h-315l127 570q14 66 14 113t-28.5 73t-88.5 26q-86 0 -181 -89.5t-162 -203.5l-110 -489h-164z" />
    <glyph glyph-name="i" unicode="i" horiz-adv-x="547" 
d="M462 1154q-47 0 -79.5 34t-32.5 80t33 79t79 33t79 -33t33 -79q0 -49 -33 -81.5t-79 -32.5zM98 0l154 681q13 51 0 70.5t-62 13.5l-88 -21l10 71l349 73l-169 -750q-8 -37 7 -51.5t54 -14.5h77l-15 -72h-317z" />
    <glyph glyph-name="j" unicode="j" horiz-adv-x="517" 
d="M462 1154q-47 0 -79.5 34t-32.5 80t33 79t79 33t79 -33t33 -79q0 -49 -33 -81.5t-79 -32.5zM-194 -518q-105 0 -161.5 57t-44.5 159q4 26 23.5 42t45.5 17q27 1 41 -19t14 -55q-4 -126 113 -126q83 0 140 76.5t86 206.5l190 840q11 49 -2 69.5t-68 14.5l-85 -21l11 71
l353 74l-223 -991q-47 -214 -147.5 -314.5t-285.5 -100.5z" />
    <glyph glyph-name="k" unicode="k" horiz-adv-x="1127" 
d="M61 0l266 1181q13 48 0.5 69t-60.5 15l-85 -21l10 71l344 72l-228 -1008l637 476h181l-14 -71h-56q-62 0 -155 -66l-213 -149l204 -407q22 -45 41 -67.5t46 -22.5h54l-15 -72h-226l-240 479l-262 -189l-65 -290h-164z" />
    <glyph glyph-name="l" unicode="l" horiz-adv-x="508" 
d="M61 0l266 1181q13 48 0.5 69t-60.5 15l-85 -21l10 71l344 72l-276 -1227q-20 -88 40 -88h94l-17 -72h-316z" />
    <glyph glyph-name="m" unicode="m" horiz-adv-x="1796" 
d="M126 0l153 673q13 43 1 66t-58 17l-86 -21l10 71l342 76l-57 -246q91 106 201 176t203 70q115 0 166.5 -63t36.5 -188q92 109 204.5 180t207.5 71q135 0 185.5 -83.5t15.5 -240.5l-90 -398q-10 -46 1 -67t54 -21h77l-15 -72h-317l127 570q28 101 6 156.5t-108 55.5
q-90 0 -191.5 -85t-169.5 -192l-116 -505h-163l128 570q15 67 15 114t-29 72.5t-90 25.5q-92 0 -198 -91.5t-171 -201.5l-111 -489h-164z" />
    <glyph glyph-name="n" unicode="n" horiz-adv-x="1123" 
d="M96 0l152 673q13 43 1.5 66t-57.5 17l-87 -21l10 71l342 76l-57 -245q84 107 184 176t193 69q132 0 184.5 -82t15.5 -242l-90 -398q-10 -46 2 -67t53 -21h78l-15 -72h-315l126 570q28 99 6 155.5t-110 56.5q-86 0 -180.5 -89.5t-161.5 -203.5l-110 -489h-164z" />
    <glyph glyph-name="o" unicode="o" horiz-adv-x="1000" 
d="M404 -27q-25 0 -53 4.5t-62 14t-65 27.5t-61 42.5t-51 61.5t-34.5 82t-12.5 107t17 133q20 92 63 168t96 124.5t116 82t122.5 48t115.5 14.5q54 0 106.5 -15t103.5 -49t83 -88t44.5 -132t-12.5 -181q-23 -102 -70 -182t-101.5 -128t-119 -79.5t-119.5 -43t-106 -11.5z
M409 47q102 0 202.5 105t142.5 291q38 166 -5.5 266t-156.5 100q-115 0 -210.5 -109t-134.5 -282q-30 -128 -10 -210t65 -121.5t107 -39.5z" />
    <glyph glyph-name="p" unicode="p" horiz-adv-x="1101" 
d="M-15 -505l266 1188q11 49 -1.5 68t-65.5 15l-78 -20l10 70l332 72l-24 -138q71 63 153.5 97.5t161.5 34.5q159 0 244.5 -132.5t40.5 -334.5q-29 -126 -105.5 -228.5t-177 -158t-202.5 -55.5q-160 0 -251 132l-139 -610h-164zM497 64q67 0 129.5 35.5t108 92.5t77.5 121
t46 127q18 94 8 172t-59.5 128.5t-128.5 50.5q-68 0 -141.5 -42.5t-129.5 -107.5l-105 -458q29 -58 83 -88.5t112 -30.5z" />
    <glyph glyph-name="q" unicode="q" horiz-adv-x="1061" 
d="M535 -505l134 595q-139 -117 -299 -117q-168 0 -252.5 132t-39.5 332q30 135 109.5 238.5t178.5 154.5t200 51q170 0 269 -142l111 131h58l-307 -1375h-162zM421 61q56 0 128.5 34.5t139.5 102.5l109 468q-28 60 -79 95.5t-119 35.5q-117 0 -217 -105t-139 -279
q-17 -63 -12.5 -125.5t22.5 -113t61.5 -82t105.5 -31.5z" />
    <glyph glyph-name="r" unicode="r" horiz-adv-x="823" 
d="M98 0l151 676q12 47 1 68t-53 15l-92 -20l10 71l323 78l-43 -249q158 243 343 243q72 0 106.5 -43t35.5 -106q-1 -29 -19 -51t-51 -23q-8 -1 -15 1t-11.5 4.5t-9 9t-6.5 10t-6 12.5t-6 12q-22 59 -97 59q-56 0 -109.5 -37.5t-93.5 -97.5t-69 -127.5t-44 -135.5l-82 -369
h-163z" />
    <glyph glyph-name="s" unicode="s" horiz-adv-x="956" 
d="M522 816q-99 0 -167 -37t-79 -102q-3 -23 1 -41t12 -30.5t26.5 -23t33.5 -16.5t44.5 -12t49 -9t55.5 -8q10 -1 15 -2q41 -6 70.5 -11.5t66.5 -16t62.5 -23.5t51 -33t39.5 -45t20.5 -60t1.5 -77q-16 -139 -126.5 -217.5t-277.5 -78.5q-103 0 -176.5 29.5t-107.5 74.5
l-58 -104h-56l59 270l60 -1q21 -93 103 -148t195 -55q103 0 174.5 45t83.5 126q15 95 -85 132q-45 17 -163 33q-40 6 -67 11t-62.5 14.5t-58.5 20t-47.5 28.5t-37 40.5t-19 54t-1.5 70.5q13 127 117 197.5t260 70.5q183 0 263 -100l51 100h53l-55 -257l-51 1
q-11 91 -84 140.5t-189 49.5z" />
    <glyph glyph-name="t" unicode="t" horiz-adv-x="719" 
d="M337 -27q-117 0 -166 79.5t-15 229.5l113 502h-175l14 71h107q69 0 127.5 48.5t74.5 121.5l29 133h67l-67 -303h296l-14 -71h-296l-113 -494q-27 -114 -10.5 -172.5t85.5 -58.5q50 0 97 36.5t69 102.5l56 -15q-17 -59 -50 -102t-73.5 -65.5t-79 -32.5t-76.5 -10z" />
    <glyph glyph-name="u" unicode="u" horiz-adv-x="1123" 
d="M346 -27q-137 0 -186 84t-14 241l90 397q9 48 -3 68.5t-52 20.5h-78l15 71h315l-127 -570q-28 -99 -5.5 -155.5t109.5 -56.5q45 0 95.5 27t95.5 72t83 94t68 100l76 329q20 89 -42 89h-88l14 71h315l-157 -694q-13 -44 -1 -65.5t59 -16.5l87 21l-12 -72l-338 -52l56 242
q-82 -106 -182 -175.5t-193 -69.5z" />
    <glyph glyph-name="v" unicode="v" horiz-adv-x="949" 
d="M738 855h299l-594 -873h-108l-137 712q-12 56 -27.5 73t-48.5 17h-54l14 71h242l144 -725l364 552q64 102 -1 102h-108z" />
    <glyph glyph-name="w" unicode="w" horiz-adv-x="1448" 
d="M1215 855h307l-513 -875h-116l-108 718l-385 -718h-104l-87 722q-7 50 -21 66t-47 16h-71l14 71h263l83 -683l378 696h113l109 -727l303 533q34 59 30.5 84.5t-51.5 25.5h-113z" />
    <glyph glyph-name="x" unicode="x" horiz-adv-x="1036" 
d="M-48 0l499 422l-211 311q-31 51 -78 51h-66l16 71h241l218 -344l213 193q22 20 30 38.5t-1.5 30t-33.5 11.5h-99l14 71h376l-466 -393l216 -325q23 -37 42.5 -51t45.5 -14h38l-16 -72h-220l-229 367l-240 -213q-21 -19 -31 -37.5t-2 -31.5t36 -13h118l-17 -72h-393z" />
    <glyph glyph-name="y" unicode="y" horiz-adv-x="934" 
d="M-22 -483q-34 -1 -52.5 16.5t-18.5 49.5q0 36 21.5 52t62.5 26q89 20 165.5 74.5t155.5 169.5l89 131l-196 671q-11 39 -27 58t-44 19h-69l16 71h253l182 -651l297 467q17 27 25.5 47t10 35.5t-8 23t-30.5 7.5h-125l15 71h320l-662 -1013q-106 -163 -189.5 -237
t-190.5 -88z" />
    <glyph glyph-name="z" unicode="z" horiz-adv-x="935" 
d="M930 855l-18 -86l-717 -697h377q66 0 121 93l50 117l68 -2l-88 -280h-740l17 84l718 700h-361q-29 0 -51.5 -18.5t-52.5 -70.5l-44 -107l-69 3l86 264h704z" />
    <glyph glyph-name="braceleft" unicode="{" horiz-adv-x="587" 
d="M359 -521q-64 -2 -117.5 10t-91.5 35.5t-66 56.5t-40.5 72t-17 83t6.5 89q15 71 73 190t71 179q37 178 -131 192l12 84q180 21 226 225q10 50 3 168.5t11 194.5q8 39 27.5 79t57.5 83.5t87.5 77t124 55.5t161.5 23l-3 -45q-133 -6 -221 -76t-114 -186q-16 -67 -10 -185.5
t-6 -180.5q-22 -105 -98.5 -179t-211.5 -93l-9 -8q114 -21 168 -98t28 -204q-10 -48 -66.5 -162.5t-72.5 -198.5q-23 -119 41.5 -178.5t180.5 -59.5z" />
    <glyph glyph-name="bar" unicode="|" horiz-adv-x="610" 
d="M42 -483l390 1835h139l-390 -1835h-139z" />
    <glyph glyph-name="braceright" unicode="}" horiz-adv-x="587" 
d="M-169 -521l3 45q116 0 211.5 68.5t123.5 197.5q17 73 10 186t5 175q25 116 107 184.5t204 89.5l9 8q-66 10 -111.5 38.5t-65.5 68.5t-25.5 90t8.5 103q10 49 66.5 168.5t71.5 197.5q21 105 -36 166.5t-187 67.5l3 43q63 0 114.5 -13t86.5 -33.5t61 -49t40 -59.5t21 -65.5
t6.5 -66t-6.5 -61.5q-13 -68 -70 -185t-70 -178q-39 -176 129 -197l-12 -84q-75 -6 -137.5 -58t-85.5 -162q-10 -48 -3.5 -168t-11.5 -201q-30 -135 -153 -228.5t-306 -87.5z" />
    <glyph glyph-name="asciitilde" unicode="~" horiz-adv-x="1305" 
d="M231 532q1 39 8 77.5t25 81.5t45.5 75t73.5 53t104 21t114.5 -22t166.5 -83q51 -33 71.5 -45t52 -23t64.5 -11q76 0 121.5 49.5t49.5 139.5h58q2 -132 -65.5 -221t-193.5 -89q-49 0 -97.5 14.5t-74 28t-96.5 55.5q-15 8 -23 13q-59 39 -96 55.5t-81 16.5
q-77 0 -120.5 -48.5t-48.5 -137.5h-58z" />
    <glyph glyph-name="uni00A0" unicode="&#xa0;" horiz-adv-x="545" 
 />
    <glyph glyph-name="exclamdown" unicode="&#xa1;" horiz-adv-x="569" 
d="M354 888q51 0 87.5 -37t36.5 -89t-36.5 -89t-87.5 -37t-87 37t-36 89t36 89t87 37zM315 409l-113 -713q-3 -14 -11 -67t-14 -83q-3 -14 -6.5 -22.5t-12.5 -20.5t-27 -18t-43 -6q-89 0 -66 97q0 2 34 126l188 707h71z" />
    <glyph glyph-name="cent" unicode="&#xa2;" horiz-adv-x="1033" 
d="M812 1073q82 -21 133.5 -71t54.5 -127q-2 -29 -20 -48t-47 -22q-26 0 -41 16.5t-18 34.5t-4 43q-26 72 -89 99l-302 -731q27 -6 59 -6q108 0 194 61t139 147l59 -45q-160 -246 -427 -246q-31 0 -59 3l-150 -363h-60l154 374q-143 36 -208.5 157t-28.5 291
q42 197 198.5 322t351.5 125q28 0 55 -3l152 368h60zM426 284l301 729q-24 2 -37 2q-71 0 -135 -34t-109 -90t-76 -120t-45 -130q-29 -139 -2.5 -229.5t103.5 -127.5z" />
    <glyph glyph-name="sterling" unicode="&#xa3;" horiz-adv-x="1482" 
d="M78 -36q-30 0 -46 33q-15 26 -5 52q23 34 65.5 72.5t91 76t62.5 50.5q131 154 240 379l-326 -1l44 91l320 1q19 37 50 102.5t56.5 116.5t50.5 95q111 188 240 265t299 77q117 0 184 -55.5t69 -148.5q-3 -24 -21.5 -40.5t-42.5 -18.5q-30 -1 -46 20.5t-20 53.5
q-19 58 -57.5 85.5t-101.5 27.5q-67 0 -121.5 -23t-99 -70t-77.5 -98t-71 -127q-26 -45 -72.5 -138t-63.5 -126l356 1l-41 -91l-369 -1q-105 -190 -208 -305q67 41 143 41q24 0 45 -4t41 -16l32.5 -19.5t30.5 -28.5t24.5 -28.5t26 -34t23.5 -31.5q24 -33 39.5 -51
t41.5 -39.5t57.5 -31.5t71.5 -10q61 0 106 27.5t69.5 74t35 101t6.5 113.5q-1 26 15 41.5t44 18.5q30 1 46.5 -18t18.5 -53q5 -65 -33 -137q-47 -109 -156 -187t-222 -78q-34 0 -64.5 6.5t-52 14t-45 25.5t-35.5 27.5t-32.5 35.5t-25.5 33.5t-25 35.5q-27 38 -43.5 57.5
t-46 36t-64.5 16.5q-85 0 -186 -97q-30 -31 -71 -77.5t-60 -66.5t-44.5 -36.5t-49.5 -16.5z" />
    <glyph glyph-name="currency" unicode="&#xa4;" horiz-adv-x="1267" 
d="M310 291l-54 56l130 128q-88 123 -88 248q0 127 90 251l-132 131l54 56l135 -131q122 91 249 91q130 0 252 -91l133 131l54 -56l-131 -130q90 -126 90 -252q0 -121 -88 -247l129 -129l-54 -56l-133 131q-122 -91 -252 -91t-251 90zM694 408q131 0 225 93t94 223
q0 132 -95 226t-224 94q-130 0 -223 -94.5t-93 -225.5q0 -130 93 -223t223 -93z" />
    <glyph glyph-name="yen" unicode="&#xa5;" horiz-adv-x="1521" 
d="M356 0l15 72h148q97 0 122 115l33 157h-468l14 67h468l19 79l-35 88h-416l14 67h377l-202 542q-19 53 -37.5 74t-56.5 21h-80l15 71h534l-14 -71h-104q-51 0 -70 -35t-2 -83l229 -578l462 573q28 36 37 63t-4.5 43.5t-50.5 16.5h-104l15 71h402l-15 -71h-28
q-61 0 -144 -109l-437 -528h385l-15 -67h-420l-69 -82l-19 -85h473l-14 -67h-473l-37 -172q-11 -55 2 -77.5t64 -22.5h157l-16 -72h-654z" />
    <glyph glyph-name="brokenbar" unicode="&#xa6;" horiz-adv-x="612" 
d="M474 891l-25 -120l-168 -790h-140l130 610l63 300h140z" />
    <glyph glyph-name="section" unicode="&#xa7;" horiz-adv-x="1101" 
d="M346 -498q-149 0 -229.5 72.5t-58.5 194.5q6 32 28 46.5t46 14.5q23 0 40 -20t17 -64q-5 -88 38 -130t144 -42q104 0 175.5 56t92.5 157q9 43 1.5 77t-42.5 70t-61.5 56.5t-92.5 65.5q-49 34 -76 53q-46 29 -81 55.5t-68 57.5t-53 61.5t-35 67.5t-15 75t7 85
q23 105 105.5 180t227.5 92q-154 120 -117 292q31 144 145.5 221.5t275.5 77.5q153 0 230.5 -74t57.5 -190q-5 -29 -27.5 -44.5t-48.5 -15.5q-33 0 -44 23t-12 66q5 80 -38.5 121.5t-144.5 41.5q-109 0 -180 -57t-92 -157q-12 -54 17 -104t62.5 -76.5t120.5 -84.5
q31 -22 48 -33q37 -23 65 -41t59 -40.5t52 -44t42 -47t33 -52.5t20 -57.5t7.5 -66t-8.5 -74.5q-20 -92 -72 -154t-115 -89t-141 -35q149 -119 112 -292q-20 -96 -82.5 -164t-148 -99.5t-186.5 -31.5zM580 163q112 -13 188.5 39t95.5 147q11 52 -12.5 105.5t-74 100.5
t-114.5 87t-140 73q-114 13 -189.5 -38.5t-95.5 -147.5q-21 -99 79 -198.5t263 -167.5z" />
    <glyph glyph-name="dieresis" unicode="&#xa8;" horiz-adv-x="801" 
d="M383 1130q-40 0 -67.5 28.5t-27.5 66.5q0 40 28 68t67 28q40 0 68 -28t28 -68q0 -41 -28 -68t-68 -27zM755 1130q-40 0 -67.5 28.5t-27.5 66.5q0 40 28 68t67 28q40 0 68 -28t28 -68q0 -41 -28 -68t-68 -27z" />
    <glyph glyph-name="copyright" unicode="&#xa9;" horiz-adv-x="1670" 
d="M885 -28q-190 0 -351 94t-255 256t-94 353q0 190 94.5 351.5t255.5 255.5t350 94q190 0 352.5 -94t257 -255.5t94.5 -351.5q0 -143 -56 -273t-150 -224.5t-224.5 -150t-273.5 -55.5zM885 34q130 0 249 51t205 137t137 204.5t51 248.5q0 173 -86.5 320.5t-234 233
t-321.5 85.5q-129 0 -247 -50.5t-203.5 -136t-136.5 -204t-51 -248.5q0 -174 85.5 -321.5t232.5 -233.5t320 -86zM886 248q-174 0 -294 116t-120 306t121.5 311.5t300.5 121.5q117 0 241 -63q55 -23 57 35h40v-205h-40q-36 98 -114.5 143.5t-164.5 45.5q-63 0 -116.5 -22
t-90 -59t-62 -85.5t-37.5 -102t-12 -108.5q0 -173 85 -278.5t231 -105.5q105 0 184.5 53.5t116.5 131.5l20 -41q-53 -92 -144.5 -143t-201.5 -51z" />
    <glyph glyph-name="guillemotleft" unicode="&#xab;" horiz-adv-x="1015" 
d="M276 0l-235 440l420 441h79l-343 -441l154 -440h-75zM770 0l-236 440l420 441h79l-342 -441l153 -440h-74z" />
    <glyph glyph-name="logicalnot" unicode="&#xac;" horiz-adv-x="1451" 
d="M1150 334v522h-948v115h1063v-637h-115z" />
    <glyph glyph-name="uni00AD" unicode="&#xad;" horiz-adv-x="888" 
d="M129 335l30 143h592l-30 -143h-592z" />
    <glyph glyph-name="registered" unicode="&#xae;" horiz-adv-x="1669" 
d="M885 1378q190 0 352.5 -94t257 -255.5t94.5 -351.5q0 -143 -56 -273t-150 -224.5t-224.5 -150t-273.5 -55.5q-190 0 -351 94t-255 256t-94 353q0 190 94.5 351.5t255.5 255.5t350 94zM885 36q130 0 249 51t205 137t137 204.5t51 248.5q0 173 -86.5 320.5t-234 233
t-321.5 85.5q-129 0 -247 -50.5t-203.5 -136t-136.5 -204t-51 -248.5q0 -131 50.5 -249.5t136 -204.5t203.5 -136.5t248 -50.5zM1231 372q23 -34 54 -34h43v-45h-145l-174 266q-34 52 -61.5 71t-68.5 19h-136v-262q0 -27 10 -38t37 -11h69v-45h-323v45h67q29 0 39.5 10.5
t10.5 38.5v590q0 27 -10.5 39t-36.5 12h-70v43h392q117 0 188 -53t71 -156q0 -151 -168 -197q35 -27 74 -87zM905 694q89 0 139 40t50 125q0 81 -49 122t-136 41h-166v-328h162z" />
    <glyph glyph-name="macron" unicode="&#xaf;" horiz-adv-x="881" 
d="M279 1105l49 123h588l-50 -123h-587z" />
    <glyph glyph-name="degree" unicode="&#xb0;" horiz-adv-x="1028" 
d="M639 658q-149 0 -254.5 106t-105.5 254t105.5 254t254.5 106t254.5 -106t105.5 -254t-105.5 -254t-254.5 -106zM639 750q112 0 190 78t78 190t-78 190t-190 78t-190 -78t-78 -190t78 -190t190 -78z" />
    <glyph glyph-name="plusminus" unicode="&#xb1;" horiz-adv-x="1439" 
d="M677 358v498h-498v115h498v497h115v-497h498v-115h-498v-498h-115zM179 0v115h1111v-115h-1111z" />
    <glyph glyph-name="acute" unicode="&#xb4;" horiz-adv-x="348" 
d="M118 1030h-60l223 322h236v-4z" />
    <glyph glyph-name="uni00B5" unicode="&#xb5;" horiz-adv-x="1312" 
d="M78 -426l239 1121q10 47 -3.5 68t-55.5 21h-85l15 71h328l-122 -570q-23 -111 3.5 -161.5t117.5 -50.5q64 0 136.5 48t126.5 111t97 134l71 329q19 89 -45 89h-97l14 71h328l-147 -694q-11 -47 1.5 -67.5t59.5 -14.5l94 21l-11 -72l-351 -52l53 242q-70 -93 -154.5 -157
t-165.5 -72q-122 -13 -182 45l-99 -460h-166z" />
    <glyph glyph-name="paragraph" unicode="&#xb6;" horiz-adv-x="1149" 
d="M325 -510l235 1095q-78 4 -140.5 19.5t-114 46.5t-80 78t-38.5 113t10 152q16 75 45.5 132.5t73.5 97t96.5 65.5t123.5 40.5t144.5 20.5t169.5 6h443l-9 -42h-42q-102 0 -152.5 -55.5t-73.5 -158.5l-342 -1610h-66l383 1809h-215l-384 -1809h-67z" />
    <glyph glyph-name="periodcentered" unicode="&#xb7;" horiz-adv-x="605" 
d="M355 550q-52 0 -89 36t-37 91q0 52 36 87.5t90 35.5q52 0 88 -35.5t36 -87.5q0 -55 -36 -91t-88 -36z" />
    <glyph glyph-name="cedilla" unicode="&#xb8;" horiz-adv-x="608" 
d="M83 -488q-103 0 -199 25l15 72q73 -19 164 -19q110 0 170 34t60 84q0 22 -14 37t-34.5 22.5t-52.5 11t-57.5 4.5t-60.5 1h-25l46 241l79 -7l-32 -152q252 0 252 -152q0 -83 -82 -142.5t-229 -59.5z" />
    <glyph glyph-name="guillemotright" unicode="&#xbb;" horiz-adv-x="1014" 
d="M-13 0l342 440l-152 441h73l236 -441l-423 -440h-76zM480 0l343 440l-153 441h73l236 -441l-422 -440h-77z" />
    <glyph glyph-name="questiondown" unicode="&#xbf;" horiz-adv-x="878" 
d="M614 888q51 0 87.5 -37t36.5 -89t-36.5 -89t-87.5 -37t-87 37t-36 89t36 89t87 37zM613 -228q25 -1 40 -22.5t5 -53.5q-41 -91 -147 -154t-239 -63q-117 0 -197 54.5t-109.5 144.5t-7.5 197q33 155 146 246.5t240 91.5q52 0 109 -20l46 215h78l-64 -301l-60 5
q-22 18 -76 18q-65 0 -122 -45t-90.5 -105.5t-46.5 -124.5q-6 -37 -7.5 -78t10 -81t30.5 -72t55 -52t82 -20q73 0 143 45t109 127q10 16 15 23.5t21.5 17t36.5 7.5z" />
    <glyph glyph-name="Agrave" unicode="&#xc0;" horiz-adv-x="1298" 
d="M897 1438h-61l-399 317v4h236zM1148 72h62l-15 -72h-500l16 72h101q35 0 55 19.5t16 53.5l-33 293h-497l-168 -295q-18 -39 -4.5 -55t48.5 -16h110l-15 -72h-401l14 72h44q34 0 79.5 44.5t69.5 86.5l689 1173h96l141 -1188q7 -57 25 -86.5t67 -29.5zM395 511h447l-68 608
h-32z" />
    <glyph glyph-name="Aacute" unicode="&#xc1;" horiz-adv-x="1298" 
d="M1059 1759h236v-4l-398 -317h-61zM1056 188q7 -57 25 -86.5t67 -29.5h62l-15 -72h-500l16 72h101q35 0 55 19.5t16 53.5l-33 293h-497l-168 -295q-18 -39 -4.5 -55t48.5 -16h110l-15 -72h-401l14 72h44q34 0 79.5 44.5t69.5 86.5l689 1173h96zM395 511h447l-68 608h-32z
" />
    <glyph glyph-name="Acircumflex" unicode="&#xc2;" horiz-adv-x="1298" 
d="M944 1712l-317 -242h-56l293 322h189l157 -322h-52zM1056 188q7 -57 25 -86.5t67 -29.5h62l-15 -72h-500l16 72h101q35 0 55 19.5t16 53.5l-33 293h-497l-168 -295q-18 -39 -4.5 -55t48.5 -16h110l-15 -72h-401l14 72h44q34 0 79.5 44.5t69.5 86.5l689 1173h96zM395 511
h447l-68 608h-32z" />
    <glyph glyph-name="Atilde" unicode="&#xc3;" horiz-adv-x="1298" 
d="M763 1579q-50 0 -86 -42.5t-50 -104.5l-51 15q23 120 82 186.5t144 66.5q31 0 60 -14t39.5 -23.5t38.5 -36.5q27 -30 51 -45.5t61 -15.5q52 0 90.5 41t57.5 117l51 -15q-20 -116 -81.5 -191t-147.5 -75q-15 0 -28.5 2t-26.5 8t-20.5 9.5t-20.5 14t-16.5 13.5t-17.5 17
l-15 15q-27 29 -51.5 43.5t-62.5 14.5zM1056 188q7 -57 25 -86.5t67 -29.5h62l-15 -72h-500l16 72h101q35 0 55 19.5t16 53.5l-33 293h-497l-168 -295q-18 -39 -4.5 -55t48.5 -16h110l-15 -72h-401l14 72h44q34 0 79.5 44.5t69.5 86.5l689 1173h96zM395 511h447l-68 608h-32
z" />
    <glyph glyph-name="Adieresis" unicode="&#xc4;" horiz-adv-x="1298" 
d="M679 1510q-40 0 -67.5 29t-27.5 67q0 39 28 67t67 28q40 0 68 -28t28 -67q0 -41 -28 -68.5t-68 -27.5zM1052 1510q-40 0 -68 29t-28 67q0 40 28 67.5t68 27.5q39 0 67 -28t28 -67q0 -41 -28 -68.5t-67 -27.5zM1148 72h62l-15 -72h-500l16 72h101q35 0 55 19.5t16 53.5
l-33 293h-497l-168 -295q-18 -39 -4.5 -55t48.5 -16h110l-15 -72h-401l14 72h44q34 0 79.5 44.5t69.5 86.5l689 1173h96l141 -1188q7 -57 25 -86.5t67 -29.5zM395 511h447l-68 608h-32z" />
    <glyph glyph-name="Aring" unicode="&#xc5;" horiz-adv-x="1298" 
d="M907 1443q-77 0 -130.5 54t-53.5 131t53.5 130.5t130.5 53.5t131 -54t54 -130t-54 -130.5t-131 -54.5zM907 1756q-52 0 -89 -37.5t-37 -90.5t37 -90.5t89 -37.5q53 0 90.5 37.5t37.5 90.5t-37.5 90.5t-90.5 37.5zM1148 72h62l-15 -72h-500l16 72h101q35 0 55 19.5
t16 53.5l-33 293h-497l-168 -295q-18 -39 -4.5 -55t48.5 -16h110l-15 -72h-401l14 72h44q34 0 79.5 44.5t69.5 86.5l689 1173h96l141 -1188q7 -57 25 -86.5t67 -29.5zM395 511h447l-68 608h-32z" />
    <glyph glyph-name="AE" unicode="&#xc6;" horiz-adv-x="1877" 
d="M1821 1003l-67 -3l12 189q-6 56 -30.5 71t-81.5 15h-494l-105 -528h313q42 0 74.5 20t40.5 62l21 104h70l-92 -460h-70l23 121q10 47 -10 61.5t-66 14.5h-319l-97 -482q-15 -53 -1.5 -82.5t70.5 -29.5h417q76 0 115 26.5t66 82.5l93 262l70 -3l-114 -444h-1117l15 72h95
q93 0 116 115l49 251h-437l-196 -295q-19 -26 -14 -41.5t20 -22t38 -6.5l110 -1l-14 -72h-401l14 72l43 7q38 14 68 37t44.5 41.5t32.5 45.5l774 1149h973zM831 511l151 764h-47l-507 -764h403z" />
    <glyph glyph-name="Ccedilla" unicode="&#xc7;" horiz-adv-x="1430" 
d="M1378 1322h68l-101 -473l-66 8q2 63 -9.5 124.5t-39 118.5t-68.5 100t-102.5 69t-134.5 26q-110 0 -209 -54.5t-172 -147.5t-126 -207.5t-82 -243.5q-59 -263 22 -424t282 -161q161 0 319.5 124.5t250.5 336.5l68 -7l-107 -482h-69l30 237q-81 -120 -216.5 -202
t-289.5 -88l-23 -110q252 0 252 -152q0 -83 -82 -142.5t-229 -59.5q-103 0 -199 25l15 72q73 -19 164 -19q110 0 170 34t60 84q0 22 -14 37t-34.5 22.5t-52.5 11t-57.5 4.5t-60.5 1h-25l37 195q-99 9 -179 52t-131 110t-81 154.5t-30 186t21 205.5q30 134 101 258t169 220
t227 153.5t265 57.5q134 0 237.5 -77t153.5 -220z" />
    <glyph glyph-name="Egrave" unicode="&#xc8;" horiz-adv-x="1315" 
d="M894 1438h-61l-399 317v4h236zM1267 1003l-68 -3l17 189q-4 56 -27.5 71t-81.5 15h-494l-119 -528h312q41 0 74.5 19.5t43.5 62.5l24 104h70l-103 -460h-70l27 121q9 47 -10 61.5t-65 14.5h-320l-109 -482q-16 -56 -3 -84t70 -28h416q75 0 115 26.5t68 82.5l102 262
l70 -3l-125 -444h-1117l15 72h96q93 0 118 115l224 993q11 55 -2 77.5t-72 22.5h-91l16 72h1058z" />
    <glyph glyph-name="Eacute" unicode="&#xc9;" horiz-adv-x="1315" 
d="M1292 1755l-398 -317h-61l223 321h236v-4zM1267 1003l-68 -3l17 189q-4 56 -27.5 71t-81.5 15h-494l-119 -528h312q41 0 74.5 19.5t43.5 62.5l24 104h70l-103 -460h-70l27 121q9 47 -10 61.5t-65 14.5h-320l-109 -482q-16 -56 -3 -84t70 -28h416q75 0 115 26.5t68 82.5
l102 262l70 -3l-125 -444h-1117l15 72h96q93 0 118 115l224 993q11 55 -2 77.5t-72 22.5h-91l16 72h1058z" />
    <glyph glyph-name="Ecircumflex" unicode="&#xca;" horiz-adv-x="1315" 
d="M941 1712l-317 -242h-56l293 322h189l157 -322h-52zM1267 1003l-68 -3l17 189q-4 56 -27.5 71t-81.5 15h-494l-119 -528h312q41 0 74.5 19.5t43.5 62.5l24 104h70l-103 -460h-70l27 121q9 47 -10 61.5t-65 14.5h-320l-109 -482q-16 -56 -3 -84t70 -28h416q75 0 115 26.5
t68 82.5l102 262l70 -3l-125 -444h-1117l15 72h96q93 0 118 115l224 993q11 55 -2 77.5t-72 22.5h-91l16 72h1058z" />
    <glyph glyph-name="Edieresis" unicode="&#xcb;" horiz-adv-x="1315" 
d="M676 1510q-40 0 -67.5 29t-27.5 67q0 39 28 67t67 28q40 0 68 -28t28 -67q0 -41 -28 -68.5t-68 -27.5zM1049 1510q-40 0 -68 29t-28 67q0 40 28 67.5t68 27.5q39 0 67 -28t28 -67q0 -41 -28 -68.5t-67 -27.5zM1267 1003l-68 -3l17 189q-4 56 -27.5 71t-81.5 15h-494
l-119 -528h312q41 0 74.5 19.5t43.5 62.5l24 104h70l-103 -460h-70l27 121q9 47 -10 61.5t-65 14.5h-320l-109 -482q-16 -56 -3 -84t70 -28h416q75 0 115 26.5t68 82.5l102 262l70 -3l-125 -444h-1117l15 72h96q93 0 118 115l224 993q11 55 -2 77.5t-72 22.5h-91l16 72h1058
z" />
    <glyph glyph-name="Igrave" unicode="&#xcc;" horiz-adv-x="733" 
d="M543 1438l-399 317v4h236l224 -321h-61zM-35 0l16 72h110q56 0 87.5 28.5t43.5 86.5l224 995q11 55 -2.5 77.5t-73.5 22.5h-115l14 71h605l-14 -71h-110q-59 0 -89 -27.5t-42 -87.5l-225 -995q-13 -57 2 -78.5t76 -21.5h114l-15 -72h-606z" />
    <glyph glyph-name="Iacute" unicode="&#xcd;" horiz-adv-x="733" 
d="M543 1438l223 321h236v-4l-398 -317h-61zM-35 0l16 72h110q56 0 87.5 28.5t43.5 86.5l224 995q11 55 -2.5 77.5t-73.5 22.5h-115l14 71h605l-14 -71h-110q-59 0 -89 -27.5t-42 -87.5l-225 -995q-13 -57 2 -78.5t76 -21.5h114l-15 -72h-606z" />
    <glyph glyph-name="Icircumflex" unicode="&#xce;" horiz-adv-x="733" 
d="M278 1470l293 322h189l157 -322h-52l-214 242l-317 -242h-56zM-35 0l16 72h110q56 0 87.5 28.5t43.5 86.5l224 995q11 55 -2.5 77.5t-73.5 22.5h-115l14 71h605l-14 -71h-110q-59 0 -89 -27.5t-42 -87.5l-225 -995q-13 -57 2 -78.5t76 -21.5h114l-15 -72h-606z" />
    <glyph glyph-name="Idieresis" unicode="&#xcf;" horiz-adv-x="733" 
d="M386 1510q-40 0 -67.5 29t-27.5 67q0 39 28 67t67 28q40 0 68 -28t28 -67q0 -41 -28 -68.5t-68 -27.5zM759 1510q-40 0 -68 29t-28 67q0 40 28 67.5t68 27.5q39 0 67 -28t28 -67q0 -41 -28 -68.5t-67 -27.5zM-35 0l16 72h110q56 0 87.5 28.5t43.5 86.5l224 995
q11 55 -2.5 77.5t-73.5 22.5h-115l14 71h605l-14 -71h-110q-59 0 -89 -27.5t-42 -87.5l-225 -995q-13 -57 2 -78.5t76 -21.5h114l-15 -72h-606z" />
    <glyph glyph-name="Eth" unicode="&#xd0;" horiz-adv-x="1479" 
d="M835 1352q167 0 293.5 -41t211.5 -125.5t109.5 -215t-12.5 -308.5q-32 -143 -96 -256t-148.5 -188.5t-192 -125t-221.5 -71t-241 -21.5h-573l16 72h106q43 0 69.5 31.5t37.5 83.5l102 450h-166l15 77h168l106 468q13 47 1.5 73.5t-56.5 26.5h-109l14 70h566zM1245 692
q32 154 18.5 266t-69.5 184.5t-139 107.5t-189 35h-248l-129 -571h392l-16 -77h-394l-101 -448q-6 -34 -7.5 -59.5t19 -39.5t66.5 -14h205q209 0 370 173.5t222 442.5z" />
    <glyph glyph-name="Ntilde" unicode="&#xd1;" horiz-adv-x="1485" 
d="M852 1579q-50 0 -86 -42.5t-50 -104.5l-51 15q23 120 82 186.5t144 66.5q31 0 60 -14t39.5 -23.5t38.5 -36.5q27 -30 51 -45.5t61 -15.5q52 0 90.5 41t57.5 117l51 -15q-20 -116 -81.5 -191t-147.5 -75q-15 0 -28.5 2t-26.5 8t-20.5 9.5t-20.5 14t-16.5 13.5t-17.5 17
l-15 15q-27 29 -51.5 43.5t-62.5 14.5zM1199 1352h449l-17 -72h-83q-47 0 -81.5 -41t-46.5 -100l-261 -1162h-81l-584 1196l-220 -971q-6 -32 -7.5 -61t18 -49t61.5 -20h89l-16 -72h-453l15 72h85q33 0 60 17t42 43.5t22.5 46.5t11.5 38l213 945q24 118 -76 118h-88l16 72
h354l524 -1091l204 894q27 125 -70 125h-95z" />
    <glyph glyph-name="Ograve" unicode="&#xd2;" horiz-adv-x="1445" 
d="M897 1438l-399 317v4h236l224 -321h-61zM625 -24q-115 0 -207.5 35t-153.5 98.5t-97.5 153t-38.5 198t24 234.5q30 135 98.5 256.5t166 217t229.5 151.5t277 56q103 0 187.5 -27t142.5 -76t97 -116t56 -147t15 -169t-23 -183q-31 -138 -100 -260.5t-166.5 -217
t-229.5 -149.5t-277 -55zM626 57q204 0 356 167t219 467q66 296 -12.5 450t-270.5 154q-137 0 -253.5 -82.5t-196 -222t-120.5 -321.5q-27 -120 -27 -227t29 -194.5t99.5 -139t176.5 -51.5z" />
    <glyph glyph-name="Oacute" unicode="&#xd3;" horiz-adv-x="1445" 
d="M897 1438l223 321h236v-4l-398 -317h-61zM625 -24q-115 0 -207.5 35t-153.5 98.5t-97.5 153t-38.5 198t24 234.5q30 135 98.5 256.5t166 217t229.5 151.5t277 56q103 0 187.5 -27t142.5 -76t97 -116t56 -147t15 -169t-23 -183q-31 -138 -100 -260.5t-166.5 -217
t-229.5 -149.5t-277 -55zM626 57q204 0 356 167t219 467q66 296 -12.5 450t-270.5 154q-137 0 -253.5 -82.5t-196 -222t-120.5 -321.5q-27 -120 -27 -227t29 -194.5t99.5 -139t176.5 -51.5z" />
    <glyph glyph-name="Ocircumflex" unicode="&#xd4;" horiz-adv-x="1445" 
d="M632 1470l293 322h189l157 -322h-52l-214 242l-317 -242h-56zM625 -24q-115 0 -207.5 35t-153.5 98.5t-97.5 153t-38.5 198t24 234.5q30 135 98.5 256.5t166 217t229.5 151.5t277 56q103 0 187.5 -27t142.5 -76t97 -116t56 -147t15 -169t-23 -183q-31 -138 -100 -260.5
t-166.5 -217t-229.5 -149.5t-277 -55zM626 57q204 0 356 167t219 467q66 296 -12.5 450t-270.5 154q-137 0 -253.5 -82.5t-196 -222t-120.5 -321.5q-27 -120 -27 -227t29 -194.5t99.5 -139t176.5 -51.5z" />
    <glyph glyph-name="Otilde" unicode="&#xd5;" horiz-adv-x="1445" 
d="M688 1432l-51 15q23 120 82 186.5t144 66.5q31 0 60 -14t39.5 -23.5t38.5 -36.5q27 -30 51 -45.5t61 -15.5q52 0 90.5 41t57.5 117l51 -15q-20 -116 -81.5 -191t-147.5 -75q-15 0 -28.5 2t-26.5 8t-20.5 9.5t-20.5 14t-16.5 13.5t-17.5 17l-15 15q-27 29 -51.5 43.5
t-62.5 14.5q-50 0 -86 -42.5t-50 -104.5zM625 -24q-115 0 -207.5 35t-153.5 98.5t-97.5 153t-38.5 198t24 234.5q30 135 98.5 256.5t166 217t229.5 151.5t277 56q103 0 187.5 -27t142.5 -76t97 -116t56 -147t15 -169t-23 -183q-31 -138 -100 -260.5t-166.5 -217
t-229.5 -149.5t-277 -55zM626 57q204 0 356 167t219 467q66 296 -12.5 450t-270.5 154q-137 0 -253.5 -82.5t-196 -222t-120.5 -321.5q-27 -120 -27 -227t29 -194.5t99.5 -139t176.5 -51.5z" />
    <glyph glyph-name="Odieresis" unicode="&#xd6;" horiz-adv-x="1445" 
d="M740 1510q-40 0 -67.5 29t-27.5 67q0 39 28 67t67 28q40 0 68 -28t28 -67q0 -41 -28 -68.5t-68 -27.5zM1113 1510q-40 0 -68 29t-28 67q0 40 28 67.5t68 27.5q39 0 67 -28t28 -67q0 -41 -28 -68.5t-67 -27.5zM625 -24q-115 0 -207.5 35t-153.5 98.5t-97.5 153t-38.5 198
t24 234.5q30 135 98.5 256.5t166 217t229.5 151.5t277 56q103 0 187.5 -27t142.5 -76t97 -116t56 -147t15 -169t-23 -183q-31 -138 -100 -260.5t-166.5 -217t-229.5 -149.5t-277 -55zM626 57q204 0 356 167t219 467q66 296 -12.5 450t-270.5 154q-137 0 -253.5 -82.5
t-196 -222t-120.5 -321.5q-27 -120 -27 -227t29 -194.5t99.5 -139t176.5 -51.5z" />
    <glyph glyph-name="multiply" unicode="&#xd7;" horiz-adv-x="1153" 
d="M270 220l-81 82l352 351l-352 353l81 81l353 -352l351 352l81 -81l-351 -353l351 -351l-81 -82l-351 352z" />
    <glyph glyph-name="Oslash" unicode="&#xd8;" horiz-adv-x="1445" 
d="M1304 1222q85 -99 109 -250.5t-15 -313.5q-31 -138 -100 -260.5t-166.5 -217t-229.5 -149.5t-277 -55q-199 0 -326 102l-84 -95l-56 48l87 98q-84 97 -108.5 242.5t14.5 323.5q30 135 98.5 256.5t166 217t229.5 151.5t277 56q204 0 329 -103l84 95l54 -48zM348 669
q-58 -255 2 -421l818 929q-81 118 -250 118q-137 0 -253.5 -82.5t-196 -222t-120.5 -321.5zM1201 691q59 261 2 416l-818 -930q79 -120 241 -120q204 0 356 167t219 467z" />
    <glyph glyph-name="Ugrave" unicode="&#xd9;" horiz-adv-x="1441" 
d="M887 1438l-399 317v4h236l224 -321h-61zM624 -24q-251 0 -353.5 137.5t-44.5 397.5l152 669q12 53 -1.5 76.5t-73.5 23.5h-87l16 72h585l-17 -72h-120q-57 0 -87.5 -29t-42.5 -86l-151 -669q-49 -216 15 -325.5t258 -109.5q109 0 195 33.5t145.5 97t98.5 146t64 189.5
l144 634q27 119 -78 119h-80l15 72h425l-17 -72h-66q-47 0 -81.5 -38.5t-45.5 -93.5l-144 -637q-60 -268 -213 -401.5t-410 -133.5z" />
    <glyph glyph-name="Uacute" unicode="&#xda;" horiz-adv-x="1441" 
d="M887 1438l223 321h236v-4l-398 -317h-61zM624 -24q-251 0 -353.5 137.5t-44.5 397.5l152 669q12 53 -1.5 76.5t-73.5 23.5h-87l16 72h585l-17 -72h-120q-57 0 -87.5 -29t-42.5 -86l-151 -669q-49 -216 15 -325.5t258 -109.5q109 0 195 33.5t145.5 97t98.5 146t64 189.5
l144 634q27 119 -78 119h-80l15 72h425l-17 -72h-66q-47 0 -81.5 -38.5t-45.5 -93.5l-144 -637q-60 -268 -213 -401.5t-410 -133.5z" />
    <glyph glyph-name="Ucircumflex" unicode="&#xdb;" horiz-adv-x="1441" 
d="M622 1470l293 322h189l157 -322h-52l-214 242l-317 -242h-56zM624 -24q-251 0 -353.5 137.5t-44.5 397.5l152 669q12 53 -1.5 76.5t-73.5 23.5h-87l16 72h585l-17 -72h-120q-57 0 -87.5 -29t-42.5 -86l-151 -669q-49 -216 15 -325.5t258 -109.5q109 0 195 33.5t145.5 97
t98.5 146t64 189.5l144 634q27 119 -78 119h-80l15 72h425l-17 -72h-66q-47 0 -81.5 -38.5t-45.5 -93.5l-144 -637q-60 -268 -213 -401.5t-410 -133.5z" />
    <glyph glyph-name="Udieresis" unicode="&#xdc;" horiz-adv-x="1441" 
d="M730 1510q-40 0 -67.5 29t-27.5 67q0 39 28 67t67 28q40 0 68 -28t28 -67q0 -41 -28 -68.5t-68 -27.5zM1103 1510q-40 0 -68 29t-28 67q0 40 28 67.5t68 27.5q39 0 67 -28t28 -67q0 -41 -28 -68.5t-67 -27.5zM624 -24q-251 0 -353.5 137.5t-44.5 397.5l152 669
q12 53 -1.5 76.5t-73.5 23.5h-87l16 72h585l-17 -72h-120q-57 0 -87.5 -29t-42.5 -86l-151 -669q-49 -216 15 -325.5t258 -109.5q109 0 195 33.5t145.5 97t98.5 146t64 189.5l144 634q27 119 -78 119h-80l15 72h425l-17 -72h-66q-47 0 -81.5 -38.5t-45.5 -93.5l-144 -637
q-60 -268 -213 -401.5t-410 -133.5z" />
    <glyph glyph-name="Yacute" unicode="&#xdd;" horiz-adv-x="1314" 
d="M826 1438l223 321h236v-4l-398 -317h-61zM249 0l15 72h131q56 0 85 29t41 85l70 304l-230 695q-18 52 -37 73.5t-56 21.5h-75l15 72h530l-15 -72h-97q-48 0 -65.5 -37.5t0.5 -80.5l195 -576l441 564q98 130 -13 130h-84l16 72h384l-17 -72h-32q-55 0 -144 -110l-537 -670
l-76 -328q-15 -50 -0.5 -75t73.5 -25h136l-15 -72h-639z" />
    <glyph glyph-name="Thorn" unicode="&#xde;" horiz-adv-x="1165" 
d="M-85 0l16 72h80q60 0 88 29t40 86l212 995q11 55 -3 77.5t-74 22.5h-85l15 71h543l-14 -71h-79q-51 0 -83.5 -23t-40.5 -61l-13 -62h225q106 0 185.5 -21.5t136.5 -66.5t74.5 -116t-1.5 -172q-37 -177 -174.5 -265.5t-350.5 -88.5h-247l-49 -234q-11 -52 2 -76t76 -24h90
l-15 -72h-554zM380 482h227q130 0 222 74.5t125 230.5q60 280 -215 280h-234z" />
    <glyph glyph-name="germandbls" unicode="&#xdf;" horiz-adv-x="1216" 
d="M736 -20q-55 0 -92 15.5t-53 41t-20.5 51t-1.5 53.5q3 46 31 46q31 0 26 -47q-13 -92 92 -92q84 0 144.5 83t93.5 235q33 161 -41.5 240.5t-267.5 77.5l10 73q50 1 89.5 7.5t83.5 25t76.5 49t60.5 83t43 123.5q27 127 -20 197.5t-177 70.5q-146 0 -229.5 -95t-121.5 -275
l-165 -793q-10 -38 -1 -58t46 -20h91l-15 -72h-476l16 72h73q47 0 71 26.5t35 75.5l149 714q18 87 42 155.5t66 135t97.5 110.5t139 71t187.5 27q213 0 297.5 -99.5t49.5 -267.5q-14 -65 -47 -118t-77.5 -87.5t-88.5 -56.5t-91 -35q157 -18 227 -113.5t35 -262.5
q-36 -170 -142.5 -268.5t-244.5 -98.5z" />
    <glyph glyph-name="agrave" unicode="&#xe0;" horiz-adv-x="1090" 
d="M642 1030l-399 318v4h236l223 -322h-60zM359 -23q-83 0 -146.5 35.5t-98.5 98t-46 146.5t12 181q26 117 85 207t130.5 139.5t140 73.5t127.5 24q68 0 138.5 -32t113.5 -95l24 100h163l-159 -704q-10 -35 -2 -56t45 -21h77l-16 -74h-282l17 105q-165 -128 -323 -128z
M422 67q64 0 139 38.5t133 109.5l108 463q-59 113 -198 113q-125 0 -223 -108t-133 -264q-34 -152 13.5 -252t160.5 -100z" />
    <glyph glyph-name="aacute" unicode="&#xe1;" horiz-adv-x="1090" 
d="M642 1030h-60l223 322h236v-4zM359 -23q-83 0 -146.5 35.5t-98.5 98t-46 146.5t12 181q26 117 85 207t130.5 139.5t140 73.5t127.5 24q68 0 138.5 -32t113.5 -95l24 100h163l-159 -704q-10 -35 -2 -56t45 -21h77l-16 -74h-282l17 105q-165 -128 -323 -128zM422 67
q64 0 139 38.5t133 109.5l108 463q-59 113 -198 113q-125 0 -223 -108t-133 -264q-34 -152 13.5 -252t160.5 -100z" />
    <glyph glyph-name="acircumflex" unicode="&#xe2;" horiz-adv-x="1090" 
d="M359 1030l302 322h173l165 -322h-54l-213 242l-316 -242h-57zM359 -23q-83 0 -146.5 35.5t-98.5 98t-46 146.5t12 181q26 117 85 207t130.5 139.5t140 73.5t127.5 24q68 0 138.5 -32t113.5 -95l24 100h163l-159 -704q-10 -35 -2 -56t45 -21h77l-16 -74h-282l17 105
q-165 -128 -323 -128zM422 67q64 0 139 38.5t133 109.5l108 463q-59 113 -198 113q-125 0 -223 -108t-133 -264q-34 -152 13.5 -252t160.5 -100z" />
    <glyph glyph-name="atilde" unicode="&#xe3;" horiz-adv-x="1090" 
d="M417 1005l-52 14q25 121 84 187t143 66q11 0 21.5 -1.5t20 -4.5t17.5 -6t17 -8.5t14.5 -9.5t14 -11.5t12.5 -11t13 -11.5t12 -11q26 -30 49 -44.5t59 -14.5q51 0 90 41t57 116l52 -15q-21 -116 -81.5 -191t-146.5 -75q-15 0 -28 2t-25.5 7.5t-20 9t-19.5 14t-15.5 13
t-16.5 16t-14 14.5q-20 21 -33 31.5t-36 20t-51 9.5q-50 0 -86.5 -42.5t-50.5 -103.5zM359 -23q-83 0 -146.5 35.5t-98.5 98t-46 146.5t12 181q26 117 85 207t130.5 139.5t140 73.5t127.5 24q68 0 138.5 -32t113.5 -95l24 100h163l-159 -704q-10 -35 -2 -56t45 -21h77
l-16 -74h-282l17 105q-165 -128 -323 -128zM422 67q64 0 139 38.5t133 109.5l108 463q-59 113 -198 113q-125 0 -223 -108t-133 -264q-34 -152 13.5 -252t160.5 -100z" />
    <glyph glyph-name="adieresis" unicode="&#xe4;" horiz-adv-x="1090" 
d="M453 1130q-40 0 -67.5 28.5t-27.5 66.5q0 40 28 68t67 28q40 0 68 -28t28 -68q0 -41 -28 -68t-68 -27zM825 1130q-40 0 -67.5 28.5t-27.5 66.5q0 40 28 68t67 28q40 0 68 -28t28 -68q0 -41 -28 -68t-68 -27zM359 -23q-83 0 -146.5 35.5t-98.5 98t-46 146.5t12 181
q26 117 85 207t130.5 139.5t140 73.5t127.5 24q68 0 138.5 -32t113.5 -95l24 100h163l-159 -704q-10 -35 -2 -56t45 -21h77l-16 -74h-282l17 105q-165 -128 -323 -128zM422 67q64 0 139 38.5t133 109.5l108 463q-59 113 -198 113q-125 0 -223 -108t-133 -264
q-34 -152 13.5 -252t160.5 -100z" />
    <glyph glyph-name="aring" unicode="&#xe5;" horiz-adv-x="1090" 
d="M642 968q-77 0 -131 54.5t-54 132.5t54 131.5t131 53.5t132 -54t55 -131t-55 -132t-132 -55zM642 1026q55 0 92 37t37 92q0 54 -37 91.5t-92 37.5q-53 0 -90 -37.5t-37 -91.5q0 -55 37 -92t90 -37zM359 -23q-83 0 -146.5 35.5t-98.5 98t-46 146.5t12 181q26 117 85 207
t130.5 139.5t140 73.5t127.5 24q68 0 138.5 -32t113.5 -95l24 100h163l-159 -704q-10 -35 -2 -56t45 -21h77l-16 -74h-282l17 105q-165 -128 -323 -128zM422 67q64 0 139 38.5t133 109.5l108 463q-59 113 -198 113q-125 0 -223 -108t-133 -264q-34 -152 13.5 -252
t160.5 -100z" />
    <glyph glyph-name="ae" unicode="&#xe6;" horiz-adv-x="1495" 
d="M1428 435h-622q-17 -68 -13.5 -136.5t21.5 -123t66 -88.5t120 -34q82 0 160.5 51.5t135.5 137.5l54 -48q-70 -103 -174.5 -162t-220.5 -59q-118 0 -200.5 61t-113.5 169q-148 -128 -239 -175.5t-194 -47.5q-107 0 -144.5 57.5t-19.5 147.5q18 89 87.5 146.5t201.5 118.5
l327 159q20 120 -10 160.5t-127 40.5q-54 0 -96 -14t-71 -40t-46.5 -51.5t-33.5 -59.5q-24 -53 -79 -49q-33 1 -45.5 25t-2.5 58q14 38 44.5 72t78.5 64.5t123 48.5t166 18q213 0 257 -117q134 117 302 117q73 0 136.5 -28t110.5 -83.5t64 -139.5t-3 -196zM1118 809
q-54 0 -104 -27t-87 -72t-64 -97.5t-43 -108.5l469 15q8 55 0.5 107t-25.5 92.5t-55.5 65.5t-90.5 25zM283 68q65 0 145 51.5t162 144.5l55 262l-290 -158q-73 -38 -108.5 -82.5t-46.5 -101.5q-23 -116 83 -116z" />
    <glyph glyph-name="ccedilla" unicode="&#xe7;" horiz-adv-x="917" 
d="M608 882q71 0 132.5 -21.5t103.5 -71t42 -118.5q-2 -30 -20 -49.5t-47 -20.5q-19 -1 -32 8t-18.5 25t-8 30t-2.5 31q-33 115 -160 115q-54 0 -104 -22.5t-89 -60t-71 -87t-53.5 -101t-33.5 -103.5q-40 -181 11 -280.5t177 -99.5q103 0 185 61t133 148l57 -45
q-157 -247 -411 -247h-15l-23 -107q252 0 252 -152q0 -83 -82 -142.5t-229 -59.5q-103 0 -199 25l15 72q73 -19 164 -19q110 0 170 34t60 84q0 22 -14 37t-34.5 22.5t-52.5 11t-57.5 4.5t-60.5 1h-25l38 199q-141 32 -205 154.5t-25 298.5q45 197 196 321.5t336 124.5z" />
    <glyph glyph-name="egrave" unicode="&#xe8;" horiz-adv-x="912" 
d="M566 1030l-399 318v4h236l223 -322h-60zM390 -27q-178 0 -266 133t-42 340q44 195 184 315.5t310 120.5q123 0 208 -62.5t85 -162.5q0 -46 -21.5 -84t-56 -64t-86.5 -45.5t-104 -30.5t-117 -18t-118 -9.5t-115 -3.5q-36 -171 12 -260t173 -89q82 0 162 52t138 137l54 -48
q-73 -103 -178.5 -162t-221.5 -59zM264 470q467 16 467 193q0 68 -43 107t-115 39q-105 0 -190 -96.5t-119 -242.5z" />
    <glyph glyph-name="eacute" unicode="&#xe9;" horiz-adv-x="912" 
d="M566 1030h-60l223 322h236v-4zM390 -27q-178 0 -266 133t-42 340q44 195 184 315.5t310 120.5q123 0 208 -62.5t85 -162.5q0 -46 -21.5 -84t-56 -64t-86.5 -45.5t-104 -30.5t-117 -18t-118 -9.5t-115 -3.5q-36 -171 12 -260t173 -89q82 0 162 52t138 137l54 -48
q-73 -103 -178.5 -162t-221.5 -59zM264 470q467 16 467 193q0 68 -43 107t-115 39q-105 0 -190 -96.5t-119 -242.5z" />
    <glyph glyph-name="ecircumflex" unicode="&#xea;" horiz-adv-x="912" 
d="M283 1030l302 322h173l165 -322h-54l-213 242l-316 -242h-57zM390 -27q-178 0 -266 133t-42 340q44 195 184 315.5t310 120.5q123 0 208 -62.5t85 -162.5q0 -46 -21.5 -84t-56 -64t-86.5 -45.5t-104 -30.5t-117 -18t-118 -9.5t-115 -3.5q-36 -171 12 -260t173 -89
q82 0 162 52t138 137l54 -48q-73 -103 -178.5 -162t-221.5 -59zM264 470q467 16 467 193q0 68 -43 107t-115 39q-105 0 -190 -96.5t-119 -242.5z" />
    <glyph glyph-name="edieresis" unicode="&#xeb;" horiz-adv-x="912" 
d="M377 1130q-40 0 -67.5 28.5t-27.5 66.5q0 40 28 68t67 28q40 0 68 -28t28 -68q0 -41 -28 -68t-68 -27zM749 1130q-40 0 -67.5 28.5t-27.5 66.5q0 40 28 68t67 28q40 0 68 -28t28 -68q0 -41 -28 -68t-68 -27zM390 -27q-178 0 -266 133t-42 340q44 195 184 315.5t310 120.5
q123 0 208 -62.5t85 -162.5q0 -46 -21.5 -84t-56 -64t-86.5 -45.5t-104 -30.5t-117 -18t-118 -9.5t-115 -3.5q-36 -171 12 -260t173 -89q82 0 162 52t138 137l54 -48q-73 -103 -178.5 -162t-221.5 -59zM264 470q467 16 467 193q0 68 -43 107t-115 39q-105 0 -190 -96.5
t-119 -242.5z" />
    <glyph glyph-name="igrave" unicode="&#xec;" horiz-adv-x="547" 
d="M366 1030l-399 318v4h236l223 -322h-60zM98 0l154 681q13 51 0 70.5t-62 13.5l-88 -21l10 71l349 73l-169 -750q-8 -37 7 -51.5t54 -14.5h77l-15 -72h-317z" />
    <glyph glyph-name="iacute" unicode="&#xed;" horiz-adv-x="547" 
d="M366 1030h-60l223 322h236v-4zM98 0l154 681q13 51 0 70.5t-62 13.5l-88 -21l10 71l349 73l-169 -750q-8 -37 7 -51.5t54 -14.5h77l-15 -72h-317z" />
    <glyph glyph-name="icircumflex" unicode="&#xee;" horiz-adv-x="547" 
d="M83 1030l302 322h173l165 -322h-54l-213 242l-316 -242h-57zM98 0l154 681q13 51 0 70.5t-62 13.5l-88 -21l10 71l349 73l-169 -750q-8 -37 7 -51.5t54 -14.5h77l-15 -72h-317z" />
    <glyph glyph-name="idieresis" unicode="&#xef;" horiz-adv-x="547" 
d="M177 1130q-40 0 -67.5 28.5t-27.5 66.5q0 40 28 68t67 28q40 0 68 -28t28 -68q0 -41 -28 -68t-68 -27zM549 1130q-40 0 -67.5 28.5t-27.5 66.5q0 40 28 68t67 28q40 0 68 -28t28 -68q0 -41 -28 -68t-68 -27zM98 0l154 681q13 51 0 70.5t-62 13.5l-88 -21l10 71l349 73
l-169 -750q-8 -37 7 -51.5t54 -14.5h77l-15 -72h-317z" />
    <glyph glyph-name="eth" unicode="&#xf0;" horiz-adv-x="1027" 
d="M1114 1190l-175 -53q92 -203 10 -591q-31 -144 -88.5 -255.5t-132 -179t-159 -101.5t-175.5 -34q-172 0 -267.5 125.5t-50.5 334.5q23 108 73.5 190.5t117 130t140 71t150.5 23.5q104 0 164.5 -48.5t76.5 -135.5q59 293 18 434l-314 -95l-6 70l295 88q-76 140 -292 134
v75q288 0 406 -174l204 61zM756 444q10 73 5.5 134t-22 105.5t-57 69t-98.5 24.5q-135 0 -222.5 -103.5t-127.5 -291.5q-33 -155 7.5 -244t156.5 -89q243 0 358 395z" />
    <glyph glyph-name="ntilde" unicode="&#xf1;" horiz-adv-x="1123" 
d="M416 1005l-52 14q25 121 84 187t143 66q11 0 21.5 -1.5t20 -4.5t17.5 -6t17 -8.5t14.5 -9.5t14 -11.5t12.5 -11t13 -11.5t12 -11q26 -30 49 -44.5t59 -14.5q51 0 90 41t57 116l52 -15q-21 -116 -81.5 -191t-146.5 -75q-15 0 -28 2t-25.5 7.5t-20 9t-19.5 14t-15.5 13
t-16.5 16t-14 14.5q-20 21 -33 31.5t-36 20t-51 9.5q-50 0 -86.5 -42.5t-50.5 -103.5zM96 0l152 673q13 43 1.5 66t-57.5 17l-87 -21l10 71l342 76l-57 -245q84 107 184 176t193 69q132 0 184.5 -82t15.5 -242l-90 -398q-10 -46 2 -67t53 -21h78l-15 -72h-315l126 570
q28 99 6 155.5t-110 56.5q-86 0 -180.5 -89.5t-161.5 -203.5l-110 -489h-164z" />
    <glyph glyph-name="ograve" unicode="&#xf2;" horiz-adv-x="1000" 
d="M596 1030l-399 318v4h236l223 -322h-60zM404 -27q-25 0 -53 4.5t-62 14t-65 27.5t-61 42.5t-51 61.5t-34.5 82t-12.5 107t17 133q20 92 63 168t96 124.5t116 82t122.5 48t115.5 14.5q54 0 106.5 -15t103.5 -49t83 -88t44.5 -132t-12.5 -181q-23 -102 -70 -182
t-101.5 -128t-119 -79.5t-119.5 -43t-106 -11.5zM409 47q102 0 202.5 105t142.5 291q38 166 -5.5 266t-156.5 100q-115 0 -210.5 -109t-134.5 -282q-30 -128 -10 -210t65 -121.5t107 -39.5z" />
    <glyph glyph-name="oacute" unicode="&#xf3;" horiz-adv-x="1000" 
d="M596 1030h-60l223 322h236v-4zM404 -27q-25 0 -53 4.5t-62 14t-65 27.5t-61 42.5t-51 61.5t-34.5 82t-12.5 107t17 133q20 92 63 168t96 124.5t116 82t122.5 48t115.5 14.5q54 0 106.5 -15t103.5 -49t83 -88t44.5 -132t-12.5 -181q-23 -102 -70 -182t-101.5 -128
t-119 -79.5t-119.5 -43t-106 -11.5zM409 47q102 0 202.5 105t142.5 291q38 166 -5.5 266t-156.5 100q-115 0 -210.5 -109t-134.5 -282q-30 -128 -10 -210t65 -121.5t107 -39.5z" />
    <glyph glyph-name="ocircumflex" unicode="&#xf4;" horiz-adv-x="1000" 
d="M313 1030l302 322h173l165 -322h-54l-213 242l-316 -242h-57zM404 -27q-25 0 -53 4.5t-62 14t-65 27.5t-61 42.5t-51 61.5t-34.5 82t-12.5 107t17 133q20 92 63 168t96 124.5t116 82t122.5 48t115.5 14.5q54 0 106.5 -15t103.5 -49t83 -88t44.5 -132t-12.5 -181
q-23 -102 -70 -182t-101.5 -128t-119 -79.5t-119.5 -43t-106 -11.5zM409 47q102 0 202.5 105t142.5 291q38 166 -5.5 266t-156.5 100q-115 0 -210.5 -109t-134.5 -282q-30 -128 -10 -210t65 -121.5t107 -39.5z" />
    <glyph glyph-name="otilde" unicode="&#xf5;" horiz-adv-x="1000" 
d="M371 1005l-52 14q25 121 84 187t143 66q11 0 21.5 -1.5t20 -4.5t17.5 -6t17 -8.5t14.5 -9.5t14 -11.5t12.5 -11t13 -11.5t12 -11q26 -30 49 -44.5t59 -14.5q51 0 90 41t57 116l52 -15q-21 -116 -81.5 -191t-146.5 -75q-15 0 -28 2t-25.5 7.5t-20 9t-19.5 14t-15.5 13
t-16.5 16t-14 14.5q-20 21 -33 31.5t-36 20t-51 9.5q-50 0 -86.5 -42.5t-50.5 -103.5zM404 -27q-25 0 -53 4.5t-62 14t-65 27.5t-61 42.5t-51 61.5t-34.5 82t-12.5 107t17 133q20 92 63 168t96 124.5t116 82t122.5 48t115.5 14.5q54 0 106.5 -15t103.5 -49t83 -88t44.5 -132
t-12.5 -181q-23 -102 -70 -182t-101.5 -128t-119 -79.5t-119.5 -43t-106 -11.5zM409 47q102 0 202.5 105t142.5 291q38 166 -5.5 266t-156.5 100q-115 0 -210.5 -109t-134.5 -282q-30 -128 -10 -210t65 -121.5t107 -39.5z" />
    <glyph glyph-name="odieresis" unicode="&#xf6;" horiz-adv-x="1000" 
d="M407 1130q-40 0 -67.5 28.5t-27.5 66.5q0 40 28 68t67 28q40 0 68 -28t28 -68q0 -41 -28 -68t-68 -27zM779 1130q-40 0 -67.5 28.5t-27.5 66.5q0 40 28 68t67 28q40 0 68 -28t28 -68q0 -41 -28 -68t-68 -27zM404 -27q-25 0 -53 4.5t-62 14t-65 27.5t-61 42.5t-51 61.5
t-34.5 82t-12.5 107t17 133q20 92 63 168t96 124.5t116 82t122.5 48t115.5 14.5q54 0 106.5 -15t103.5 -49t83 -88t44.5 -132t-12.5 -181q-23 -102 -70 -182t-101.5 -128t-119 -79.5t-119.5 -43t-106 -11.5zM409 47q102 0 202.5 105t142.5 291q38 166 -5.5 266t-156.5 100
q-115 0 -210.5 -109t-134.5 -282q-30 -128 -10 -210t65 -121.5t107 -39.5z" />
    <glyph glyph-name="divide" unicode="&#xf7;" horiz-adv-x="1296" 
d="M696 996q-42 0 -71 29t-29 71q0 41 29 70t71 29q41 0 70.5 -29.5t29.5 -69.5q0 -42 -29.5 -71t-70.5 -29zM141 618v115h1110v-115h-1110zM696 156q-42 0 -71 29t-29 71q0 41 29 70.5t71 29.5q40 0 70 -30t30 -70q0 -42 -29.5 -71t-70.5 -29z" />
    <glyph glyph-name="oslash" unicode="&#xf8;" horiz-adv-x="1000" 
d="M936 873l-84 -96q119 -128 68 -360q-23 -102 -70 -182t-101.5 -128t-119 -79.5t-119.5 -43t-106 -11.5q-110 0 -202 58l-84 -96l-54 48l82 95q-118 126 -64 367q20 92 63 168t96 124.5t116 82t122.5 48t115.5 14.5q111 0 202 -59l85 98zM247 418q-31 -136 -5 -231
l486 558q-47 64 -136 64q-115 0 -210.5 -109t-134.5 -282zM754 443q32 137 7 230l-485 -557q48 -69 133 -69q102 0 202.5 105t142.5 291z" />
    <glyph glyph-name="ugrave" unicode="&#xf9;" horiz-adv-x="1123" 
d="M656 1030l-399 318v4h236l223 -322h-60zM346 -27q-137 0 -186 84t-14 241l90 397q9 48 -3 68.5t-52 20.5h-78l15 71h315l-127 -570q-28 -99 -5.5 -155.5t109.5 -56.5q45 0 95.5 27t95.5 72t83 94t68 100l76 329q20 89 -42 89h-88l14 71h315l-157 -694q-13 -44 -1 -65.5
t59 -16.5l87 21l-12 -72l-338 -52l56 242q-82 -106 -182 -175.5t-193 -69.5z" />
    <glyph glyph-name="uacute" unicode="&#xfa;" horiz-adv-x="1123" 
d="M656 1030h-60l223 322h236v-4zM346 -27q-137 0 -186 84t-14 241l90 397q9 48 -3 68.5t-52 20.5h-78l15 71h315l-127 -570q-28 -99 -5.5 -155.5t109.5 -56.5q45 0 95.5 27t95.5 72t83 94t68 100l76 329q20 89 -42 89h-88l14 71h315l-157 -694q-13 -44 -1 -65.5t59 -16.5
l87 21l-12 -72l-338 -52l56 242q-82 -106 -182 -175.5t-193 -69.5z" />
    <glyph glyph-name="ucircumflex" unicode="&#xfb;" horiz-adv-x="1123" 
d="M373 1030l302 322h173l165 -322h-54l-213 242l-316 -242h-57zM346 -27q-137 0 -186 84t-14 241l90 397q9 48 -3 68.5t-52 20.5h-78l15 71h315l-127 -570q-28 -99 -5.5 -155.5t109.5 -56.5q45 0 95.5 27t95.5 72t83 94t68 100l76 329q20 89 -42 89h-88l14 71h315
l-157 -694q-13 -44 -1 -65.5t59 -16.5l87 21l-12 -72l-338 -52l56 242q-82 -106 -182 -175.5t-193 -69.5z" />
    <glyph glyph-name="udieresis" unicode="&#xfc;" horiz-adv-x="1123" 
d="M467 1130q-40 0 -67.5 28.5t-27.5 66.5q0 40 28 68t67 28q40 0 68 -28t28 -68q0 -41 -28 -68t-68 -27zM839 1130q-40 0 -67.5 28.5t-27.5 66.5q0 40 28 68t67 28q40 0 68 -28t28 -68q0 -41 -28 -68t-68 -27zM346 -27q-137 0 -186 84t-14 241l90 397q9 48 -3 68.5
t-52 20.5h-78l15 71h315l-127 -570q-28 -99 -5.5 -155.5t109.5 -56.5q45 0 95.5 27t95.5 72t83 94t68 100l76 329q20 89 -42 89h-88l14 71h315l-157 -694q-13 -44 -1 -65.5t59 -16.5l87 21l-12 -72l-338 -52l56 242q-82 -106 -182 -175.5t-193 -69.5z" />
    <glyph glyph-name="yacute" unicode="&#xfd;" horiz-adv-x="934" 
d="M562 1030h-60l223 322h236v-4zM-22 -483q-34 -1 -52.5 16.5t-18.5 49.5q0 36 21.5 52t62.5 26q89 20 165.5 74.5t155.5 169.5l89 131l-196 671q-11 39 -27 58t-44 19h-69l16 71h253l182 -651l297 467q17 27 25.5 47t10 35.5t-8 23t-30.5 7.5h-125l15 71h320l-662 -1013
q-106 -163 -189.5 -237t-190.5 -88z" />
    <glyph glyph-name="thorn" unicode="&#xfe;" horiz-adv-x="1104" 
d="M-209 -505l15 72h87q82 0 105 103l320 1507q10 49 -4 68.5t-69 14.5l-82 -19l7 70l354 71l-136 -632q152 132 329 132q168 0 262 -132t52 -333q-41 -192 -189 -318t-314 -126q-168 0 -270 132l-98 -450q-11 -47 1.5 -67.5t67.5 -20.5h101l-16 -72h-523zM484 64
q71 0 137.5 35.5t114 92t80.5 121t47 127.5q16 68 8.5 131.5t-31 112t-71.5 78t-112 29.5q-73 0 -150.5 -42t-136.5 -108l-99 -458q34 -58 92 -88.5t121 -30.5z" />
    <glyph glyph-name="ydieresis" unicode="&#xff;" horiz-adv-x="934" 
d="M373 1130q-40 0 -67.5 28.5t-27.5 66.5q0 40 28 68t67 28q40 0 68 -28t28 -68q0 -41 -28 -68t-68 -27zM745 1130q-40 0 -67.5 28.5t-27.5 66.5q0 40 28 68t67 28q40 0 68 -28t28 -68q0 -41 -28 -68t-68 -27zM-22 -483q-34 -1 -52.5 16.5t-18.5 49.5q0 36 21.5 52t62.5 26
q89 20 165.5 74.5t155.5 169.5l89 131l-196 671q-11 39 -27 58t-44 19h-69l16 71h253l182 -651l297 467q17 27 25.5 47t10 35.5t-8 23t-30.5 7.5h-125l15 71h320l-662 -1013q-106 -163 -189.5 -237t-190.5 -88z" />
    <glyph glyph-name="dotlessi" unicode="&#x131;" horiz-adv-x="547" 
d="M98 0l154 681q13 51 0 70.5t-62 13.5l-88 -21l10 71l349 73l-169 -750q-8 -37 7 -51.5t54 -14.5h77l-15 -72h-317z" />
    <glyph glyph-name="Lslash" unicode="&#x141;" horiz-adv-x="1241" 
d="M1117 449l67 -2l-124 -447h-1095l15 72h116q53 0 83 27t43 88l61 270l-201 -145l22 109l204 147l138 612q12 55 -1.5 77.5t-72.5 22.5h-119l15 72h609l-16 -72h-113q-55 0 -85.5 -27t-43.5 -88l-101 -444l441 318l-21 -109l-445 -321l-96 -425q-17 -53 -3.5 -80.5
t79.5 -27.5h339q160 0 233 160z" />
    <glyph glyph-name="lslash" unicode="&#x142;" horiz-adv-x="508" 
d="M385 715l-125 -555q-20 -88 40 -88h94l-17 -72h-316l130 575l-243 -175l20 100l246 178l113 503q13 48 0.5 69t-60.5 15l-85 -21l10 71l344 72l-128 -569l242 175l-19 -100z" />
    <glyph glyph-name="OE" unicode="&#x152;" horiz-adv-x="2116" 
d="M723 0q-330 0 -486 176.5t-89 512.5q65 320 286 488.5t553 173.5l1124 1l-50 -349l-68 -3l12 189q-6 56 -30 71t-82 15l-439 -3q-58 -16 -77 -105l-83 -420h313q42 0 74.5 20t41.5 62l20 104h70l-92 -460h-70l24 121q9 47 -11 61.5t-66 14.5h-319l-97 -483
q-15 -53 -1.5 -82t71.5 -29h416q76 0 115 26.5t66 82.5l94 262l69 -3l-114 -444h-1175zM690 76h222q72 0 96 118l197 986q11 52 2 76t-42 24h-208q-76 0 -151 -22.5t-148 -72t-134 -120.5t-109.5 -175.5t-73.5 -229.5q-18 -100 -18.5 -188t24.5 -161t69 -125t114 -81
t160 -29z" />
    <glyph glyph-name="oe" unicode="&#x153;" horiz-adv-x="1629" 
d="M1561 435h-622q-11 -57 -13 -110t8.5 -103t33.5 -87t65 -59.5t100 -22.5q83 0 161 51.5t135 137.5l54 -48q-70 -103 -174.5 -162t-219.5 -59q-102 0 -178 46.5t-116 129.5q-78 -92 -182.5 -134t-198.5 -42q-30 0 -62 5.5t-72.5 19t-74 37t-66 59.5t-49 85.5t-22 115.5
t13.5 150q23 114 79.5 202t129 137.5t147.5 73.5t147 24q91 0 177.5 -44t131.5 -131q70 83 164.5 129t195.5 46q73 0 136 -28t110 -83.5t64 -139.5t-3 -196zM418 47q104 0 202 105.5t134 291.5q33 166 -13.5 265.5t-157.5 99.5q-116 0 -209 -109t-127 -281
q-25 -126 -4.5 -208.5t66 -123t109.5 -40.5zM1252 809q-54 0 -104 -27t-87 -72t-64 -97.5t-43 -108.5l469 15q8 55 0.5 107t-25.5 92.5t-55.5 65.5t-90.5 25z" />
    <glyph glyph-name="Scaron" unicode="&#x160;" horiz-adv-x="1107" 
d="M701 1456l-165 322h54l212 -242l316 242h57l-302 -322h-172zM519 -24q-124 0 -215 61t-125 174l-59 -190h-73l104 465l71 -7q-19 -119 4 -212.5t95.5 -151.5t187.5 -58q102 0 197 73.5t125 203.5q6 28 6.5 52t-5 45t-14.5 39t-24.5 34t-33 29t-41 26.5t-46.5 24.5t-53 23
q-160 76 -217 116q-112 81 -122 196q-5 53 10 120q21 96 87.5 174.5t156.5 121t185 42.5q92 0 167 -51.5t109 -138.5l56 166h71l-89 -397l-68 8q19 154 -52.5 245.5t-186.5 91.5q-112 0 -191 -69.5t-101 -164.5q-24 -109 47 -173q44 -40 178 -100q8 -3 26 -11l1 -1h1l1 -1h1
l1 -1h1h1l1 -1h1l1 -1h1l2 -1q38 -16 66.5 -30t62 -32.5t56.5 -38t46.5 -44t37 -53t22.5 -62t7.5 -74t-11.5 -86.5q-21 -95 -74 -171t-121 -120t-138 -67t-134 -23z" />
    <glyph glyph-name="scaron" unicode="&#x161;" horiz-adv-x="956" 
d="M698 1030h-172l-166 322h53l213 -242l317 242h56zM797 782l51 100h53l-55 -257l-51 1q-11 91 -84 140.5t-189 49.5q-99 0 -167 -37t-79 -102q-3 -23 1 -41t12 -30.5t26.5 -23t33.5 -16.5t44.5 -12t49 -9t55.5 -8q10 -1 15 -2q41 -6 70.5 -11.5t66.5 -16t62.5 -23.5
t51 -33t39.5 -45t20.5 -60t1.5 -77q-16 -139 -126.5 -217.5t-277.5 -78.5q-103 0 -176.5 29.5t-107.5 74.5l-58 -104h-56l59 270l60 -1q21 -93 103 -148t195 -55q103 0 174.5 45t83.5 126q15 95 -85 132q-45 17 -163 33q-40 6 -67 11t-62.5 14.5t-58.5 20t-47.5 28.5
t-37 40.5t-19 54t-1.5 70.5q13 127 117 197.5t260 70.5q183 0 263 -100z" />
    <glyph glyph-name="Wcircumflex" unicode="&#x174;" horiz-adv-x="1868" 
d="M1207 1712l-317 -242h-56l293 322h189l157 -322h-52zM1645 1352h405l-16 -72h-44q-43 0 -78.5 -42t-76.5 -127l-547 -1135h-123l-77 1167l-570 -1167h-126l-61 1195q-5 63 -19.5 86t-59.5 23h-57l15 72h534l-38 -72h-139q-20 0 -44 -38t-21 -89l52 -966l570 1176h115
l77 -1172l440 928q12 25 19 43t13 38t5.5 33t-5 24.5t-18 17t-34.5 5.5h-106z" />
    <glyph glyph-name="wcircumflex" unicode="&#x175;" horiz-adv-x="1448" 
d="M939 1272l-316 -242h-57l302 322h173l165 -322h-54zM1215 855h307l-513 -875h-116l-108 718l-385 -718h-104l-87 722q-7 50 -21 66t-47 16h-71l14 71h263l83 -683l378 696h113l109 -727l303 533q34 59 30.5 84.5t-51.5 25.5h-113z" />
    <glyph glyph-name="Ycircumflex" unicode="&#x176;" horiz-adv-x="1314" 
d="M561 1470l293 322h189l157 -322h-52l-214 242l-317 -242h-56zM249 0l15 72h131q56 0 85 29t41 85l70 304l-230 695q-18 52 -37 73.5t-56 21.5h-75l15 72h530l-15 -72h-97q-48 0 -65.5 -37.5t0.5 -80.5l195 -576l441 564q98 130 -13 130h-84l16 72h384l-17 -72h-32
q-55 0 -144 -110l-537 -670l-76 -328q-15 -50 -0.5 -75t73.5 -25h136l-15 -72h-639z" />
    <glyph glyph-name="ycircumflex" unicode="&#x177;" horiz-adv-x="934" 
d="M279 1030l302 322h173l165 -322h-54l-213 242l-316 -242h-57zM-22 -483q-34 -1 -52.5 16.5t-18.5 49.5q0 36 21.5 52t62.5 26q89 20 165.5 74.5t155.5 169.5l89 131l-196 671q-11 39 -27 58t-44 19h-69l16 71h253l182 -651l297 467q17 27 25.5 47t10 35.5t-8 23
t-30.5 7.5h-125l15 71h320l-662 -1013q-106 -163 -189.5 -237t-190.5 -88z" />
    <glyph glyph-name="Ydieresis" unicode="&#x178;" horiz-adv-x="1314" 
d="M669 1510q-40 0 -67.5 29t-27.5 67q0 39 28 67t67 28q40 0 68 -28t28 -67q0 -41 -28 -68.5t-68 -27.5zM1042 1510q-40 0 -68 29t-28 67q0 40 28 67.5t68 27.5q39 0 67 -28t28 -67q0 -41 -28 -68.5t-67 -27.5zM249 0l15 72h131q56 0 85 29t41 85l70 304l-230 695
q-18 52 -37 73.5t-56 21.5h-75l15 72h530l-15 -72h-97q-48 0 -65.5 -37.5t0.5 -80.5l195 -576l441 564q98 130 -13 130h-84l16 72h384l-17 -72h-32q-55 0 -144 -110l-537 -670l-76 -328q-15 -50 -0.5 -75t73.5 -25h136l-15 -72h-639z" />
    <glyph glyph-name="Zcaron" unicode="&#x17d;" horiz-adv-x="1305" 
d="M960 1456h-172l-165 322h54l212 -242l316 242h57zM1379 1362l-20 -90l-1153 -1196h637q70 0 120.5 25t98.5 104l82 224l70 -3l-127 -426h-1097l19 93l1144 1193h-566q-80 0 -135.5 -24t-91.5 -96l-61 -166l-68 3l111 359h1037z" />
    <glyph glyph-name="zcaron" unicode="&#x17e;" horiz-adv-x="935" 
d="M690 1030h-172l-166 322h53l213 -242l317 242h56zM140 591l86 264h704l-18 -86l-717 -697h377q66 0 121 93l50 117l68 -2l-88 -280h-740l17 84l718 700h-361q-29 0 -51.5 -18.5t-52.5 -70.5l-44 -107z" />
    <glyph glyph-name="florin" unicode="&#x192;" horiz-adv-x="1103" 
d="M26 -454q-67 0 -98 36.5t-23 93.5q4 29 22 47t43 17q19 -1 32 -25.5t7 -58.5q-3 -24 -1.5 -37.5t10 -18t32.5 -4.5q13 0 24.5 3.5t21.5 8.5t19.5 16t17 20t16.5 26t14.5 29t14.5 34.5t14 36t15 41t16 42.5q14 39 39 99.5t65.5 155.5t70.5 169l209 508h-186l28 76h78
q77 0 119 40t90 142q35 72 66 123.5t73.5 102.5t92.5 77.5t107 26.5q56 0 92.5 -31t32.5 -88q0 -31 -18 -51.5t-43 -20.5q-47 0 -44 81q-1 9 1.5 24t2.5 22.5t-7.5 13.5t-24.5 6q-41 0 -83 -33.5t-69 -95.5q-10 -16 -19.5 -36.5t-20 -49.5t-17 -47.5t-18.5 -55.5t-16 -49
q-12 -42 -38 -109l229 8l-29 -76h-230l-208 -512q-159 -384 -269 -557q-44 -76 -108.5 -123t-144.5 -47z" />
    <glyph glyph-name="oslashacute" unicode="&#x1ff;" horiz-adv-x="1000" 
d="M759 1352h236v-4l-399 -318h-60zM882 921l54 -48l-84 -96q119 -128 68 -360q-23 -102 -70 -182t-101.5 -128t-119 -79.5t-119.5 -43t-106 -11.5q-110 0 -202 58l-84 -96l-54 48l82 95q-118 126 -64 367q20 92 63 168t96 124.5t116 82t122.5 48t115.5 14.5q111 0 202 -59z
M247 418q-31 -136 -5 -231l486 558q-47 64 -136 64q-115 0 -210.5 -109t-134.5 -282zM754 443q32 137 7 230l-485 -557q48 -69 133 -69q102 0 202.5 105t142.5 291z" />
    <glyph glyph-name="uni0237" unicode="&#x237;" horiz-adv-x="524" 
d="M-193 -518q-111 0 -172.5 57t-51.5 159q4 26 23.5 42t45.5 17q27 1 42.5 -19t14.5 -55q3 -126 128 -126q90 0 150 76.5t88 206.5l178 840q11 50 -3 70.5t-71 13.5l-92 -21l9 71l367 74l-211 -991q-45 -214 -149 -314.5t-296 -100.5z" />
    <glyph glyph-name="circumflex" unicode="&#x2c6;" horiz-adv-x="724" 
d="M170 1030l302 322h173l165 -322h-54l-213 242l-316 -242h-57z" />
    <glyph glyph-name="caron" unicode="&#x2c7;" horiz-adv-x="726" 
d="M406 1030l-166 322h53l213 -242l317 242h56l-301 -322h-172z" />
    <glyph glyph-name="breve" unicode="&#x2d8;" horiz-adv-x="760" 
d="M538 1000q-122 0 -200 76.5t-98 184.5h56q56 -159 244 -159q60 0 105.5 17t71.5 46.5t37.5 49.5t21.5 46h53q-4 -41 -22 -83t-50.5 -83.5t-89.5 -68t-129 -26.5z" />
    <glyph glyph-name="dotaccent" unicode="&#x2d9;" horiz-adv-x="593" 
d="M539 1096q-40 0 -68 29t-28 67q0 39 28 67t68 28t68 -28t28 -67q0 -41 -28.5 -68.5t-67.5 -27.5z" />
    <glyph glyph-name="ring" unicode="&#x2da;" horiz-adv-x="591" 
d="M455 981q-82 0 -139.5 57.5t-57.5 139.5q0 81 57.5 137.5t139.5 56.5q81 0 138.5 -56.5t57.5 -137.5q0 -82 -57.5 -139.5t-138.5 -57.5zM455 1059q49 0 84 35t35 84t-35 83.5t-84 34.5t-83 -34.5t-34 -83.5q0 -50 34 -84.5t83 -34.5z" />
    <glyph glyph-name="ogonek" unicode="&#x2db;" horiz-adv-x="540" 
d="M154 -367q-109 0 -174 66t-65 155t79 168l28 -22q-39 -50 -39 -107q0 -80 61.5 -139.5t148.5 -59.5q72 0 140 44l23 -31q-100 -74 -202 -74z" />
    <glyph glyph-name="tilde" unicode="&#x2dc;" horiz-adv-x="840" 
d="M285 1005l-52 14q25 121 84 187t143 66q11 0 21.5 -1.5t20 -4.5t17.5 -6t17 -8.5t14.5 -9.5t14 -11.5t12.5 -11t13 -11.5t12 -11q26 -30 49 -44.5t59 -14.5q51 0 90 41t57 116l52 -15q-21 -116 -81.5 -191t-146.5 -75q-15 0 -28 2t-25.5 7.5t-20 9t-19.5 14t-15.5 13
t-16.5 16t-14 14.5q-20 21 -33 31.5t-36 20t-51 9.5q-50 0 -86.5 -42.5t-50.5 -103.5z" />
    <glyph glyph-name="hungarumlaut" unicode="&#x2dd;" horiz-adv-x="976" 
d="M289 1030l223 322h236v-4l-398 -318h-61zM686 1030l223 322h237v-4l-399 -318h-61z" />
    <glyph glyph-name="gravecomb" unicode="&#x300;" 
d="M35 1030l-399 318v4h236l223 -322h-60z" />
    <glyph glyph-name="acutecomb" unicode="&#x301;" 
d="M-610 1030h-60l223 322h236v-4z" />
    <glyph glyph-name="uni0302" unicode="&#x302;" 
d="M-554 1030l302 322h173l165 -322h-54l-213 242l-316 -242h-57z" />
    <glyph glyph-name="tildecomb" unicode="&#x303;" 
d="M-555 1005l-52 14q25 121 84 187t143 66q11 0 21.5 -1.5t20 -4.5t17.5 -6t17 -8.5t14.5 -9.5t14 -11.5t12.5 -11t13 -11.5t12 -11q26 -30 49 -44.5t59 -14.5q51 0 90 41t57 116l52 -15q-21 -116 -81.5 -191t-146.5 -75q-15 0 -28 2t-25.5 7.5t-20 9t-19.5 14t-15.5 13
t-16.5 16t-14 14.5q-20 21 -33 31.5t-36 20t-51 9.5q-50 0 -86.5 -42.5t-50.5 -103.5z" />
    <glyph glyph-name="uni0304" unicode="&#x304;" 
d="M-656 1105l26 123h653l-26 -123h-653z" />
    <glyph glyph-name="uni0306" unicode="&#x306;" 
d="M-222 1000q-122 0 -200 76.5t-98 184.5h56q56 -159 244 -159q60 0 105.5 17t71.5 46.5t37.5 49.5t21.5 46h53q-4 -41 -22 -83t-50.5 -83.5t-89.5 -68t-129 -26.5z" />
    <glyph glyph-name="uni0307" unicode="&#x307;" 
d="M-54 1096q-40 0 -68 29t-28 67q0 39 28 67t68 28t68 -28t28 -67q0 -41 -28.5 -68.5t-67.5 -27.5z" />
    <glyph glyph-name="uni0308" unicode="&#x308;" 
d="M-418 1130q-40 0 -67.5 28.5t-27.5 66.5q0 40 28 68t67 28q40 0 68 -28t28 -68q0 -41 -28 -68t-68 -27zM-46 1130q-40 0 -67.5 28.5t-27.5 66.5q0 40 28 68t67 28q40 0 68 -28t28 -68q0 -41 -28 -68t-68 -27z" />
    <glyph glyph-name="uni030A" unicode="&#x30a;" 
d="M-134 968q-77 0 -131 54.5t-54 132.5t54 131.5t131 53.5t132 -54t55 -131t-55 -132t-132 -55zM-134 1026q55 0 92 37t37 92q0 54 -37 91.5t-92 37.5q-53 0 -90 -37.5t-37 -91.5q0 -55 37 -92t90 -37z" />
    <glyph glyph-name="uni030B" unicode="&#x30b;" 
d="M-687 1030l223 322h236v-4l-398 -318h-61zM-290 1030l223 322h237v-4l-399 -318h-61z" />
    <glyph glyph-name="uni030C" unicode="&#x30c;" 
d="M-320 1030l-166 322h53l213 -242l317 242h56l-301 -322h-172z" />
    <glyph glyph-name="uni0327" unicode="&#x327;" 
d="M-525 -488q-103 0 -199 25l15 72q73 -19 164 -19q110 0 170 34t60 84q0 22 -14 37t-34.5 22.5t-52.5 11t-57.5 4.5t-60.5 1h-25l46 241l79 -7l-32 -152q252 0 252 -152q0 -83 -82 -142.5t-229 -59.5z" />
    <glyph glyph-name="uni0328" unicode="&#x328;" 
d="M-386 -367q-109 0 -174 66t-65 155t79 168l28 -22q-39 -50 -39 -107q0 -80 61.5 -139.5t148.5 -59.5q72 0 140 44l23 -31q-100 -74 -202 -74z" />
    <glyph glyph-name="uni0337" unicode="&#x337;" 
d="M-597 421l20 100l682 493l-19 -100z" />
    <glyph glyph-name="uni0338" unicode="&#x338;" 
d="M-707 -46l-54 48l818 938l54 -48z" />
    <glyph glyph-name="uni0394" unicode="&#x394;" horiz-adv-x="874" 
d="M-22 0l584 1433h176l-26 -1433h-734zM79 72h488l25 1221h-11z" />
    <glyph glyph-name="uni03A9" unicode="&#x3a9;" horiz-adv-x="1289" 
d="M35 0l65 308h51l-22 -104q-10 -45 4.5 -69t61.5 -24h257l35 160q-315 177 -226 596q55 256 210.5 405.5t380.5 149.5q114 0 197 -44t126 -122t55 -184.5t-17 -232.5q-40 -195 -162 -343t-304 -224l-37 -161h248q47 0 76 30.5t39 75.5l20 91h50l-66 -308h-459l67 327
q142 74 235 217t132 322q53 252 -1.5 373t-201.5 121q-157 0 -268.5 -137.5t-164.5 -384.5q-41 -182 -5 -320t150 -203l-65 -315h-461z" />
    <glyph glyph-name="Wgrave" unicode="&#x1e80;" horiz-adv-x="1868" 
d="M1160 1438h-61l-399 317v4h236zM1645 1352h405l-16 -72h-44q-43 0 -78.5 -42t-76.5 -127l-547 -1135h-123l-77 1167l-570 -1167h-126l-61 1195q-5 63 -19.5 86t-59.5 23h-57l15 72h534l-38 -72h-139q-20 0 -44 -38t-21 -89l52 -966l570 1176h115l77 -1172l440 928
q12 25 19 43t13 38t5.5 33t-5 24.5t-18 17t-34.5 5.5h-106z" />
    <glyph glyph-name="wgrave" unicode="&#x1e81;" horiz-adv-x="1448" 
d="M909 1030h-60l-399 318v4h236zM1215 855h307l-513 -875h-116l-108 718l-385 -718h-104l-87 722q-7 50 -21 66t-47 16h-71l14 71h263l83 -683l378 696h113l109 -727l303 533q34 59 30.5 84.5t-51.5 25.5h-113z" />
    <glyph glyph-name="Wacute" unicode="&#x1e82;" horiz-adv-x="1868" 
d="M1558 1755l-398 -317h-61l223 321h236v-4zM1645 1352h405l-16 -72h-44q-43 0 -78.5 -42t-76.5 -127l-547 -1135h-123l-77 1167l-570 -1167h-126l-61 1195q-5 63 -19.5 86t-59.5 23h-57l15 72h534l-38 -72h-139q-20 0 -44 -38t-21 -89l52 -966l570 1176h115l77 -1172
l440 928q12 25 19 43t13 38t5.5 33t-5 24.5t-18 17t-34.5 5.5h-106z" />
    <glyph glyph-name="wacute" unicode="&#x1e83;" horiz-adv-x="1448" 
d="M1248 1348l-399 -318h-60l223 322h236v-4zM1215 855h307l-513 -875h-116l-108 718l-385 -718h-104l-87 722q-7 50 -21 66t-47 16h-71l14 71h263l83 -683l378 696h113l109 -727l303 533q34 59 30.5 84.5t-51.5 25.5h-113z" />
    <glyph glyph-name="Wdieresis" unicode="&#x1e84;" horiz-adv-x="1868" 
d="M942 1510q-40 0 -67.5 29t-27.5 67q0 39 28 67t67 28q40 0 68 -28t28 -67q0 -41 -28 -68.5t-68 -27.5zM1315 1510q-40 0 -68 29t-28 67q0 40 28 67.5t68 27.5q39 0 67 -28t28 -67q0 -41 -28 -68.5t-67 -27.5zM1645 1352h405l-16 -72h-44q-43 0 -78.5 -42t-76.5 -127
l-547 -1135h-123l-77 1167l-570 -1167h-126l-61 1195q-5 63 -19.5 86t-59.5 23h-57l15 72h534l-38 -72h-139q-20 0 -44 -38t-21 -89l52 -966l570 1176h115l77 -1172l440 928q12 25 19 43t13 38t5.5 33t-5 24.5t-18 17t-34.5 5.5h-106z" />
    <glyph glyph-name="wdieresis" unicode="&#x1e85;" horiz-adv-x="1448" 
d="M660 1130q-40 0 -67.5 28.5t-27.5 66.5q0 40 28 68t67 28q40 0 68 -28t28 -68q0 -41 -28 -68t-68 -27zM1032 1130q-40 0 -67.5 28.5t-27.5 66.5q0 40 28 68t67 28q40 0 68 -28t28 -68q0 -41 -28 -68t-68 -27zM1215 855h307l-513 -875h-116l-108 718l-385 -718h-104
l-87 722q-7 50 -21 66t-47 16h-71l14 71h263l83 -683l378 696h113l109 -727l303 533q34 59 30.5 84.5t-51.5 25.5h-113z" />
    <glyph glyph-name="Ygrave" unicode="&#x1ef2;" horiz-adv-x="1314" 
d="M826 1438l-399 317v4h236l224 -321h-61zM249 0l15 72h131q56 0 85 29t41 85l70 304l-230 695q-18 52 -37 73.5t-56 21.5h-75l15 72h530l-15 -72h-97q-48 0 -65.5 -37.5t0.5 -80.5l195 -576l441 564q98 130 -13 130h-84l16 72h384l-17 -72h-32q-55 0 -144 -110l-537 -670
l-76 -328q-15 -50 -0.5 -75t73.5 -25h136l-15 -72h-639z" />
    <glyph glyph-name="ygrave" unicode="&#x1ef3;" horiz-adv-x="934" 
d="M562 1030l-399 318v4h236l223 -322h-60zM-22 -483q-34 -1 -52.5 16.5t-18.5 49.5q0 36 21.5 52t62.5 26q89 20 165.5 74.5t155.5 169.5l89 131l-196 671q-11 39 -27 58t-44 19h-69l16 71h253l182 -651l297 467q17 27 25.5 47t10 35.5t-8 23t-30.5 7.5h-125l15 71h320
l-662 -1013q-106 -163 -189.5 -237t-190.5 -88z" />
    <glyph glyph-name="endash" unicode="&#x2013;" horiz-adv-x="1341" 
d="M131 354l21 105h1049l-22 -105h-1048z" />
    <glyph glyph-name="emdash" unicode="&#x2014;" horiz-adv-x="2340" 
d="M131 354l21 105h2048l-21 -105h-2048z" />
    <glyph glyph-name="quoteleft" unicode="&#x2018;" horiz-adv-x="555" 
d="M368 811q-77 0 -108 61t-10 159q29 137 136 231t232 118l1 -74q-108 -23 -181 -94.5t-87 -137.5q-3 -15 3 -20.5t18 -2.5q10 0 27 4t25 4q45 0 74.5 -38.5t16.5 -96.5q-9 -45 -49.5 -79t-97.5 -34z" />
    <glyph glyph-name="quoteright" unicode="&#x2019;" horiz-adv-x="554" 
d="M219 811v74q108 23 180.5 94.5t86.5 137.5q3 15 -2.5 21t-18.5 2q-9 0 -26 -4t-26 -4q-45 0 -74 38.5t-17 96.5q11 45 50.5 79t97.5 34q76 0 107.5 -61t10.5 -159q-29 -137 -136 -231t-233 -118z" />
    <glyph glyph-name="quotesinglbase" unicode="&#x201a;" horiz-adv-x="557" 
d="M-27 -356l-1 74q109 23 181.5 94.5t86.5 137.5q4 15 -2 20.5t-19 2.5q-11 -1 -28.5 -4.5t-23.5 -3.5q-45 0 -73.5 38t-17.5 97q10 45 50.5 79t97.5 34q77 0 108.5 -60.5t10.5 -159.5q-29 -137 -136.5 -231t-233.5 -118z" />
    <glyph glyph-name="quotedblleft" unicode="&#x201c;" horiz-adv-x="983" 
d="M367 811q-77 0 -107.5 60.5t-9.5 159.5q29 137 135 231t230 118l-1 -74q-106 -23 -178 -94.5t-86 -137.5q-3 -15 3 -20.5t18 -2.5q10 0 26.5 4t24.5 4q44 0 73 -38.5t16 -96.5q-8 -45 -47.5 -79t-96.5 -34zM798 811q-76 0 -107 61t-10 159q29 137 135 231t230 118v-74
q-107 -23 -179 -94.5t-86 -137.5q-3 -15 3 -20.5t18 -2.5q11 1 27 4.5t24 3.5q45 0 74 -38.5t16 -96.5q-8 -44 -48 -78.5t-97 -34.5z" />
    <glyph glyph-name="quotedblright" unicode="&#x201d;" horiz-adv-x="983" 
d="M220 811v74q106 23 178 95t86 137q3 15 -2 21t-18 2q-10 0 -27 -4t-25 -4q-45 0 -73.5 38t-16.5 97q11 45 50 79t96 34q75 0 106.5 -61t10.5 -159q-30 -137 -135.5 -231t-229.5 -118zM651 811v74q56 12 104.5 40t81 61.5t53 67.5t26.5 63q3 15 -2.5 21t-18.5 2
q-10 0 -26.5 -4t-24.5 -4q-45 0 -74 38.5t-17 96.5q11 45 50.5 79t96.5 34q75 0 106.5 -61t10.5 -159q-30 -137 -136 -231t-230 -118z" />
    <glyph glyph-name="quotedblbase" unicode="&#x201e;" horiz-adv-x="994" 
d="M-27 -356l-1 74q109 23 181.5 94.5t86.5 137.5q4 15 -2 20.5t-19 2.5q-11 -1 -28.5 -4.5t-23.5 -3.5q-45 0 -73.5 38t-17.5 97q10 45 50.5 79t97.5 34q77 0 108.5 -60.5t10.5 -159.5q-29 -137 -136.5 -231t-233.5 -118zM410 -356v74q74 16 135.5 59t92.5 88t40 85
q4 14 -2 20t-19 3q-11 -1 -29 -4.5t-23 -3.5q-45 0 -74 38.5t-17 96.5q10 45 50 79t97 34q77 0 108.5 -60.5t10.5 -159.5q-29 -137 -136.5 -231t-233.5 -118z" />
    <glyph glyph-name="dagger" unicode="&#x2020;" horiz-adv-x="916" 
d="M279 -244l29 141q23 107 48 259.5t45 286t21 138.5q20 148 76 206q-13 -3 -113 -33.5t-146 -30.5q-10 0 -21.5 2t-28.5 9t-27 19.5t-17 33.5t1 51q18 88 117 88q46 0 128.5 -28.5t119.5 -29.5q0 11 -5.5 73t-4.5 114.5t12 102.5q25 126 122 126q41 0 66 -36.5t10 -109.5
q-18 -84 -124 -283q31 9 90.5 29.5t97 29.5t74.5 9q56 0 78 -34t13 -81q-8 -36 -38.5 -61t-82.5 -25q-45 0 -128.5 26t-108.5 27q7 -21 8 -43.5t-4.5 -54.5t-11 -55.5t-18.5 -72.5q-8 -31 -41.5 -145.5t-70 -251.5t-65.5 -273l-25 -123h-75z" />
    <glyph glyph-name="daggerdbl" unicode="&#x2021;" horiz-adv-x="975" 
d="M874 923q60 0 82.5 -34.5t12.5 -80.5q-9 -38 -39.5 -62t-81.5 -24q-45 0 -128.5 26t-108.5 27q7 -21 8.5 -43t-4.5 -55.5t-11 -54.5t-19 -73q-52 -182 -83 -390q-16 -108 -30 -143q-14 -36 -39 -64q16 4 69.5 22t101.5 30.5t82 12.5q58 0 79 -35.5t10 -81.5
q-8 -36 -39 -60t-83 -24q-50 0 -132.5 29t-115.5 36l4 -6q0 -7 5 -80t3.5 -127t-11.5 -98q-15 -62 -48.5 -89t-67.5 -27q-42 0 -69 35t-8 121q5 26 14.5 54t25 62.5t23 51t28.5 56.5t22 43q-28 -5 -120.5 -34.5t-134.5 -29.5q-47 0 -74.5 32t-15.5 85q10 43 45.5 65t79.5 21
q46 -1 126.5 -25t112.5 -25q-19 84 22 221q20 65 47.5 192.5t36.5 201.5q12 126 72 205q-5 -1 -107.5 -32t-144.5 -31q-43 0 -76 28t-20 87q20 88 115 88q51 0 136.5 -31.5t115.5 -37.5q0 1 -5.5 60.5t-6.5 84.5t1 73t11 84q10 42 26.5 69.5t35 38.5t30 14t21.5 3
q52 0 76 -37.5t9 -108.5q-16 -73 -107 -258q-6 -13 -9 -19q33 9 89 27t92 26.5t69 8.5z" />
    <glyph glyph-name="bullet" unicode="&#x2022;" horiz-adv-x="811" 
d="M458 420q-104 0 -178.5 74.5t-74.5 179.5q0 106 74.5 178.5t178.5 72.5q103 0 177.5 -72.5t74.5 -178.5q0 -105 -73.5 -179.5t-178.5 -74.5z" />
    <glyph glyph-name="twodotenleader" unicode="&#x2025;" horiz-adv-x="1200" 
d="M229 -35q-52 0 -89 37t-37 90q0 51 37 88t89 37q50 0 87 -37t37 -88q0 -52 -37 -89.5t-87 -37.5zM826 -35q-52 0 -88.5 37t-36.5 90q0 51 36.5 88t88.5 37t89 -37t37 -88q0 -52 -37 -89.5t-89 -37.5z" />
    <glyph glyph-name="ellipsis" unicode="&#x2026;" horiz-adv-x="1799" 
d="M229 -35q-52 0 -89 37t-37 90q0 51 37 88t89 37q50 0 87 -37t37 -88q0 -52 -37 -89.5t-87 -37.5zM826 -35q-52 0 -88.5 37t-36.5 90q0 51 36.5 88t88.5 37t89 -37t37 -88q0 -52 -37 -89.5t-89 -37.5zM1426 -35q-52 0 -89 37t-37 90q0 51 37 88t89 37q51 0 87.5 -37
t36.5 -88q0 -52 -36.5 -89.5t-87.5 -37.5z" />
    <glyph glyph-name="perthousand" unicode="&#x2030;" horiz-adv-x="2401" 
d="M436 672q-66 0 -112 26t-68.5 65t-31.5 89.5t-7 95t11 85.5q35 160 126 251.5t218 91.5q55 0 97 -16.5t66 -45t39 -64.5t18.5 -78.5t0.5 -83t-12 -82.5q-11 -53 -36 -106.5t-65.5 -107t-104 -87t-139.5 -33.5zM383 0l980 1352h94l-983 -1352h-91zM437 726q43 0 80 27.5
t62 73.5t41.5 92.5t27.5 98.5q27 117 21.5 184.5t-28.5 93.5t-68 26q-147 0 -215 -314q-58 -282 79 -282zM1239 -24q-66 0 -112 26t-68.5 65t-31.5 89.5t-7 94.5t11 85q34 161 124.5 252t218.5 91q55 0 97 -16.5t66 -45t39 -64.5t18.5 -78.5t0.5 -83t-12 -82.5
q-9 -41 -25.5 -83.5t-46 -88.5t-66.5 -81t-91 -57.5t-115 -22.5zM1933 -24q-66 0 -112.5 26t-68.5 65t-31.5 89.5t-7 94.5t11.5 85q34 161 124.5 252t218.5 91q55 0 97 -16.5t66 -45t39 -64.5t18 -78.5t0 -83t-12 -82.5q-9 -41 -25.5 -83.5t-45.5 -88.5t-66 -81t-91 -57.5
t-115 -22.5zM1239 30q43 0 79.5 27.5t62 73.5t42 92.5t28.5 98.5q27 117 21.5 184.5t-28.5 93.5t-68 26q-147 0 -215 -314q-60 -282 78 -282zM1933 30q43 0 79.5 27.5t61.5 73.5t42 92.5t28 98.5q27 117 22 184.5t-28.5 93.5t-68.5 26q-146 0 -214 -314q-60 -282 78 -282z
" />
    <glyph glyph-name="guilsinglleft" unicode="&#x2039;" horiz-adv-x="521" 
d="M276 0l-235 440l420 441h79l-343 -441l153 -440h-74z" />
    <glyph glyph-name="guilsinglright" unicode="&#x203a;" horiz-adv-x="520" 
d="M-13 0l342 440l-152 441h73l235 -441l-422 -440h-76z" />
    <glyph glyph-name="Euro" unicode="&#x20ac;" horiz-adv-x="1219" 
d="M575 -24q-123 0 -206 77.5t-115 204t-17 284.5l-101 -7l25 71l86 8q2 25 12 73q7 30 17 67l-96 -7l26 71l92 8q83 244 234 396t332 152q96 0 164 -51t98 -145l39 160h71l-82 -394l-69 6q12 164 -38.5 257.5t-162.5 93.5q-92 0 -176.5 -67.5t-145 -176t-101.5 -246.5
l491 7l-27 -71l-480 -8q-12 -44 -18 -75q-10 -40 -14 -65l462 7l-28 -71l-447 -8q-18 -144 -6.5 -250t64 -166.5t143.5 -60.5q116 0 223 110t157 260l60 -25q-74 -215 -199 -317t-267 -102z" />
    <glyph glyph-name="uni2113" unicode="&#x2113;" horiz-adv-x="870" 
d="M398 -22q-106 0 -146.5 90.5t-10.5 233.5l23 112q-18 -17 -91.5 -75.5t-90.5 -73.5l-30 61q17 15 109.5 88.5t119.5 98.5l94 459q42 201 140 331t230 130q93 0 123 -60.5t3 -187.5q-28 -129 -105.5 -259.5t-183.5 -243.5q-66 -73 -124 -122l-57 -270q-22 -112 -10 -166.5
t56 -54.5q102 0 178 241l59 -28q-52 -158 -121 -231t-165 -73zM478 681q43 38 100 109q192 213 235 418q19 82 8 120t-58 38q-68 0 -123.5 -87.5t-89.5 -247.5z" />
    <glyph glyph-name="trademark" unicode="&#x2122;" horiz-adv-x="2275" 
d="M291 1352h751l7 -219l-45 -1l-7 85q-12 55 -33.5 71t-63.5 16h-175v-648q0 -33 12.5 -50t52.5 -17h66v-44h-378v44h66q39 0 52 17.5t13 49.5v648h-178q-18 0 -30.5 -2.5t-27.5 -11t-24.5 -27.5t-13.5 -48l-6 -83l-45 1zM2153 589h73v-44h-384v44h66q37 0 50.5 15.5
t13.5 51.5v592h-13l-316 -703h-46l-313 703h-8v-569q0 -90 64 -90h54v-44h-280v44h54q60 0 60 91v559q0 35 -11.5 52t-49.5 17h-53v44h246l297 -666l301 666h267v-44h-72q-40 0 -52.5 -17t-12.5 -51v-584q0 -32 12.5 -49.5t52.5 -17.5z" />
    <glyph glyph-name="uni2126" unicode="&#x2126;" horiz-adv-x="1460" 
d="M61 0l65 308h56l-22 -104q-10 -45 6.5 -69t69.5 -24h285l37 160q-355 176 -266 596q55 256 224.5 405.5t418.5 149.5q102 0 182.5 -28.5t133 -80.5t83.5 -124.5t33.5 -160.5t-17.5 -189q-40 -195 -172.5 -343t-333.5 -224l-36 -161h276q52 0 84 30.5t41 75.5l19 91h56
l-65 -308h-510l67 327q155 74 255.5 217.5t138.5 321.5q53 252 -10 373t-227 121q-174 0 -295.5 -137.5t-173.5 -384.5q-39 -188 3.5 -323t170.5 -200l-65 -315h-512z" />
    <glyph glyph-name="partialdiff" unicode="&#x2202;" horiz-adv-x="1055" 
d="M320 -19q-146 0 -206.5 100.5t-23.5 277.5q22 102 77 204t130 185t172 134.5t195 51.5q56 0 96 -19.5t60.5 -52t29 -67.5t8.5 -74l2 15q40 107 64 232q17 79 18.5 150.5t-13 128t-49.5 90t-87 33.5q-149 0 -290 -174l-32 46q175 232 377 232q96 0 147 -65.5t54 -177
t-26 -259.5q-24 -113 -80.5 -261t-119.5 -267q-138 -240 -257.5 -351.5t-245.5 -111.5zM377 57q57 0 119 47.5t119 129t107.5 178t94.5 206.5q10 41 11.5 78t-6.5 77t-40 64t-86 24q-93 0 -191 -84t-169.5 -214t-100.5 -267q-25 -116 14 -177.5t128 -61.5z" />
    <glyph glyph-name="uni2206" unicode="&#x2206;" horiz-adv-x="1009" 
d="M5 0l615 1433h196l4 -1433h-815zM116 72h541l1 1221h-12z" />
    <glyph glyph-name="product" unicode="&#x220f;" horiz-adv-x="1303" 
d="M-15 -251l12 56h71q33 0 56.5 35t33.5 85l285 1336q21 105 -36 105h-93l13 56h1073l-13 -56h-84q-34 0 -57.5 -34.5t-33.5 -85.5l-285 -1336q-23 -105 37 -105h78l-12 -56h-437l12 56h71q33 0 57 35t34 85l303 1425h-447l-305 -1440q-21 -105 35 -105h78l-12 -56h-434z
" />
    <glyph glyph-name="summation" unicode="&#x2211;" horiz-adv-x="1004" 
d="M328 1423h696l-40 -328l-55 -2l15 170q5 54 -9.5 70.5t-50.5 16.5h-429l146 -714l-503 -758h502q75 0 103 89l58 190l57 -6l-114 -404h-739l14 75l490 737l-157 788z" />
    <glyph glyph-name="minus" unicode="&#x2212;" horiz-adv-x="1561" 
d="M279 618v115h1110v-115h-1110z" />
    <glyph glyph-name="radical" unicode="&#x221a;" horiz-adv-x="748" 
d="M764 1502h58l-487 -1513h-88l-22 679l-97 -63l-27 49l201 130l16 -660z" />
    <glyph glyph-name="infinity" unicode="&#x221e;" horiz-adv-x="1347" 
d="M966 827q105 0 170.5 -69t65.5 -180q0 -109 -67 -180.5t-170 -71.5q-80 0 -140.5 43t-112.5 131q-109 -181 -270 -181q-106 0 -172 69.5t-66 179.5q0 109 67 180.5t173 71.5q150 0 251 -174q108 181 271 181zM964 390q80 0 127.5 53.5t47.5 134.5q0 84 -43.5 134
t-123.5 50q-35 0 -65.5 -13t-51 -29.5t-43 -48.5t-34 -52t-31.5 -58q88 -171 217 -171zM439 384q41 0 75.5 17t63 52.5t44.5 61.5t39 71q-91 169 -215 169q-78 0 -128 -50.5t-50 -135.5t45 -135t126 -50z" />
    <glyph glyph-name="integral" unicode="&#x222b;" horiz-adv-x="625" 
d="M44 -415q-34 0 -57.5 13.5t-32 33.5t-11.5 44t4 44q5 19 17.5 32t28.5 13q19 0 30 -15.5t9 -32.5q2 -41 45 -39q28 7 45 27t30 64q8 30 13.5 72t13 127.5t13.5 139.5q24 212 73 441q60 285 89 403q32 137 45.5 192.5t40.5 137t56 127.5q63 108 154 108q54 0 78.5 -30.5
t19.5 -82.5q-1 -16 -11 -30t-31 -15q-17 -1 -26.5 11t-11.5 33q-16 26 -58 22q-43 -9 -67 -81q-9 -21 -16.5 -47.5t-14.5 -67.5t-11.5 -70.5t-13.5 -93.5t-14 -98q-29 -257 -67 -445q-60 -286 -104 -454q-64 -264 -121 -381q-24 -52 -56.5 -77t-80.5 -25z" />
    <glyph glyph-name="approxequal" unicode="&#x2248;" horiz-adv-x="1305" 
d="M1197 687q-6 -9 -20 -27l20 -21q-53 -77 -113.5 -121t-141.5 -44q-101 0 -223 67q-112 64 -214 64q-76 0 -135 -40.5t-117 -120.5l-79 83l21 27l-21 22q32 44 62.5 75.5t70 60t88.5 43t106 14.5q124 0 243 -65q118 -67 195 -67q90 0 179 134z" />
    <glyph glyph-name="notequal" unicode="&#x2260;" horiz-adv-x="1387" 
d="M1301 856h-375l-186 -360h561v-115h-620l-214 -414h-154l214 414h-336v115h396l186 360h-582v115h641l198 382h152l-197 -382h316v-115z" />
    <glyph glyph-name="lessequal" unicode="&#x2264;" horiz-adv-x="1304" 
d="M1122 1228v-125l-828 -316l828 -316v-124l-955 375v131zM190 0v115h932v-115h-932z" />
    <glyph glyph-name="greaterequal" unicode="&#x2265;" horiz-adv-x="1310" 
d="M214 1228l954 -375v-131l-954 -375v124l828 316l-828 316v125zM214 0v115h931v-115h-931z" />
    <glyph glyph-name="uni0308.case" 
d="M-337 1510q-40 0 -67.5 29t-27.5 67q0 39 28 67t67 28q40 0 68 -28t28 -67q0 -41 -28 -68.5t-68 -27.5zM36 1510q-40 0 -68 29t-28 67q0 40 28 67.5t68 27.5q39 0 67 -28t28 -67q0 -41 -28 -68.5t-67 -27.5z" />
    <glyph glyph-name="gravecomb.case" 
d="M122 1438l-399 317v4h236l224 -321h-61z" />
    <glyph glyph-name="acutecomb.case" 
d="M-202 1438l223 321h236v-4l-398 -317h-61z" />
    <glyph glyph-name="uni0302.case" 
d="M-463 1470l293 322h189l157 -322h-52l-214 242l-317 -242h-56z" />
    <glyph glyph-name="uni030C.case" 
d="M-230 1456l-165 322h54l212 -242l316 242h57l-302 -322h-172z" />
    <glyph glyph-name="uni030A.case" 
d="M-31 1443q-77 0 -130.5 54t-53.5 131t53.5 130.5t130.5 53.5t131 -54t54 -130t-54 -130.5t-131 -54.5zM-31 1500q53 0 90.5 37.5t37.5 90.5t-37.5 90.5t-90.5 37.5q-52 0 -89 -37.5t-37 -90.5t37 -90.5t89 -37.5z" />
    <glyph glyph-name="tildecomb.case" 
d="M-464 1432l-51 15q23 120 82 186.5t144 66.5q31 0 60 -14t39.5 -23.5t38.5 -36.5q27 -30 51 -45.5t61 -15.5q52 0 90.5 41t57.5 117l51 -15q-20 -116 -81.5 -191t-147.5 -75q-15 0 -28.5 2t-26.5 8t-20.5 9.5t-20.5 14t-16.5 13.5t-17.5 17l-15 15q-27 29 -51.5 43.5
t-62.5 14.5q-50 0 -86 -42.5t-50 -104.5z" />
    <glyph glyph-name="uni0335.case" 
d="M-833 646l15 77h736l-16 -77h-735z" />
    <glyph glyph-name="uni0337.case" 
d="M-748 349l22 109l855 618l-21 -109z" />
    <glyph glyph-name="uni0338.case" 
d="M-956 5l-56 48l1177 1337l54 -48z" />
    </font>
</defs>
</svg>
