<?xml version="1.0" standalone="no"?>
<!DOCTYPE svg PUBLIC "-//W3C//DTD SVG 1.1//EN" "http://www.w3.org/Graphics/SVG/1.1/DTD/svg11.dtd" >
<svg xmlns="http://www.w3.org/2000/svg" xmlns:xlink="http://www.w3.org/1999/xlink" version="1.1">
<metadata>
Created by FontForge 20170731 at Wed Dec 13 17:12:53 2017
 By ,,,
Copyright (c)2017 HK CartaTM by Alfredo Marco Pradil
</metadata>
<defs>
<font id="HKCarta-LightItalic" horiz-adv-x="0" >
  <font-face 
    font-family="HK Carta Light Italic"
    font-weight="300"
    font-style="italic"
    font-stretch="normal"
    units-per-em="2048"
    panose-1="0 0 4 0 0 0 0 0 0 0"
    ascent="1393"
    descent="-655"
    x-height="846"
    cap-height="1353"
    bbox="-1012 -529 2250.45 1810"
    underline-thickness="50"
    underline-position="-200"
    slope="-12"
    unicode-range="U+0020-FB02"
  />
<missing-glyph horiz-adv-x="1173" 
d="M115 0l288 1352h762l-288 -1352h-762zM181 54h654l264 1243h-654z" />
    <glyph glyph-name="fi" unicode="fi" horiz-adv-x="1091" 
d="M790 1379q137 0 211 -61.5t58 -173.5q-5 -27 -23.5 -43t-46.5 -17q-13 0 -22 4t-13.5 9.5t-7.5 16t-3.5 17.5t-1.5 20.5t-1 18.5q2 69 -37 106.5t-120 37.5q-114 0 -184.5 -68.5t-98.5 -192.5l-48 -207h546l-171 -740q-6 -23 9 -32.5t49 -9.5h87l-14 -64h-290l183 782
h-415l-299 -1282h-133l299 1282h-214l14 64h216l48 201q39 163 151.5 247.5t271.5 84.5z" />
    <glyph glyph-name="fl" unicode="fl" horiz-adv-x="1085" 
d="M4 -500l299 1282h-216l16 64h216l47 201q38 162 150 247t264 85q135 0 197 -68l146 82l-298 -1287q-6 -23 9.5 -32.5t48.5 -9.5h87l-14 -64h-290l249 1065q31 119 0 184t-135 65q-114 0 -183 -72t-97 -189l-49 -207h281l-16 -64h-280l-299 -1282h-133z" />
    <glyph glyph-name="f_f" unicode="ff" horiz-adv-x="1197" 
d="M1318 1379q115 0 181.5 -60.5t53.5 -174.5q-4 -25 -23.5 -41.5t-43.5 -18.5q-26 -1 -40.5 21t-12.5 57q6 152 -138 152q-94 0 -160 -70t-94 -191l-49 -207h281l-15 -64h-280l-300 -1282h-132l299 1282h-409l-299 -1282h-133l299 1282h-214l14 64h216l48 201
q38 162 149.5 247t260.5 85q86 0 146.5 -34t81.5 -100q116 134 313 134zM861 846l46 201q4 21 12 43q-32 20 -26 72q6 152 -139 152q-94 0 -160 -70t-94 -191l-48 -207h409z" />
    <glyph glyph-name="f_f_i" unicode="ffi" horiz-adv-x="1633" 
d="M1325 1379q142 0 215 -59.5t60 -175.5q-4 -26 -23.5 -42t-44.5 -18q-8 0 -14.5 1.5t-11.5 3t-8.5 6t-6.5 7t-4.5 9.5t-2.5 10t-1.5 12t-1 12t-0.5 13v13q1 70 -38.5 106.5t-121.5 36.5q-112 0 -181.5 -69t-98.5 -192l-49 -207h548l-171 -740q-6 -23 9 -32.5t49 -9.5h87
l-14 -64h-291l183 782h-414l-300 -1282h-132l299 1282h-409l-299 -1282h-133l299 1282h-214l14 64h216l48 201q38 162 149.5 247t260.5 85q86 0 146.5 -34t81.5 -100q118 134 320 134zM861 846l46 201q4 21 12 43q-32 20 -26 72q6 152 -139 152q-94 0 -160 -70t-94 -191
l-48 -207h409z" />
    <glyph glyph-name="f_f_l" unicode="ffl" horiz-adv-x="1627" 
d="M1367 106q-6 -23 9 -32.5t48 -9.5h87l-13 -64h-291l249 1065q32 119 1.5 184t-135.5 65q-115 0 -184.5 -72t-96.5 -189l-49 -207h281l-15 -64h-280l-300 -1282h-132l299 1282h-409l-299 -1282h-133l299 1282h-214l14 64h216l48 201q38 161 149.5 246.5t256.5 85.5
q94 0 153 -36t79 -99q119 135 317 135q135 0 197 -68l146 82zM861 846l46 201l12 43q-16 10 -22.5 31t-4.5 41q5 70 -30 111t-108 41q-94 0 -160 -70t-94 -191l-48 -207h409z" />
    <glyph glyph-name=".notdef" horiz-adv-x="1173" 
d="M115 0l288 1352h762l-288 -1352h-762zM181 54h654l264 1243h-654z" />
    <glyph glyph-name=".null" 
 />
    <glyph glyph-name="nonmarkingreturn" horiz-adv-x="682" 
 />
    <glyph glyph-name="space" unicode=" " horiz-adv-x="505" 
 />
    <glyph glyph-name="exclam" unicode="!" horiz-adv-x="566" 
d="M257 446l127 731q3 15 11 65t14 78q3 16 8 26t21.5 19.5t42.5 9.5q74 0 54 -79q-3 -15 -8 -34.5t-12.5 -46.5t-11.5 -44l-182 -725h-64zM212 -33q-47 0 -80.5 33.5t-33.5 81.5t33.5 81.5t80.5 33.5q46 0 79 -33.5t33 -81.5t-33 -81.5t-79 -33.5z" />
    <glyph glyph-name="quotedbl" unicode="&#x22;" horiz-adv-x="871" 
d="M277 713l66 477q8 55 21 130q6 26 25.5 40.5t44.5 14.5q30 0 44 -22.5t6 -55.5q-4 -20 -16.5 -63.5t-15.5 -55.5l-131 -465h-44zM676 713l66 477q12 83 21 130q6 26 25 40.5t44 14.5q31 0 45 -22.5t6 -55.5q-4 -20 -16.5 -63.5t-15.5 -55.5l-131 -465h-44z" />
    <glyph glyph-name="numbersign" unicode="#" horiz-adv-x="1421" 
d="M151 -36l180 425h-233l19 91h251l170 401h-336l19 90h353l177 419h93l-177 -419h452l176 419h93l-176 -419h220l-19 -90h-239l-167 -401h320l-19 -91h-340l-180 -425h-93l181 425h-453l-180 -425h-92zM461 480h453l168 401h-453z" />
    <glyph glyph-name="dollar" unicode="$" horiz-adv-x="1188" 
d="M939 1334q108 -57 181 -207l-26 -130q-8 -41 -35 -41q-35 0 -32 55q4 83 -27.5 148t-90.5 104l-202 -492q2 -1 6 -2.5t6 -2.5q37 -13 64.5 -24t61 -26.5t58 -30.5t50.5 -35t43 -41.5t31.5 -49.5t21 -58.5t6 -68t-9.5 -79.5q-16 -77 -56 -141.5t-91 -107t-110.5 -72
t-115 -42.5t-105.5 -13q-102 0 -177 25l-68 -164h-55l76 183q-147 71 -221 264l32 161q9 40 37 40q37 0 32 -55q-13 -119 24.5 -208t122.5 -134l233 565q-42 17 -72.5 31t-65 32t-58 36.5t-47 41t-36.5 48.5t-22 56.5t-8 67.5t10 79q30 143 157 236.5t282 93.5q81 0 149 -22
l49 119h55zM660 790l204 497q-55 22 -116 22q-125 0 -215 -71.5t-110 -171.5q-5 -26 -5.5 -48.5t3 -41.5t13 -36.5t20 -31t29 -27.5t35 -24t42.5 -23t47 -22t53 -22zM658 632l-7 3l-234 -567q61 -21 142 -21q50 0 104.5 18t106.5 52t92 91.5t55 129.5q6 28 6 53t-4.5 45.5
t-15.5 39.5t-23.5 34t-33 29.5t-38.5 25.5t-45.5 24t-50 22t-54.5 21z" />
    <glyph glyph-name="percent" unicode="%" horiz-adv-x="1693" 
d="M436 673q-63 0 -107.5 26t-65.5 64.5t-29.5 89t-6 94t11.5 83.5q35 161 123.5 253t210.5 92q75 0 124 -33t66.5 -85.5t20.5 -118t-14 -130.5q-9 -40 -24.5 -82t-44.5 -88.5t-65 -82t-88 -59t-112 -23.5zM382 0l981 1352h82l-983 -1352h-80zM438 724q46 0 85.5 28t66 75.5
t43.5 94t28 97.5q32 170 9 237.5t-97 67.5q-158 0 -227 -314q-59 -286 92 -286zM1226 -23q-63 0 -107.5 26t-65.5 64.5t-29.5 88.5t-6 93.5t11.5 84.5q34 161 122 253t211 92q74 0 123 -33t66.5 -85.5t20.5 -118.5t-14 -131q-9 -40 -24.5 -82t-44 -88t-64.5 -81.5t-88 -59
t-111 -23.5zM1226 27q46 0 85.5 28.5t66 75.5t44 94t28.5 98q32 169 9.5 237t-96.5 68q-79 0 -136.5 -80t-90.5 -235q-61 -286 90 -286z" />
    <glyph glyph-name="ampersand" unicode="&#x26;" horiz-adv-x="1613" 
d="M398 -23q-172 0 -263 95t-60 240q15 69 50 125t101.5 109t149 101t213.5 111q-20 25 -32 41t-28.5 40t-26 42t-19.5 42.5t-13.5 46t-3.5 47.5t6 52q22 107 115 170.5t221 63.5q132 0 197 -65.5t42 -172.5q-35 -171 -303 -311q94 -110 146 -198t90 -213q182 189 289 385
q15 26 5.5 41t-43.5 15h-94l13 62h399l-13 -62h-67q-61 0 -154 -119q-193 -279 -308 -391q39 -118 59 -150q42 -57 113 -59q85 0 143.5 62.5t84.5 174.5l63 -12q-34 -159 -125 -236t-207 -77q-28 0 -51.5 4t-43 14t-33.5 18.5t-28 27.5t-22.5 31t-19.5 38t-16 38.5t-17 43.5
q-106 -94 -237 -154.5t-272 -60.5zM703 814q113 61 181 128t85 151q14 67 -29 106.5t-133 39.5q-87 0 -150.5 -45.5t-77.5 -117.5q-11 -62 22 -123t102 -139zM456 65q210 0 419 191q-43 142 -95.5 231t-154.5 210q-209 -108 -273 -153q-102 -71 -136 -158q-9 -24 -15 -52
q-23 -106 47.5 -187.5t207.5 -81.5z" />
    <glyph glyph-name="quotesingle" unicode="'" horiz-adv-x="472" 
d="M277 713l66 477q8 55 21 130q6 26 25.5 40.5t44.5 14.5q30 0 44 -22.5t6 -55.5q-4 -20 -16.5 -63.5t-15.5 -55.5l-131 -465h-44z" />
    <glyph glyph-name="parenleft" unicode="(" horiz-adv-x="512" 
d="M204 -484q-103 199 -128 436.5t31 495.5q21 102 58 211t94.5 234t145 252t193.5 233l86 -11q-185 -185 -315 -433.5t-186 -508.5q-107 -498 102 -920z" />
    <glyph glyph-name="parenright" unicode=")" horiz-adv-x="515" 
d="M-163 -484q391 425 500 933q55 242 29.5 493t-130.5 436l80 -11q61 -106 94.5 -233.5t38.5 -254t-4 -238t-31 -217.5q-54 -250 -179 -486t-311 -433z" />
    <glyph glyph-name="asterisk" unicode="*" horiz-adv-x="1112" 
d="M424 462q-28 0 -51 21t-23 48q0 13 4.5 24.5t19 28.5t24.5 27t38.5 37.5t43.5 42.5q19 18 128 132q18 21 14 34q-6 15 -31 20q-65 17 -162 33q-23 4 -81 11t-81 11q-33 2 -51.5 19.5t-18.5 46.5q0 28 19 51t46 23q41 0 172 -79q70 -40 167 -83q27 -12 36 -1q12 12 9 33
q-2 15 -11 80t-15 100q-21 89 -26 171q-1 28 17.5 48t50.5 20t50.5 -18.5t17.5 -48.5q-2 -67 -22 -163q-11 -50 -28 -189q-3 -23 10 -34q8 -9 35 3q35 15 90.5 44.5t70.5 36.5q22 12 55 29.5t45.5 24t30 15t27.5 11t19 2.5q30 0 49 -23t19 -52t-19.5 -46t-46.5 -19
q-23 -5 -82.5 -12.5t-82.5 -12.5q-126 -21 -163 -31q-23 -6 -30 -20q-5 -17 12 -35q16 -16 46.5 -47.5t54.5 -55t51 -47.5q6 -6 18.5 -19t18 -19t16 -17t15.5 -17t12.5 -15.5t11.5 -15.5t8 -13.5t5.5 -14t1.5 -12.5q0 -27 -24 -47.5t-52 -20.5q-46 0 -68 72q-60 118 -62 121
q-45 87 -81 149q-13 24 -27 24q-15 0 -28 -24q-47 -81 -78 -147q-33 -68 -68 -136q-19 -41 -38 -52q-12 -7 -28 -7z" />
    <glyph glyph-name="plus" unicode="+" horiz-adv-x="1286" 
d="M649 121v507h-507v96h507v507h96v-507h507v-96h-507v-507h-96z" />
    <glyph glyph-name="comma" unicode="," horiz-adv-x="612" 
d="M13 -348l-3 65q104 25 173 97t83 135q4 15 -1.5 21t-17.5 2q-8 0 -22.5 -3t-22.5 -3q-43 0 -69 34.5t-15 87.5q9 42 45.5 73.5t87.5 31.5q70 0 97.5 -55t9.5 -144q-27 -126 -126.5 -220t-218.5 -122z" />
    <glyph glyph-name="hyphen" unicode="-" horiz-adv-x="899" 
d="M138 348l25 116h591l-24 -116h-592z" />
    <glyph glyph-name="period" unicode="." horiz-adv-x="603" 
d="M229 -33q-47 0 -80 33.5t-33 81.5t33 81.5t80 33.5t80 -33.5t33 -81.5t-33 -81.5t-80 -33.5z" />
    <glyph glyph-name="slash" unicode="/" horiz-adv-x="811" 
d="M-115 -33l1012 1386h128l-1010 -1386h-130z" />
    <glyph glyph-name="zero" unicode="0" horiz-adv-x="1024" 
d="M422 -23q-75 0 -133.5 38t-99 123t-42.5 221.5t36 332.5q71 332 211.5 507t314.5 175q110 0 179.5 -74.5t91.5 -232.5t-31 -403q-72 -336 -211.5 -511.5t-315.5 -175.5zM428 42q255 0 387 631q69 320 42.5 477.5t-152.5 157.5q-129 0 -228.5 -169t-163.5 -473
q-67 -307 -39.5 -465.5t154.5 -158.5z" />
    <glyph glyph-name="one" unicode="1" horiz-adv-x="1024" 
d="M554 142q-9 -38 3 -58t55 -20h191l-13 -64h-686l13 64h209q39 0 64.5 24.5t34.5 63.5l231 1089q-70 -59 -139 -81.5t-191 -22.5l9 62q147 2 233 40.5t167 138.5l80 -4z" />
    <glyph glyph-name="two" unicode="2" horiz-adv-x="1024" 
d="M956 1000q-21 -104 -99.5 -219t-217.5 -260q-134 -130 -237.5 -221t-245.5 -205h522q68 0 100 63l69 130h61l-174 -333l-61 6q12 23 10 31t-29 8h-642l17 87q340 266 513 470q237 249 284 463q28 127 -19.5 207t-159.5 80q-108 0 -196.5 -74.5t-111.5 -181.5
q-13 -64 9 -138l-86 -30q-29 97 -11 178q29 136 152 224.5t273 88.5q158 0 237 -103.5t43 -270.5z" />
    <glyph glyph-name="three" unicode="3" horiz-adv-x="1024" 
d="M342 -23q-133 0 -214 67.5t-84 158.5q0 51 51 55q13 1 22 -1.5t14 -11t6.5 -13t4 -19.5t3.5 -19q10 -29 22.5 -51.5t35.5 -47.5t60.5 -39t87.5 -14q150 0 269.5 114t155.5 282q9 54 8 93.5t-16 68.5t-33.5 47.5t-45 29.5t-49.5 15t-47 4q-55 0 -103 -24l-69 -37l-26 53
l154 88q286 154 325 335q20 93 -35 144t-158 51q-118 0 -201.5 -64.5t-100.5 -169.5q-9 -57 7 -111l-91 -30q-28 73 -12 152q28 126 151 208.5t281 82.5q92 0 162.5 -31.5t105.5 -94t17 -144.5q-13 -60 -52.5 -115t-98.5 -99t-104 -70.5t-103 -55.5q150 2 226 -85.5
t42 -249.5q-28 -130 -117.5 -235t-209 -161t-241.5 -56z" />
    <glyph glyph-name="four" unicode="4" horiz-adv-x="1024" 
d="M321 0l15 64h122q46 0 69 24t33 70l67 317h-543l19 100l744 796h102l-175 -822h192l-15 -74h-193l-70 -330q-9 -41 2.5 -61t59.5 -20h115l-15 -64h-529zM169 549h475l143 673h-11l-603 -656z" />
    <glyph glyph-name="five" unicode="5" horiz-adv-x="1024" 
d="M950 1255h-496l-118 -477q52 55 126 83t152 28q164 0 252 -116t44 -324q-21 -100 -68 -182t-104.5 -135t-126 -89t-132 -51t-121.5 -15q-66 0 -127 19t-108.5 63t-58.5 106q-2 19 11 34t33 20q13 1 22 -1t14.5 -10t8 -12.5t7 -19t5.5 -18.5q29 -58 85 -86.5t123 -28.5
q131 0 247.5 117t157.5 313q17 72 13.5 135t-23.5 110t-67 74t-116 27q-156 0 -255 -141l-78 5l167 669h585z" />
    <glyph glyph-name="six" unicode="6" horiz-adv-x="1024" 
d="M447 -23q-184 0 -266 153.5t-21 442.5q84 392 255 596.5t377 204.5q101 0 168 -44t85 -119q2 -18 -10 -34t-33 -20q-38 -7 -55 51q-58 98 -187 98q-71 0 -134.5 -42t-110 -108t-87.5 -158.5t-68 -181t-50 -188.5q110 220 316 220q76 0 137 -26.5t103.5 -80.5t54.5 -137.5
t-10 -197.5q-43 -196 -175 -312.5t-289 -116.5zM449 42q119 0 205.5 100.5t121.5 269.5q80 371 -176 371q-220 0 -336 -365q-24 -189 21 -282.5t164 -93.5z" />
    <glyph glyph-name="seven" unicode="7" horiz-adv-x="1024" 
d="M303 -18q-33 1 -43 19.5t0 46.5t35 65l704 1128h-547q-59 0 -100 -62l-70 -131h-61l181 347h61q-13 -25 -10.5 -34t29.5 -9h647l-742 -1303q-22 -41 -41 -55.5t-43 -11.5z" />
    <glyph glyph-name="eight" unicode="8" horiz-adv-x="1024" 
d="M422 -23q-84 0 -153.5 24t-120.5 73t-69.5 123t0.5 174q17 77 54.5 139t88.5 103t104.5 67t113.5 41q-40 15 -73 39t-62 64.5t-35.5 93.5t5.5 126q34 159 156 244.5t277 85.5q160 0 247 -93.5t52 -260.5q-17 -83 -66.5 -147.5t-106 -100t-121.5 -55.5q42 -12 76.5 -31
t65.5 -50t48.5 -71.5t23 -95t-9.5 -121.5q-26 -119 -101 -204.5t-176 -126t-218 -40.5zM576 747q118 0 197.5 79t109.5 220q25 121 -19.5 192.5t-159.5 71.5q-119 0 -198.5 -79t-106.5 -207q-28 -131 15.5 -204t161.5 -73zM426 41q140 0 235 92t126 238q32 150 -23 231
t-193 81q-141 0 -234.5 -89.5t-124.5 -236.5t22 -231.5t192 -84.5z" />
    <glyph glyph-name="nine" unicode="9" horiz-adv-x="1024" 
d="M338 -23q-101 0 -167 43.5t-85 118.5q-2 18 10 34t33 20q10 1 17.5 0t14 -8t8.5 -10.5t8 -15.5t7 -15q56 -100 187 -100q70 0 133.5 42t110 108t87.5 158.5t68.5 181t50.5 188.5q-112 -219 -316 -219q-77 0 -138 26t-103.5 80.5t-54.5 137.5t10 197q43 196 175.5 313
t288.5 117q184 0 266 -153.5t21 -442.5q-84 -392 -255 -596.5t-377 -204.5zM530 568q224 0 336 364q24 190 -21 283t-164 93q-118 0 -204.5 -100.5t-122.5 -269.5q-38 -179 4 -274.5t172 -95.5z" />
    <glyph glyph-name="colon" unicode=":" horiz-adv-x="595" 
d="M368 641q-47 0 -80.5 33.5t-33.5 81.5q0 47 33.5 80.5t80.5 33.5q46 0 79 -33.5t33 -80.5q0 -48 -33 -81.5t-79 -33.5zM223 -33q-47 0 -80 33.5t-33 81.5t33 81.5t80 33.5q46 0 79 -33.5t33 -81.5t-33 -81.5t-79 -33.5z" />
    <glyph glyph-name="semicolon" unicode=";" horiz-adv-x="605" 
d="M369 641q-47 0 -80.5 33.5t-33.5 81.5q0 47 33.5 80.5t80.5 33.5q46 0 79 -33.5t33 -80.5q0 -48 -33 -81.5t-79 -33.5zM9 -348l-3 65q104 25 173 97t83 135q4 15 -1.5 21t-17.5 2q-8 0 -22.5 -3t-23.5 -3q-42 0 -68 34.5t-15 87.5q9 42 45.5 73.5t87.5 31.5
q70 0 97.5 -55t9.5 -144q-27 -126 -126.5 -220t-218.5 -122z" />
    <glyph glyph-name="less" unicode="&#x3c;" horiz-adv-x="1204" 
d="M1080 1146v-105l-832 -366l832 -367v-105l-923 412v119z" />
    <glyph glyph-name="equal" unicode="=" horiz-adv-x="1496" 
d="M197 865v97h1110v-97h-1110zM197 390v96h1110v-96h-1110z" />
    <glyph glyph-name="greater" unicode="&#x3e;" horiz-adv-x="1204" 
d="M230 1146l923 -412v-119l-923 -412v105l832 367l-832 366v105z" />
    <glyph glyph-name="question" unicode="?" horiz-adv-x="881" 
d="M610 1375q112 0 190.5 -53.5t108.5 -141.5t8 -193q-22 -102 -83 -181t-139.5 -118.5t-161.5 -39.5q-54 0 -105 19l-47 -221h-69l64 295l53 -4q26 -17 80 -17q101 0 178 86.5t101 197.5q7 41 7 83.5t-14 82.5t-36.5 71t-61 50t-85.5 19q-81 0 -157.5 -48.5t-119.5 -134.5
q-9 -14 -14 -21t-18.5 -14t-29.5 -5q-21 1 -33 20t-3 47q47 94 153.5 157.5t233.5 63.5zM269 197q46 0 79 -33.5t33 -81.5t-33 -81.5t-79 -33.5q-47 0 -80 33.5t-33 81.5t33 81.5t80 33.5z" />
    <glyph glyph-name="at" unicode="@" horiz-adv-x="1966" 
d="M832 -449q-148 0 -275.5 41t-220.5 116.5t-154 182t-75.5 237.5t14.5 283q44 206 150.5 384.5t255 306t339 200.5t394.5 73q335 0 490.5 -179.5t93.5 -478.5q-38 -177 -142.5 -344t-254.5 -277t-301 -110q-115 0 -146.5 64t15.5 171q-198 -237 -351 -237q-78 0 -118 57.5
t-36.5 151.5t46.5 204q51 147 148.5 276t206.5 202t199 73q95 0 130.5 -69t18.5 -176l106 218l113 3l-355 -710q-43 -83 -30 -130t91 -47q81 0 178 59t184.5 153.5t158 225t98.5 263.5q57 272 -89 430.5t-445 158.5q-195 0 -377.5 -72.5t-325 -199t-245.5 -302.5t-146 -378
q-38 -174 -2.5 -317.5t124 -245.5t227 -158.5t307.5 -56.5q167 0 337 63.5t325.5 191t259.5 300.5l48 -12q-93 -155 -218.5 -273t-257 -184.5t-255.5 -99t-238 -32.5zM721 72q67 0 157.5 72.5t173 189t126.5 238.5q61 143 46.5 234t-102.5 91q-76 0 -170.5 -87t-167.5 -202
t-116 -224q-38 -87 -43 -159.5t20.5 -112.5t75.5 -40z" />
    <glyph glyph-name="A" unicode="A" horiz-adv-x="1301" 
d="M1134 64h71l-14 -64h-469l14 64h108q34 0 54 19.5t16 53.5l-33 315h-521l-182 -317q-18 -37 -6.5 -54t45.5 -17h122l-13 -64h-395l13 64h49q31 0 69.5 36.5t60.5 74.5l704 1200h92l134 -1212q5 -48 22 -73.5t59 -25.5zM397 517h477l-69 656h-31z" />
    <glyph glyph-name="B" unicode="B" horiz-adv-x="1271" 
d="M1239 1014q-15 -63 -49.5 -115t-80.5 -86.5t-93 -56t-99 -34.5q44 -12 82 -32t73 -51.5t55 -72.5t27 -96t-10 -121q-23 -93 -81.5 -163.5t-136.5 -109t-161 -57t-169 -18.5h-618l13 64h97q76 0 98 102l236 1029q9 44 -1 66.5t-46 22.5h-104l13 67l631 -2q191 0 277 -90.5
t47 -245.5zM1090 1029q33 128 -32 194t-218 66h-258l-121 -533h266q143 0 234 61.5t129 211.5zM999 389q38 157 -40.5 228.5t-244.5 71.5h-268l-122 -535q-16 -85 45 -85h227q158 0 261.5 87.5t141.5 232.5z" />
    <glyph glyph-name="C" unicode="C" horiz-adv-x="1428" 
d="M599 -23q-106 0 -193.5 37.5t-144 103.5t-91 156t-35.5 194t22 218q31 136 102.5 261t169 220t223 151.5t256.5 56.5q141 0 246 -84.5t150 -236.5l78 265h60l-102 -468l-59 6q3 86 -19 165t-66 142.5t-116 101.5t-161 38q-109 0 -211 -53.5t-180 -145t-135 -208.5
t-87 -247q-60 -267 28 -435t292 -168q165 0 328 128t254 340l61 -6l-107 -476h-61l42 259q-91 -138 -237.5 -226.5t-306.5 -88.5z" />
    <glyph glyph-name="D" unicode="D" horiz-adv-x="1469" 
d="M-32 0l14 64h116q39 0 63.5 28t34.5 74l236 1033q10 46 -0.5 68t-50.5 22h-119l13 63h575q160 0 282 -43t200.5 -129t102.5 -214.5t-14 -299.5q-38 -170 -123 -300t-201.5 -209t-254 -118t-292.5 -39h-582zM405 67h232q225 0 397.5 175t234.5 449q45 200 3.5 333
t-145 200t-255.5 67h-279l-257 -1124q-6 -30 -6.5 -52.5t17.5 -35t58 -12.5z" />
    <glyph glyph-name="E" unicode="E" horiz-adv-x="1314" 
d="M274 1352h1049l-60 -349l-60 -3l24 205q-2 49 -22.5 64t-68.5 15h-548l-123 -541h354q37 0 67 18.5t39 58.5l26 113h62l-105 -460h-61l29 130q8 43 -8.5 57.5t-56.5 14.5h-362l-116 -509q-14 -50 -1.5 -74.5t61.5 -24.5h484q63 0 97.5 24t58.5 73l104 283l62 -3
l-130 -444h-1102l14 64h106q42 0 69.5 27t37.5 75l234 1032q11 48 -1.5 69t-63.5 21h-103z" />
    <glyph glyph-name="F" unicode="F" horiz-adv-x="1191" 
d="M-31 0l13 64h98q92 0 114 102l234 1032q11 51 -2 70.5t-64 19.5h-102l14 64h1043l-63 -352l-62 -3l28 200q-1 30 -9 49t-24 26.5t-29 9.5t-34 2h-536l-123 -540h347q39 0 67 23t39 67l23 100h61l-105 -462h-61l28 121q9 45 -4.5 64.5t-57.5 19.5h-350l-121 -523
q-10 -49 3.5 -69.5t64.5 -20.5h126l-15 -64h-541z" />
    <glyph glyph-name="G" unicode="G" horiz-adv-x="1478" 
d="M620 -23q-94 0 -173 26t-136.5 73t-98 112t-59.5 143.5t-18.5 168t21.5 183.5q31 140 105.5 267t173.5 220.5t223 149t249 55.5q158 0 262.5 -89.5t135.5 -228.5l79 272h59l-100 -459l-59 6q0 83 -21.5 158t-64.5 135t-114 95.5t-161 35.5q-111 0 -214.5 -54.5
t-181.5 -146t-135 -206.5t-86 -241q-22 -98 -24 -187.5t19.5 -165.5t63.5 -132t111 -88t159 -32q160 0 290.5 91t198.5 272q10 47 -8 65.5t-64 18.5h-353l15 64h724l-14 -64h-71q-68 0 -93 -105l-95 -412h-63l11 236q-115 -131 -233.5 -183.5t-259.5 -52.5z" />
    <glyph glyph-name="H" unicode="H" horiz-adv-x="1585" 
d="M-32 0l14 64h135q90 0 111 102l235 1032q10 48 -2 69t-60 21h-140l14 64h583l-14 -64h-134q-86 0 -108 -102l-102 -436h725l105 448q10 47 -2.5 68.5t-59.5 21.5h-140l14 64h583l-13 -64h-135q-88 0 -110 -102l-236 -1032q-11 -49 2.5 -69.5t59.5 -20.5h141l-15 -64h-584
l15 64h138q84 0 106 102l117 515h-725l-120 -527q-11 -47 0.5 -68.5t54.5 -21.5h144l-14 -64h-583z" />
    <glyph glyph-name="I" unicode="I" horiz-adv-x="721" 
d="M-32 0l14 64h131q94 0 116 102l234 1033q10 50 -2.5 70t-63.5 20h-135l13 64h587l-13 -64h-131q-50 0 -77 -25t-39 -77l-236 -1033q-12 -50 2 -70t66 -20h135l-14 -64h-587z" />
    <glyph glyph-name="J" unicode="J" horiz-adv-x="735" 
d="M-134 -497q-60 0 -114 16t-98 48t-62.5 87.5t-2.5 126.5q7 29 35 49.5t62 20.5q37 0 55.5 -23.5t10.5 -62.5q-2 -12 -26.5 -40.5t-22.5 -48.5q5 -41 35.5 -67t66 -34t79.5 -8q147 0 239 110.5t143 336.5l269 1184q10 46 -2 68t-65 22h-255l14 64h673l-13 -64h-102
q-91 0 -113 -102l-262 -1152q-21 -89 -45.5 -159t-68.5 -142.5t-100 -120.5t-140.5 -78.5t-189.5 -30.5z" />
    <glyph glyph-name="K" unicode="K" horiz-adv-x="1525" 
d="M-33 0l13 64h127q88 0 110 102l234 1032q11 50 -2 70t-62 20h-127l13 64h577l-13 -64h-134q-92 0 -114 -104l-145 -626l686 615q57 51 65 83q4 16 -9 24t-37 8h-114l13 64h551l-15 -64h-136q-11 0 -23 -2t-21 -4t-22 -7.5t-20 -8.5t-21 -12t-19 -12t-20.5 -14.5t-19 -14
t-20 -15.5t-18.5 -15l-353 -310l275 -713q20 -50 43.5 -73t67.5 -23h142l-15 -64h-590l14 64h112q30 0 53 16t28 41q3 18 -26 82l-222 575l-347 -314l-72 -310q-12 -50 0 -69t52 -20l145 -1l-13 -64h-571z" />
    <glyph glyph-name="L" unicode="L" horiz-adv-x="1236" 
d="M-33 0l14 64h135q91 0 113 102l234 1032q11 49 -1.5 69.5t-62.5 20.5h-139l14 64h590l-14 -64h-133q-93 0 -115 -102l-234 -1023q-14 -47 -1.5 -71.5t68.5 -24.5h403q133 0 193 135l82 247l59 -3l-129 -446h-1076z" />
    <glyph glyph-name="M" unicode="M" horiz-adv-x="1871" 
d="M1617 1352h396l-13 -64h-134q-96 0 -116 -102l-235 -1032q-9 -46 2.5 -68t64.5 -22h140l-14 -64h-582l13 64h123q94 0 114 102l242 1054h-20l-790 -1220h-73l-223 1220h-15l-238 -1040q-26 -116 59 -116h104l-14 -64h-439l14 64h99q35 0 61.5 24t38 50t17.5 55l228 1004
q13 42 0 66.5t-62 24.5h-103l14 64h355l217 -1184z" />
    <glyph glyph-name="N" unicode="N" horiz-adv-x="1481" 
d="M1198 1352h444l-15 -64h-96q-42 0 -73 -35.5t-42 -86.5l-269 -1189h-73l-573 1243l-238 -1043q-5 -30 -5.5 -55t17 -41.5t52.5 -16.5h102l-14 -64h-446l13 64h98q37 0 65 25.5t39.5 50.5t16.5 49l226 995q22 104 -67 104h-100l13 64h337l521 -1145l224 972q10 45 -2 77
t-60 32h-109z" />
    <glyph glyph-name="O" unicode="O" horiz-adv-x="1421" 
d="M611 -23q-137 0 -240 53t-159 148t-72 226t21 287q32 139 101 262.5t165 217.5t223 149t265 55q97 0 176.5 -26t135.5 -73.5t94 -113t54.5 -145t14.5 -169.5t-24 -186q-32 -141 -101 -265.5t-165.5 -217.5t-223.5 -147.5t-265 -54.5zM613 47q210 0 370 172.5t227 469.5
q66 294 -17 454.5t-283 160.5q-210 0 -369.5 -176t-223.5 -458q-23 -100 -26.5 -191t14 -170t55 -137.5t102.5 -91.5t151 -33z" />
    <glyph glyph-name="P" unicode="P" horiz-adv-x="1171" 
d="M-31 0l13 64h100q91 0 113 102l235 1033q9 46 -2.5 68t-64.5 22h-103l13 63h573q101 0 177.5 -21t130.5 -66t70 -116t-3 -171q-26 -117 -99 -197.5t-174.5 -117.5t-228.5 -37h-279l-107 -472q-5 -27 -5 -47t17.5 -31.5t54.5 -11.5h104l-15 -64h-520zM456 693h262
q138 0 230.5 77t127.5 231q64 289 -216 289h-269z" />
    <glyph glyph-name="Q" unicode="Q" horiz-adv-x="1422" 
d="M611 -23q-137 0 -240 53t-159 148t-72 226t21 287q32 139 101 262.5t165 217.5t223 149t265 55q97 0 177 -26.5t136 -74t94 -113.5t54 -145t14 -168.5t-24 -184.5q-32 -141 -101 -265.5t-165 -218.5t-223 -148t-266 -54zM613 47q209 0 369.5 172t227.5 470
q66 290 -16.5 452.5t-283.5 162.5q-140 0 -261.5 -82.5t-205.5 -224.5t-126 -327q-23 -100 -26.5 -191t14 -170t55 -137.5t102.5 -91.5t151 -33zM1024 -444q-47 0 -88 12t-75 36.5t-56 46t-52 55.5q-2 3 -21.5 25t-24 26t-22 22t-25.5 23t-25 16.5t-29.5 15t-30 7.5t-35.5 4
q-55 0 -123 -37t-170 -113l-29 54q111 83 189 121t152 38q116 0 246 -119q34 -30 54.5 -46t52.5 -36t66.5 -29t74.5 -9q154 0 269 107l46 -76q-135 -144 -344 -144z" />
    <glyph glyph-name="R" unicode="R" horiz-adv-x="1398" 
d="M-33 0l13 64h98q95 0 117 102l234 1033q10 48 -1.5 68.5t-60.5 20.5h-107l13 64h632q194 0 286.5 -98t52.5 -274q-29 -130 -123 -215t-237 -121q29 -23 50 -58.5t47 -102.5l138 -357q13 -32 49 -47t71 -15h63l-14 -64h-269l-171 469q-33 90 -71.5 123t-111.5 33h-226
l-107 -471q-11 -50 2.5 -70t62.5 -20h104l-15 -64h-519zM456 693h261q147 0 249.5 80t136.5 232q32 138 -32.5 209t-208.5 71h-273z" />
    <glyph glyph-name="S" unicode="S" horiz-adv-x="1108" 
d="M519 -23q-132 0 -223.5 64.5t-121.5 182.5l-59 -203h-64l106 465l62 -6q-35 -192 40.5 -312.5t252.5 -120.5q65 0 132 30t127 99t82 165q7 31 8 58t-6 49.5t-17 41.5t-28 36t-36 30.5t-45 27t-50.5 24t-55.5 23.5q-156 68 -213 109q-115 82 -118 207q0 45 12 99
q32 143 154 236.5t266 93.5q97 0 173 -55t107 -147l55 179h63l-90 -397l-60 7q23 154 -49.5 250t-194.5 96q-116 0 -200.5 -71.5t-107.5 -172.5q-27 -119 51 -187q47 -40 183 -97q5 -2 32 -13q39 -16 66.5 -28.5t62 -31t57.5 -36.5t47.5 -42t38 -52t23 -61t8.5 -74t-12 -87
q-22 -96 -75.5 -172.5t-120.5 -119.5t-134 -65t-128 -22z" />
    <glyph glyph-name="T" unicode="T" horiz-adv-x="1310" 
d="M265 0l15 64h121q96 0 117 102l255 1118h-326q-115 0 -155 -126l-49 -169l-61 2l96 361h1160l-68 -361l-61 -2l30 183q3 70 -20.5 91t-78.5 21h-326l-259 -1130q-5 -26 -5 -46t17.5 -32t55.5 -12h127l-14 -64h-571z" />
    <glyph glyph-name="U" unicode="U" horiz-adv-x="1437" 
d="M620 -23q-247 0 -346.5 135t-41.5 389l159 697q11 47 -1.5 68.5t-63.5 21.5h-102l15 64h563l-15 -64h-143q-94 0 -116 -102l-158 -697q-49 -217 18.5 -327.5t267.5 -110.5q410 0 515 463l154 670q23 104 -68 104h-92l14 64h413l-15 -64h-76q-42 0 -72.5 -33t-40.5 -82
l-154 -673q-59 -261 -210.5 -392t-403.5 -131z" />
    <glyph glyph-name="V" unicode="V" horiz-adv-x="1363" 
d="M1125 1352h417l-14 -64h-66q-39 0 -71.5 -30.5t-80.5 -110.5l-674 -1172h-94l-172 1207q-12 64 -27 85t-57 21h-82l13 64h557l-13 -64h-160q-52 0 -74.5 -31t-13.5 -83l149 -1038l586 1030q16 28 24 48.5t8.5 38t-13.5 26.5t-43 9h-113z" />
    <glyph glyph-name="W" unicode="W" horiz-adv-x="1873" 
d="M1647 1352h402l-15 -64h-50q-37 0 -69 -35t-66 -106l-563 -1170h-118l-60 1227l-591 -1227h-120l-56 1217q-4 54 -18 74t-54 20h-65l14 64h523l-32 -64h-166q-21 0 -44.5 -34t-20.5 -79l50 -1051h1l595 1241h107l61 -1239l486 1025q15 31 22.5 53.5t8 43t-12.5 30.5
t-40 10h-123z" />
    <glyph glyph-name="X" unicode="X" horiz-adv-x="1549" 
d="M-39 0l13 64h67q67 0 161 89l553 520l-283 521q-29 55 -52 74.5t-64 19.5h-117l14 64h584l-15 -64h-122q-47 0 -64.5 -31t6.5 -74l229 -407l430 411q30 30 41 52.5t-0.5 35.5t-46.5 13h-140l14 64h490l-13 -64h-78q-42 0 -78.5 -24t-90.5 -75l-495 -465l303 -559
q27 -53 53.5 -77t68.5 -24h104l-15 -64h-623l15 64h156q57 0 77.5 33t-7.5 85l-248 438l-470 -450q-48 -46 -45 -76t57 -30h159l-14 -64h-514z" />
    <glyph glyph-name="Y" unicode="Y" horiz-adv-x="1318" 
d="M259 0l14 64h153q90 0 113 101l71 312l-240 730q-15 44 -32.5 62.5t-50.5 18.5h-84l14 64h504l-14 -64h-111q-45 0 -62 -33t-2 -75l209 -620l481 612q88 116 -14 116h-96l15 64h370l-15 -64h-33q-52 0 -127 -93l-569 -711l-76 -330q-11 -49 1.5 -69.5t62.5 -20.5h158
l-14 -64h-626z" />
    <glyph glyph-name="Z" unicode="Z" horiz-adv-x="1307" 
d="M1375 1364l-19 -90l-1192 -1207h713q58 0 101 22.5t81 89.5l90 255l61 -3l-131 -431h-1082l20 94l1183 1203h-646q-42 0 -73.5 -7.5t-63.5 -31.5t-51 -66l-69 -190l-60 3l114 359h1024z" />
    <glyph glyph-name="bracketleft" unicode="[" horiz-adv-x="663" 
d="M5 -474l388 1826h440l-13 -63h-230q-89 0 -105 -87l-328 -1544q-8 -37 5.5 -53.5t63.5 -16.5h232l-13 -62h-440z" />
    <glyph glyph-name="backslash" unicode="\" horiz-adv-x="792" 
d="M602 -33l-420 1386h109l422 -1386h-111z" />
    <glyph glyph-name="bracketright" unicode="]" horiz-adv-x="662" 
d="M-164 -474l13 62h227q89 0 107 83l328 1543q8 39 -4.5 57t-60.5 18h-235l12 63h441l-388 -1826h-440z" />
    <glyph glyph-name="asciicircum" unicode="^" horiz-adv-x="1072" 
d="M1026 636h-113l-204 596l-463 -596h-110l555 717h85z" />
    <glyph glyph-name="underscore" unicode="_" horiz-adv-x="1352" 
d="M25 -177l18 88h1049l-19 -88h-1048z" />
    <glyph glyph-name="grave" unicode="`" horiz-adv-x="764" 
d="M802 1030l-386 318v4h203l238 -322h-55z" />
    <glyph glyph-name="a" unicode="a" horiz-adv-x="1065" 
d="M365 -23q-164 0 -243.5 131t-35.5 324q20 88 61 163t91.5 124.5t109.5 85t114 51t104 15.5q70 0 139 -32.5t112 -94.5l23 102h132l-164 -716q-9 -28 -1.5 -46t39.5 -18h85l-14 -66h-255l19 104q-157 -127 -316 -127zM413 56q68 0 145 38t136 108l110 472q-29 57 -83.5 88
t-124.5 31q-129 0 -234.5 -110t-141.5 -267q-35 -154 18.5 -257t174.5 -103z" />
    <glyph glyph-name="b" unicode="b" horiz-adv-x="1040" 
d="M471 -23q-81 0 -150 38t-113 104l-89 -126h-53l275 1208q10 45 -1.5 63.5t-53.5 12.5l-95 -24l6 63l315 70l-144 -630q135 115 297 115t249 -130.5t43 -327.5q-44 -190 -186.5 -313t-299.5 -123zM446 52q66 0 129.5 34t112.5 89.5t85 123.5t52 138q33 147 -21 253
t-177 106q-74 0 -147.5 -39.5t-130.5 -99.5l-109 -472q27 -60 80.5 -96.5t125.5 -36.5z" />
    <glyph glyph-name="c" unicode="c" horiz-adv-x="910" 
d="M394 -25q-179 0 -267 127.5t-43 328.5q45 194 190.5 317t324.5 123q109 0 189 -53.5t85 -151.5q0 -27 -14 -44t-38 -18q-20 -1 -32 12.5t-15.5 28t-4.5 34.5q-37 128 -178 128q-90 0 -169 -57t-129 -141t-72 -180q-40 -179 15.5 -280.5t184.5 -101.5q103 0 188.5 60.5
t138.5 151.5l50 -38q-154 -246 -404 -246z" />
    <glyph glyph-name="d" unicode="d" horiz-adv-x="1065" 
d="M365 -23q-164 0 -243.5 131t-35.5 324q20 88 61 163t91.5 124.5t109.5 85t114 51t104 15.5q70 0 139 -32.5t112 -94.5l106 456q10 44 -2.5 63t-56.5 13l-93 -23l7 62l316 71l-286 -1256q-8 -28 -0.5 -46t38.5 -18h85l-14 -66h-255l19 104q-157 -127 -316 -127zM413 56
q68 0 145 38t136 108l110 472q-29 57 -83.5 88t-124.5 31q-129 0 -234.5 -110t-141.5 -267q-35 -154 18.5 -257t174.5 -103z" />
    <glyph glyph-name="e" unicode="e" horiz-adv-x="905" 
d="M385 -25q-173 0 -257.5 130.5t-38.5 332.5q44 192 180.5 312.5t302.5 120.5q121 0 202.5 -60t81.5 -158q0 -47 -23 -84.5t-59 -62.5t-91 -43.5t-107 -28.5t-120.5 -16t-118 -7.5t-110.5 -2.5q-39 -175 12 -269t180 -94q88 0 170.5 54t140.5 142l49 -41
q-72 -105 -176 -165t-218 -60zM239 468q86 3 153.5 8.5t135.5 19t112.5 34t72.5 53.5t28 76q0 71 -46.5 109t-125.5 38q-110 0 -201.5 -96t-128.5 -242z" />
    <glyph glyph-name="f" unicode="f" horiz-adv-x="608" 
d="M-5 -500l296 1282h-202l13 64h202l47 201q37 161 144 246.5t248 85.5q110 0 172.5 -60.5t48.5 -174.5q-4 -26 -22 -42t-43 -18q-26 -1 -40.5 19t-13.5 55q1 80 -27.5 118t-97.5 38q-90 0 -152 -69.5t-89 -191.5l-48 -207h265l-14 -64h-264l-297 -1282h-126z" />
    <glyph glyph-name="g" unicode="g" horiz-adv-x="1004" 
d="M256 -501q-41 0 -78.5 3.5t-76 11t-68.5 20t-56.5 31.5t-40 44.5t-19.5 58.5t5 75q19 84 80 132.5t169 72.5q-75 17 -110 53.5t-23 101.5q11 77 76.5 136.5t175.5 85.5q-49 18 -82 50.5t-45 69t-15 77t7 74.5q27 120 139.5 197.5t263.5 77.5q81 0 147 -30.5t103 -84.5
q105 111 184 111q35 0 55.5 -24t21.5 -64q0 -37 -32 -40q-18 -1 -28 26q-9 34 -42 34q-27 0 -64 -27t-71 -72q20 -51 3 -131q-20 -88 -85.5 -152.5t-148 -94.5t-172.5 -32q-119 -1 -196 -38.5t-91 -98.5q-10 -41 11 -62t78 -31q61 -9 258 -9q182 0 254 -56t41 -192
q-31 -137 -173 -220.5t-355 -83.5zM440 357q97 0 174 67t102 174q17 78 -25.5 143.5t-137.5 65.5q-100 0 -178 -72.5t-99 -161.5q-19 -82 25 -149t139 -67zM265 -438q107 0 198 26t154 78.5t79 122.5q18 80 -39.5 112.5t-229.5 32.5q-377 0 -423 -199q-21 -95 46.5 -134
t214.5 -39z" />
    <glyph glyph-name="h" unicode="h" horiz-adv-x="1068" 
d="M68 0l272 1199q10 43 -1.5 62.5t-53.5 12.5l-94 -24l6 63l316 73l-177 -776q86 112 189 186.5t197 74.5q267 0 195 -322l-93 -404q-9 -41 2.5 -61t48.5 -20h88l-13 -64h-289l126 559q16 72 15 122.5t-32 78t-96 27.5q-93 0 -196.5 -98t-171.5 -219l-106 -470h-132z" />
    <glyph glyph-name="i" unicode="i" horiz-adv-x="527" 
d="M451 1156q-42 0 -70.5 30t-28.5 70q0 41 29 70t70 29t69.5 -29t28.5 -70q0 -43 -28.5 -71.5t-69.5 -28.5zM105 0l157 693q11 48 -1.5 65t-56.5 10l-97 -24l7 63l321 71l-171 -754q-7 -34 6.5 -47t49.5 -13h87l-13 -64h-289z" />
    <glyph glyph-name="j" unicode="j" horiz-adv-x="496" 
d="M451 1156q-42 0 -70.5 30t-28.5 70q0 41 29 70t70 29t69.5 -29t28.5 -70q0 -43 -28.5 -71.5t-69.5 -28.5zM-197 -511q-105 0 -159.5 57.5t-44.5 162.5q3 22 19 35.5t37 15.5q22 1 34 -16t12 -47q-3 -66 27 -104t99 -38q88 0 149.5 75t90.5 204l195 858q11 45 -2 63.5
t-62 11.5l-95 -24l8 64l324 71l-227 -1003q-44 -196 -140.5 -291t-264.5 -95z" />
    <glyph glyph-name="k" unicode="k" horiz-adv-x="1121" 
d="M67 0l273 1201q10 46 -2 64.5t-55 10.5l-94 -24l6 64l318 70l-235 -1029l661 489h175l-13 -64h-63q-55 0 -135 -56l-237 -165l218 -421q18 -38 36 -57t43 -19h59l-13 -64h-202l-252 488l-293 -211l-64 -277h-131z" />
    <glyph glyph-name="l" unicode="l" horiz-adv-x="490" 
d="M67 0l273 1201q10 46 -2 64.5t-55 10.5l-94 -24l6 64l318 70l-282 -1241q-18 -81 40 -81h105l-15 -64h-294z" />
    <glyph glyph-name="m" unicode="m" horiz-adv-x="1766" 
d="M133 0l158 687q10 43 -1.5 61.5t-52.5 12.5l-96 -24l7 64l315 73l-61 -265q91 112 201.5 187t205.5 75q236 0 198 -262q91 113 203 187.5t208 74.5q268 0 195 -322l-93 -404q-9 -42 2 -61.5t49 -19.5h87l-13 -64h-289l126 559q30 111 5.5 169.5t-117.5 58.5
q-95 0 -201.5 -91.5t-177.5 -206.5l-113 -489h-131l127 559q16 72 15.5 122.5t-31.5 78t-97 27.5q-98 0 -210 -99.5t-178 -217.5l-108 -470h-132z" />
    <glyph glyph-name="n" unicode="n" horiz-adv-x="1105" 
d="M103 0l156 687q10 43 -1 61.5t-53 12.5l-96 -24l8 64l315 73l-61 -264q83 111 187.5 186t199.5 75q132 0 181.5 -80.5t12.5 -241.5l-93 -404q-9 -41 2.5 -61t49.5 -20h88l-14 -64h-288l126 559q16 72 15 122.5t-32.5 78t-96.5 27.5q-94 0 -196.5 -98t-170.5 -219
l-107 -470h-132z" />
    <glyph glyph-name="o" unicode="o" horiz-adv-x="987" 
d="M397 -25q-24 0 -51 4t-59.5 13.5t-62.5 27t-58.5 41.5t-49 60.5t-33 80.5t-11.5 104.5t17 130.5q21 92 63 167t94 123.5t113 82t118.5 47.5t111.5 14q52 0 103 -15t99.5 -48.5t79 -86.5t42 -129t-12.5 -176q-23 -103 -70.5 -183.5t-101.5 -127.5t-117.5 -77.5t-115 -41.5
t-98.5 -11zM401 40q47 0 99 23.5t104 69t95.5 124.5t66.5 178q40 173 -11.5 272t-168.5 99q-118 0 -221.5 -106.5t-143.5 -283.5q-20 -104 -13.5 -175.5t39 -116t71.5 -64.5t83 -20z" />
    <glyph glyph-name="p" unicode="p" horiz-adv-x="1077" 
d="M-8 -500l270 1194q10 44 -2.5 62t-59.5 13l-90 -24l7 63l309 70l-26 -136q69 62 150.5 95.5t159.5 33.5q159 0 243.5 -130.5t40.5 -327.5q-43 -187 -184 -312.5t-298 -125.5q-84 0 -147 36t-102 94l-140 -605h-131zM481 53q89 0 171.5 59.5t135.5 145t74 176.5
q19 97 5.5 177t-67.5 131t-136 51q-71 0 -146.5 -41.5t-133.5 -107.5l-108 -466q30 -60 86 -92.5t119 -32.5z" />
    <glyph glyph-name="q" unicode="q" horiz-adv-x="1037" 
d="M537 -500l134 593q-137 -118 -297 -118q-166 0 -250.5 130t-40.5 326q30 131 108.5 233.5t177.5 154.5t200 52q167 0 262 -138l90 124h52l-306 -1357h-130zM412 51q62 0 137 35.5t141 103.5l111 474q-29 61 -83 97t-125 36q-123 0 -230.5 -108t-146.5 -278
q-17 -67 -11 -131.5t28 -115.5t68.5 -82t110.5 -31z" />
    <glyph glyph-name="r" unicode="r" horiz-adv-x="806" 
d="M105 0l155 689q10 44 -1 62.5t-50 12.5l-100 -24l8 63l301 75l-47 -253q156 246 344 246q69 0 104.5 -39t39.5 -98q0 -26 -14 -45t-41 -20q-10 -1 -17.5 1.5t-13 10.5t-8 13.5l-7.5 16.5q-24 64 -103 64q-78 0 -149.5 -63t-117.5 -152t-69 -187l-83 -373h-131z" />
    <glyph glyph-name="s" unicode="s" horiz-adv-x="952" 
d="M523 812q-104 0 -175 -38.5t-84 -108.5q-6 -33 4 -57.5t27 -38.5t53.5 -24t66 -15t81.5 -11q6 -1 9 -1q59 -8 99.5 -16.5t88 -28t74.5 -45.5t41.5 -69.5t5.5 -100.5q-19 -134 -127 -208.5t-270 -74.5q-107 0 -181 32t-106 83l-55 -115h-49l59 264l54 -2
q14 -93 94.5 -147.5t199.5 -54.5q109 0 185.5 47t91.5 133q7 39 -5 68.5t-31.5 46t-62 29t-71.5 17.5t-84 12q-49 6 -79.5 12t-71.5 16.5t-65 26.5t-45.5 39.5t-28.5 58t-1 78.5q16 120 116.5 186t252.5 66q193 0 264 -109l48 109h47l-55 -254l-47 1q-7 93 -77.5 143.5
t-190.5 50.5z" />
    <glyph glyph-name="t" unicode="t" horiz-adv-x="715" 
d="M340 -25q-114 0 -160.5 79.5t-12.5 228.5l113 499h-186l12 64h122q58 0 106.5 40.5t62.5 102.5l34 152h59l-66 -295h307l-13 -64h-307l-113 -494q-29 -118 -9 -178t94 -60q54 0 102.5 37t71.5 105l51 -13q-17 -56 -48.5 -97.5t-69.5 -63.5t-75.5 -32.5t-74.5 -10.5z" />
    <glyph glyph-name="u" unicode="u" horiz-adv-x="1106" 
d="M347 -25q-266 0 -193 322l91 404q9 43 -2 62t-48 19h-88l13 64h288l-126 -559q-30 -109 -5.5 -168t118.5 -59q65 0 139 52t130.5 120.5t98.5 143.5l76 325q18 81 -42 81h-100l13 64h292l-159 -700q-10 -43 1.5 -61.5t53.5 -12.5l97 24l-9 -64l-313 -55l60 259
q-84 -112 -187 -186.5t-199 -74.5z" />
    <glyph glyph-name="v" unicode="v" horiz-adv-x="944" 
d="M733 846h291l-589 -864h-94l-136 722q-10 47 -24.5 62.5t-45.5 15.5h-62l13 64h218l145 -744l391 586q60 94 -6 94h-115z" />
    <glyph glyph-name="w" unicode="w" horiz-adv-x="1442" 
d="M1210 846h297l-506 -866h-105l-106 743l-390 -743h-98l-82 730q-7 43 -20 57.5t-44 14.5h-81l13 64h243l80 -719l389 734h101l108 -755l331 577q29 53 25 76t-47 23h-123z" />
    <glyph glyph-name="x" unicode="x" horiz-adv-x="1033" 
d="M-37 0l500 424l-217 313q-29 45 -74 45h-72l14 64h216l229 -350l233 208q22 20 30 38t-1.5 29t-33.5 11h-112l13 64h367l-466 -394l226 -332q19 -32 37.5 -44t43.5 -12h42l-15 -64h-190l-243 376l-263 -232q-21 -19 -30.5 -37t-1 -30.5t35.5 -12.5h133l-15 -64h-386z" />
    <glyph glyph-name="y" unicode="y" horiz-adv-x="928" 
d="M-30 -469q-59 -4 -59 54q0 29 17.5 42t50.5 21q91 20 170 78.5t165 182.5l95 141l-193 664q-10 35 -25.5 51.5t-41.5 16.5h-78l14 64h231l187 -659l318 493q63 102 -8 102h-137l13 64h316l-649 -990q-104 -158 -190.5 -232.5t-195.5 -92.5z" />
    <glyph glyph-name="z" unicode="z" horiz-adv-x="922" 
d="M914 846l-18 -83l-742 -699h419q61 0 109 84l51 129l60 -3l-88 -274h-718l18 83l742 699h-399q-28 0 -49.5 -17.5t-46.5 -63.5l-48 -120l-60 4l87 261h683z" />
    <glyph glyph-name="braceleft" unicode="{" horiz-adv-x="592" 
d="M361 -524q-74 -2 -134.5 14.5t-99.5 48t-64.5 75.5t-29.5 96t5 109q16 76 75 194t71 177q38 179 -127 192l14 88q51 5 90 24.5t64 51t40.5 66t25.5 77.5q10 50 1.5 168.5t10.5 197.5q10 45 32 88t60.5 86t88.5 75t121.5 51.5t153.5 19.5l-4 -44q-138 -3 -231.5 -75
t-120.5 -194q-17 -71 -9.5 -189t-4.5 -180q-23 -105 -92 -174t-191 -87l-10 -13q105 -19 152.5 -91.5t22.5 -193.5q-11 -51 -68.5 -165t-73.5 -201q-24 -123 42.5 -187t192.5 -62z" />
    <glyph glyph-name="bar" unicode="|" horiz-adv-x="603" 
d="M52 -483l389 1835h115l-390 -1835h-114z" />
    <glyph glyph-name="braceright" unicode="}" horiz-adv-x="593" 
d="M-165 -524l3 45q125 -2 224 69t128 203q15 62 13.5 131t-7 114.5t7.5 119.5q49 221 284 262l9 14q-116 18 -156.5 94t-15.5 190q10 51 68 170t73 198q23 113 -38.5 178.5t-197.5 68.5l3 42q69 0 125 -14.5t91.5 -40t61.5 -59.5t35.5 -72.5t13 -79t-6.5 -78.5
q-14 -74 -72 -190t-71 -176q-8 -49 -6 -89.5t35 -70t97 -36.5l-14 -88q-77 -6 -136 -57t-82 -159q-10 -48 -1.5 -166.5t-10.5 -203.5q-33 -140 -155 -232.5t-302 -86.5z" />
    <glyph glyph-name="asciitilde" unicode="~" horiz-adv-x="1293" 
d="M243 544q1 40 8.5 78.5t25.5 77.5t45 68t70 47.5t97 18.5q42 0 84.5 -14t74.5 -31t102 -59q45 -33 65.5 -46t53 -24.5t68.5 -11.5q78 0 123.5 50t48.5 141h54q2 -126 -63 -209t-186 -83q-50 0 -95.5 14t-74 30t-83.5 52q-13 9 -20 13q-55 41 -91 58.5t-83 17.5
q-78 0 -122 -49t-48 -139h-54z" />
    <glyph glyph-name="uni00A0" unicode="&#xa0;" horiz-adv-x="548" 
 />
    <glyph glyph-name="exclamdown" unicode="&#xa1;" horiz-adv-x="565" 
d="M353 879q47 0 80.5 -33.5t33.5 -81.5t-33.5 -81.5t-80.5 -33.5q-46 0 -79 33.5t-33 81.5t33 81.5t79 33.5zM308 400l-127 -731q-3 -15 -11 -65t-14 -78q-3 -16 -8 -26t-21.5 -19.5t-42.5 -9.5q-74 0 -54 79q3 15 8 34.5t12.5 46.5t11.5 44l182 725h64z" />
    <glyph glyph-name="cent" unicode="&#xa2;" horiz-adv-x="1039" 
d="M805 1063q80 -20 132.5 -69t59.5 -124q0 -25 -14 -42t-38 -20q-21 0 -33.5 13t-16 27.5t-4.5 35.5q-33 86 -113 114l-306 -741q32 -5 60 -5q109 0 199 60.5t146 151.5l52 -39q-157 -245 -424 -245q-36 0 -63 4l-151 -366h-55l155 376q-139 36 -202.5 155t-27.5 286
q42 193 194.5 317t341.5 124q29 0 56 -3l157 379h55zM423 272l305 738q-26 2 -39 2q-73 0 -140 -33t-115.5 -87.5t-82.5 -121t-49 -136.5q-30 -138 2.5 -232t118.5 -130z" />
    <glyph glyph-name="sterling" unicode="&#xa3;" horiz-adv-x="1486" 
d="M73 -35q-27 0 -39 30q-12 22 0 44q25 32 66.5 69.5t85.5 73.5t58 50q142 158 258 399l-331 -1l38 78l326 2q11 21 70.5 142.5t94.5 182.5q106 179 232 259t294 80q112 0 176.5 -53.5t70.5 -148.5q-1 -20 -16 -34.5t-35 -17.5q-25 -1 -38.5 16.5t-17.5 45.5
q-18 64 -58.5 94t-108.5 30q-71 0 -129.5 -23t-105.5 -69t-82.5 -98t-74.5 -126q-28 -48 -77.5 -148.5t-67.5 -134.5l364 1l-36 -78l-373 -2q-106 -197 -210 -318q69 43 149 43q20 0 39.5 -4.5t33.5 -9.5t30.5 -17.5t25 -19.5t24.5 -26t20.5 -25t21 -29t19.5 -27
q25 -35 40.5 -53.5t42.5 -42t60 -34t75 -10.5q78 0 135.5 50t81.5 122.5t18 149.5q-4 45 47 54q25 2 39 -14t16 -46q6 -57 -25 -126q-42 -111 -147.5 -191.5t-217.5 -80.5q-47 0 -87 12t-65 26.5t-52.5 44t-39 46t-34.5 50.5q-26 39 -43 59.5t-46.5 37.5t-64.5 17
q-96 0 -209 -107q-29 -30 -63.5 -67.5t-52 -56t-38 -37.5t-36 -26t-31.5 -7z" />
    <glyph glyph-name="currency" unicode="&#xa4;" horiz-adv-x="1278" 
d="M315 295l-48 49l129 128q-90 122 -90 250q0 134 93 255l-132 131l48 49l134 -130q119 93 251 93q135 0 255 -93l132 130l48 -49l-131 -130q93 -126 93 -256q0 -125 -91 -249l129 -129l-48 -49l-132 130q-120 -93 -255 -93t-253 92zM700 400q134 0 230.5 95.5t96.5 227.5
q0 136 -97 232.5t-230 96.5q-132 0 -228 -97.5t-96 -231.5q0 -133 95 -228t229 -95z" />
    <glyph glyph-name="yen" unicode="&#xa5;" horiz-adv-x="1546" 
d="M373 0l13 64h172q90 0 111 102l38 179h-484l12 60h484l17 72l-40 101h-424l13 60h388l-218 570q-16 44 -34 62.5t-52 18.5h-91l13 64h520l-13 -64h-122q-47 0 -65.5 -32t-2.5 -75l249 -622l505 619q39 47 35 78.5t-54 31.5h-120l13 64h399l-13 -64h-31q-57 0 -129 -92
l-464 -559h394l-13 -60h-427l-81 -97l-18 -76h489l-12 -60h-489l-41 -191q-10 -48 2.5 -69t58.5 -21h180l-14 -64h-654z" />
    <glyph glyph-name="brokenbar" unicode="&#xa6;" horiz-adv-x="604" 
d="M408 654l-1 -7l-91 -426l-76 -357h-114l88 412l154 731h115z" />
    <glyph glyph-name="section" unicode="&#xa7;" horiz-adv-x="1107" 
d="M352 -498q-149 0 -226 71.5t-56 195.5q5 27 23 39.5t37 12.5q20 0 34 -17t13 -54q-8 -92 39.5 -137.5t154.5 -45.5q113 0 188 59t97 167q10 46 1 83t-46 74t-66.5 59t-96.5 66q-15 10 -23.5 15.5t-21.5 14t-24 16.5q-38 24 -68 45t-60.5 46.5t-51 49.5t-39 53.5t-25.5 59
t-10 66t7 73.5q25 112 110 185.5t230 86.5q-156 120 -121 289q32 144 142 221.5t268 77.5q152 0 227.5 -72.5t55.5 -192.5q-4 -25 -22 -38t-40 -13q-27 0 -36.5 19.5t-9.5 55.5q8 87 -40 132t-155 45q-117 0 -191 -59.5t-97 -167.5q-10 -45 1.5 -83.5t46 -72.5t71 -60.5
t94.5 -64.5q31 -20 47 -30q36 -21 62.5 -38t57 -39t51.5 -42.5t42 -45.5t33 -51t20 -56t8 -64.5t-8 -72.5q-20 -91 -71 -152.5t-117 -90t-148 -33.5q152 -118 116 -288q-30 -144 -141.5 -220.5t-265.5 -76.5zM570 155q125 -16 208.5 37.5t104.5 159.5q22 105 -71.5 195.5
t-270.5 175.5q-126 16 -209 -37.5t-104 -159.5q-41 -192 342 -371z" />
    <glyph glyph-name="dieresis" unicode="&#xa8;" horiz-adv-x="789" 
d="M384 1138q-37 0 -62 26t-25 60q0 36 25.5 61t61.5 25t61 -25t25 -61q0 -37 -25.5 -61.5t-60.5 -24.5zM745 1138q-36 0 -61 26t-25 60q0 36 25.5 61t60.5 25q36 0 61.5 -25t25.5 -61q0 -37 -26 -61.5t-61 -24.5z" />
    <glyph glyph-name="copyright" unicode="&#xa9;" horiz-adv-x="1686" 
d="M895 -26q-142 0 -271.5 55.5t-223 149.5t-149 224t-55.5 273q0 142 56 271.5t149.5 223t223 149t270.5 55.5q190 0 351.5 -93.5t256 -254.5t94.5 -351q0 -114 -35.5 -221t-100.5 -193.5t-151.5 -151.5t-193.5 -100.5t-221 -35.5zM895 31q175 0 323.5 86.5t235 235
t86.5 323.5q0 130 -51.5 249t-137.5 205t-205.5 137t-250.5 51q-174 0 -321.5 -85.5t-234 -233.5t-86.5 -323q0 -132 51 -251t136.5 -205.5t204.5 -137.5t250 -51zM895 248q-175 0 -294 117.5t-119 306.5t120 310.5t299 121.5q127 0 239 -66q31 -14 45.5 -5t14.5 37h41v-193
h-41q-38 93 -117 138t-168 45q-104 0 -181 -55.5t-113.5 -140t-36.5 -183.5q0 -172 90 -279t239 -107q108 0 189.5 54.5t119.5 139.5l24 -35q-51 -98 -144 -152t-207 -54z" />
    <glyph glyph-name="guillemotleft" unicode="&#xab;" horiz-adv-x="1000" 
d="M274 0l-221 440l406 441h71l-348 -441l160 -440h-68zM759 0l-222 440l406 441h71l-348 -441l159 -440h-66z" />
    <glyph glyph-name="logicalnot" unicode="&#xac;" horiz-adv-x="1456" 
d="M1164 334v531h-957v97h1054v-628h-97z" />
    <glyph glyph-name="uni00AD" unicode="&#xad;" horiz-adv-x="899" 
d="M138 348l25 116h591l-24 -116h-592z" />
    <glyph glyph-name="registered" unicode="&#xae;" horiz-adv-x="1685" 
d="M895 1376q190 0 351.5 -93.5t256 -254.5t94.5 -351q0 -114 -35.5 -221t-100.5 -193.5t-151.5 -151.5t-193.5 -100.5t-221 -35.5q-142 0 -271.5 55.5t-223 149.5t-149 224t-55.5 273q0 142 56 271.5t149.5 223t223 149t270.5 55.5zM895 32q175 0 323.5 86.5t235 235
t86.5 323.5q0 131 -51 250t-137.5 205t-206 137t-250.5 51q-174 0 -321.5 -86t-234 -234t-86.5 -323q0 -132 51 -251t136.5 -205.5t204.5 -137.5t250 -51zM1240 364q21 -31 50 -31h47v-43h-133l-180 272q-34 51 -62.5 69.5t-69.5 18.5h-151v-273q0 -24 9.5 -34t33.5 -10h76
v-43h-314v43h74q26 0 35.5 10t9.5 34v609q0 24 -10 35t-33 11h-76v41h393q115 0 185 -54t70 -155q0 -79 -46 -130t-125 -70q35 -29 71 -83zM921 693q91 0 142.5 42.5t51.5 126.5q0 81 -50.5 123.5t-139.5 42.5h-184v-335h180z" />
    <glyph glyph-name="macron" unicode="&#xaf;" horiz-adv-x="893" 
d="M289 1117l42 102h588l-42 -102h-588z" />
    <glyph glyph-name="degree" unicode="&#xb0;" horiz-adv-x="1044" 
d="M648 660q-148 0 -253 105t-105 253t105 253t253 105t253.5 -105t105.5 -253t-105.5 -253t-253.5 -105zM648 738q116 0 198 82t82 198t-82 197.5t-198 81.5t-197.5 -81.5t-81.5 -197.5t81.5 -198t197.5 -82z" />
    <glyph glyph-name="plusminus" unicode="&#xb1;" horiz-adv-x="1452" 
d="M693 358v507h-507v97h507v506h96v-506h507v-97h-507v-507h-96zM186 0v96h1110v-96h-1110z" />
    <glyph glyph-name="acute" unicode="&#xb4;" horiz-adv-x="338" 
d="M116 1030h-55l238 322h203v-4z" />
    <glyph glyph-name="uni00B5" unicode="&#xb5;" horiz-adv-x="1310" 
d="M88 -427l241 1128q8 43 -4.5 62t-51.5 19h-97l13 64h304l-120 -559q-25 -121 4.5 -174t128.5 -53q54 0 112.5 29.5t109.5 77t94 101t74 108.5l70 325q17 81 -46 81h-111l13 64h309l-149 -700q-10 -43 3 -62t57 -12l105 24l-8 -64l-328 -55l56 259q-75 -101 -169 -172
t-184 -77q-136 -10 -190 61l-102 -475h-134z" />
    <glyph glyph-name="paragraph" unicode="&#xb6;" horiz-adv-x="1145" 
d="M316 -510l242 1125q-75 4 -135 19t-109.5 44.5t-77 74.5t-37 108t9.5 145q23 107 74.5 177.5t136 107.5t182.5 51t239 14h443l-9 -42h-42q-103 0 -156.5 -55.5t-74.5 -156.5l-343 -1612h-60l384 1813h-222l-384 -1813h-61z" />
    <glyph glyph-name="periodcentered" unicode="&#xb7;" horiz-adv-x="606" 
d="M357 561q-48 0 -81.5 33t-33.5 83q0 48 32.5 80t82.5 32q47 0 80 -32.5t33 -79.5q0 -50 -32.5 -83t-80.5 -33z" />
    <glyph glyph-name="cedilla" unicode="&#xb8;" horiz-adv-x="613" 
d="M84 -489q-101 0 -198 25l14 64q83 -20 169 -20q111 0 175 36.5t64 90.5q0 14 -4.5 25.5t-15 19t-21 13.5t-29 9.5t-32 6t-37 3.5t-37 1t-39.5 0.5t-37 0.5l45 237l70 -7l-33 -158q55 0 97 -6.5t79.5 -21.5t58 -45t20.5 -74q0 -83 -83 -141.5t-226 -58.5z" />
    <glyph glyph-name="guillemotright" unicode="&#xbb;" horiz-adv-x="998" 
d="M-7 0l347 440l-158 441h66l222 -441l-409 -440h-68zM476 0l349 440l-159 441h65l223 -441l-409 -440h-69z" />
    <glyph glyph-name="questiondown" unicode="&#xbf;" horiz-adv-x="882" 
d="M612 879q47 0 80 -33.5t33 -81.5t-33 -81.5t-80 -33.5q-46 0 -79 33.5t-33 81.5t33 81.5t79 33.5zM622 -241q21 -1 33 -20t3 -47q-47 -94 -153.5 -157.5t-233.5 -63.5q-112 0 -190.5 53.5t-108.5 141.5t-8 193q22 102 83 181t139.5 118.5t161.5 39.5q54 0 105 -19l47 221
h69l-64 -295l-53 4q-26 17 -80 17q-101 0 -178 -86.5t-101 -197.5q-7 -41 -7 -83.5t14 -82.5t36.5 -71t61 -50t85.5 -19q81 0 157.5 48.5t119.5 134.5q9 14 14 21t18.5 14t29.5 5z" />
    <glyph glyph-name="Agrave" unicode="&#xc0;" horiz-adv-x="1301" 
d="M900 1438h-55l-386 317v4h203zM1134 64h71l-14 -64h-469l14 64h108q34 0 54 19.5t16 53.5l-33 315h-521l-182 -317q-18 -37 -6.5 -54t45.5 -17h122l-13 -64h-395l13 64h49q31 0 69.5 36.5t60.5 74.5l704 1200h92l134 -1212q5 -48 22 -73.5t59 -25.5zM397 517h477l-69 656
h-31z" />
    <glyph glyph-name="Aacute" unicode="&#xc1;" horiz-adv-x="1301" 
d="M1083 1759h202v-4l-385 -317h-56zM1053 163q5 -48 22 -73.5t59 -25.5h71l-14 -64h-469l14 64h108q34 0 54 19.5t16 53.5l-33 315h-521l-182 -317q-18 -37 -6.5 -54t45.5 -17h122l-13 -64h-395l13 64h49q31 0 69.5 36.5t60.5 74.5l704 1200h92zM397 517h477l-69 656h-31z
" />
    <glyph glyph-name="Acircumflex" unicode="&#xc2;" horiz-adv-x="1301" 
d="M953 1723l-324 -253h-51l300 322h173l165 -322h-48zM1053 163q5 -48 22 -73.5t59 -25.5h71l-14 -64h-469l14 64h108q34 0 54 19.5t16 53.5l-33 315h-521l-182 -317q-18 -37 -6.5 -54t45.5 -17h122l-13 -64h-395l13 64h49q31 0 69.5 36.5t60.5 74.5l704 1200h92zM397 517
h477l-69 656h-31z" />
    <glyph glyph-name="Atilde" unicode="&#xc3;" horiz-adv-x="1301" 
d="M774 1593q-53 0 -91.5 -45t-53.5 -114l-47 12q23 117 81.5 182.5t140.5 65.5q32 0 60.5 -14.5t41 -27t34.5 -39.5q17 -23 29.5 -35t34.5 -22.5t49 -10.5q55 0 96 44t60 125l46 -12q-21 -116 -80.5 -188t-144.5 -72q-13 0 -24.5 1.5t-22 5.5t-18 6.5t-17 10t-14.5 11
t-14 13t-11.5 12.5t-11.5 14t-11 13q-26 33 -49.5 48.5t-62.5 15.5zM1053 163q5 -48 22 -73.5t59 -25.5h71l-14 -64h-469l14 64h108q34 0 54 19.5t16 53.5l-33 315h-521l-182 -317q-18 -37 -6.5 -54t45.5 -17h122l-13 -64h-395l13 64h49q31 0 69.5 36.5t60.5 74.5l704 1200
h92zM397 517h477l-69 656h-31z" />
    <glyph glyph-name="Adieresis" unicode="&#xc4;" horiz-adv-x="1301" 
d="M690 1519q-36 0 -61 26.5t-25 60.5q0 35 25.5 60.5t60.5 25.5q36 0 61.5 -25t25.5 -61q0 -37 -26 -62t-61 -25zM1052 1519q-37 0 -62 26t-25 61q0 36 25.5 61t61.5 25q35 0 60.5 -25.5t25.5 -60.5q0 -37 -25.5 -62t-60.5 -25zM1134 64h71l-14 -64h-469l14 64h108
q34 0 54 19.5t16 53.5l-33 315h-521l-182 -317q-18 -37 -6.5 -54t45.5 -17h122l-13 -64h-395l13 64h49q31 0 69.5 36.5t60.5 74.5l704 1200h92l134 -1212q5 -48 22 -73.5t59 -25.5zM397 517h477l-69 656h-31z" />
    <glyph glyph-name="Aring" unicode="&#xc5;" horiz-adv-x="1301" 
d="M913 1445q-75 0 -128 53.5t-53 129.5t53 129t128 53q76 0 129.5 -53.5t53.5 -128.5t-53.5 -129t-129.5 -54zM913 1758q-53 0 -90 -37.5t-37 -92.5q0 -54 37 -92t90 -38q55 0 92.5 38t37.5 92q0 55 -37.5 92.5t-92.5 37.5zM1134 64h71l-14 -64h-469l14 64h108
q34 0 54 19.5t16 53.5l-33 315h-521l-182 -317q-18 -37 -6.5 -54t45.5 -17h122l-13 -64h-395l13 64h49q31 0 69.5 36.5t60.5 74.5l704 1200h92l134 -1212q5 -48 22 -73.5t59 -25.5zM397 517h477l-69 656h-31z" />
    <glyph glyph-name="AE" unicode="&#xc6;" horiz-adv-x="1870" 
d="M1809 1003l-60 -3l18 205q-4 49 -25 64t-70 15h-547l-107 -541h355q37 0 66 19.5t37 57.5l22 113h62l-91 -460h-61l25 130q8 42 -10 57t-58 15h-360l-101 -509q-13 -47 0 -73t62 -26h485q62 0 96 24t57 73l94 283l61 -3l-116 -444h-1101l12 64h106q83 0 104 102l55 286
h-434l-209 -317q-23 -37 -9.5 -53.5t48.5 -16.5l123 -1l-12 -64h-395l13 64l47 5q47 16 75 41.5t53 64.5l783 1177h956zM832 517l150 767h-49l-505 -767h404z" />
    <glyph glyph-name="Ccedilla" unicode="&#xc7;" horiz-adv-x="1428" 
d="M1382 1319h60l-102 -468l-59 6q3 86 -19 165t-66 142.5t-116 101.5t-161 38q-109 0 -211 -53.5t-180 -145t-135 -208.5t-87 -247q-60 -267 28 -435t292 -168q165 0 328 128t254 340l61 -6l-107 -476h-61l42 259q-87 -133 -226.5 -220t-293.5 -94l-25 -120q55 0 97 -6.5
t79.5 -21.5t58 -45t20.5 -74q0 -83 -83 -141.5t-226 -58.5q-101 0 -198 25l14 64q83 -20 169 -20q111 0 175 36.5t64 90.5q0 14 -4.5 25.5t-15 19t-21 13.5t-29 9.5t-32 6t-37 3.5t-37 1t-39.5 0.5t-37 0.5l37 193q-97 8 -176 49.5t-130 107.5t-81.5 153.5t-30.5 187.5
t22 209q31 136 102.5 261t169 220t223 151.5t256.5 56.5q141 0 246 -84.5t150 -236.5z" />
    <glyph glyph-name="Egrave" unicode="&#xc8;" horiz-adv-x="1314" 
d="M893 1438h-55l-386 317v4h203zM274 1352h1049l-60 -349l-60 -3l24 205q-2 49 -22.5 64t-68.5 15h-548l-123 -541h354q37 0 67 18.5t39 58.5l26 113h62l-105 -460h-61l29 130q8 43 -8.5 57.5t-56.5 14.5h-362l-116 -509q-14 -50 -1.5 -74.5t61.5 -24.5h484q63 0 97.5 24
t58.5 73l104 283l62 -3l-130 -444h-1102l14 64h106q42 0 69.5 27t37.5 75l234 1032q11 48 -1.5 69t-63.5 21h-103z" />
    <glyph glyph-name="Eacute" unicode="&#xc9;" horiz-adv-x="1314" 
d="M1278 1755l-385 -317h-56l239 321h202v-4zM274 1352h1049l-60 -349l-60 -3l24 205q-2 49 -22.5 64t-68.5 15h-548l-123 -541h354q37 0 67 18.5t39 58.5l26 113h62l-105 -460h-61l29 130q8 43 -8.5 57.5t-56.5 14.5h-362l-116 -509q-14 -50 -1.5 -74.5t61.5 -24.5h484
q63 0 97.5 24t58.5 73l104 283l62 -3l-130 -444h-1102l14 64h106q42 0 69.5 27t37.5 75l234 1032q11 48 -1.5 69t-63.5 21h-103z" />
    <glyph glyph-name="Ecircumflex" unicode="&#xca;" horiz-adv-x="1314" 
d="M946 1723l-324 -253h-51l300 322h173l165 -322h-48zM274 1352h1049l-60 -349l-60 -3l24 205q-2 49 -22.5 64t-68.5 15h-548l-123 -541h354q37 0 67 18.5t39 58.5l26 113h62l-105 -460h-61l29 130q8 43 -8.5 57.5t-56.5 14.5h-362l-116 -509q-14 -50 -1.5 -74.5
t61.5 -24.5h484q63 0 97.5 24t58.5 73l104 283l62 -3l-130 -444h-1102l14 64h106q42 0 69.5 27t37.5 75l234 1032q11 48 -1.5 69t-63.5 21h-103z" />
    <glyph glyph-name="Edieresis" unicode="&#xcb;" horiz-adv-x="1314" 
d="M683 1519q-36 0 -61 26.5t-25 60.5q0 35 25.5 60.5t60.5 25.5q37 0 62 -25t25 -61q0 -37 -26 -62t-61 -25zM1045 1519q-37 0 -62 26t-25 61q0 36 25.5 61t61.5 25q35 0 60.5 -25.5t25.5 -60.5q0 -37 -25.5 -62t-60.5 -25zM274 1352h1049l-60 -349l-60 -3l24 205
q-2 49 -22.5 64t-68.5 15h-548l-123 -541h354q37 0 67 18.5t39 58.5l26 113h62l-105 -460h-61l29 130q8 43 -8.5 57.5t-56.5 14.5h-362l-116 -509q-14 -50 -1.5 -74.5t61.5 -24.5h484q63 0 97.5 24t58.5 73l104 283l62 -3l-130 -444h-1102l14 64h106q42 0 69.5 27t37.5 75
l234 1032q11 48 -1.5 69t-63.5 21h-103z" />
    <glyph glyph-name="Igrave" unicode="&#xcc;" horiz-adv-x="721" 
d="M542 1438l-386 317v4h203l238 -321h-55zM-32 0l14 64h131q94 0 116 102l234 1033q10 50 -2.5 70t-63.5 20h-135l13 64h587l-13 -64h-131q-50 0 -77 -25t-39 -77l-236 -1033q-12 -50 2 -70t66 -20h135l-14 -64h-587z" />
    <glyph glyph-name="Iacute" unicode="&#xcd;" horiz-adv-x="721" 
d="M541 1438l239 321h202v-4l-385 -317h-56zM-32 0l14 64h131q94 0 116 102l234 1033q10 50 -2.5 70t-63.5 20h-135l13 64h587l-13 -64h-131q-50 0 -77 -25t-39 -77l-236 -1033q-12 -50 2 -70t66 -20h135l-14 -64h-587z" />
    <glyph glyph-name="Icircumflex" unicode="&#xce;" horiz-adv-x="721" 
d="M275 1470l300 322h173l165 -322h-48l-215 253l-324 -253h-51zM-32 0l14 64h131q94 0 116 102l234 1033q10 50 -2.5 70t-63.5 20h-135l13 64h587l-13 -64h-131q-50 0 -77 -25t-39 -77l-236 -1033q-12 -50 2 -70t66 -20h135l-14 -64h-587z" />
    <glyph glyph-name="Idieresis" unicode="&#xcf;" horiz-adv-x="721" 
d="M387 1519q-36 0 -61 26.5t-25 60.5q0 35 25.5 60.5t60.5 25.5q37 0 62 -25t25 -61q0 -37 -26 -62t-61 -25zM749 1519q-37 0 -62 26t-25 61q0 36 25.5 61t61.5 25q35 0 60.5 -25.5t25.5 -60.5q0 -37 -25.5 -62t-60.5 -25zM-32 0l14 64h131q94 0 116 102l234 1033
q10 50 -2.5 70t-63.5 20h-135l13 64h587l-13 -64h-131q-50 0 -77 -25t-39 -77l-236 -1033q-12 -50 2 -70t66 -20h135l-14 -64h-587z" />
    <glyph glyph-name="Eth" unicode="&#xd0;" horiz-adv-x="1469" 
d="M850 1352q160 0 282 -43t200.5 -129t102.5 -214.5t-14 -299.5q-38 -170 -123 -300t-201.5 -209t-254 -118t-292.5 -39h-582l14 64h116q39 0 63.5 28t34.5 74l109 476h-178l14 67h179l112 490q10 46 -0.5 68t-50.5 22h-119l13 63h575zM1269 691q45 200 3.5 333t-145 200
t-255.5 67h-279l-133 -582h417l-14 -67h-418l-109 -475q-6 -30 -6.5 -52.5t17.5 -35t58 -12.5h232q225 0 397.5 175t234.5 449z" />
    <glyph glyph-name="Ntilde" unicode="&#xd1;" horiz-adv-x="1481" 
d="M857 1593q-53 0 -91.5 -45t-53.5 -114l-47 12q23 117 81.5 182.5t140.5 65.5q32 0 60.5 -14.5t41 -27t34.5 -39.5q17 -23 29.5 -35t34.5 -22.5t49 -10.5q55 0 96 44t60 125l46 -12q-21 -116 -80.5 -188t-144.5 -72q-13 0 -24.5 1.5t-22 5.5t-18 6.5t-17 10t-14.5 11
t-14 13t-11.5 12.5t-11.5 14t-11 13q-26 33 -49.5 48.5t-62.5 15.5zM1198 1352h444l-15 -64h-96q-42 0 -73 -35.5t-42 -86.5l-269 -1189h-73l-573 1243l-238 -1043q-5 -30 -5.5 -55t17 -41.5t52.5 -16.5h102l-14 -64h-446l13 64h98q37 0 65 25.5t39.5 50.5t16.5 49l226 995
q22 104 -67 104h-100l13 64h337l521 -1145l224 972q10 45 -2 77t-60 32h-109z" />
    <glyph glyph-name="Ograve" unicode="&#xd2;" horiz-adv-x="1421" 
d="M890 1438l-386 317v4h203l238 -321h-55zM611 -23q-137 0 -240 53t-159 148t-72 226t21 287q32 139 101 262.5t165 217.5t223 149t265 55q97 0 176.5 -26t135.5 -73.5t94 -113t54.5 -145t14.5 -169.5t-24 -186q-32 -141 -101 -265.5t-165.5 -217.5t-223.5 -147.5
t-265 -54.5zM613 47q210 0 370 172.5t227 469.5q66 294 -17 454.5t-283 160.5q-210 0 -369.5 -176t-223.5 -458q-23 -100 -26.5 -191t14 -170t55 -137.5t102.5 -91.5t151 -33z" />
    <glyph glyph-name="Oacute" unicode="&#xd3;" horiz-adv-x="1421" 
d="M889 1438l239 321h202v-4l-385 -317h-56zM611 -23q-137 0 -240 53t-159 148t-72 226t21 287q32 139 101 262.5t165 217.5t223 149t265 55q97 0 176.5 -26t135.5 -73.5t94 -113t54.5 -145t14.5 -169.5t-24 -186q-32 -141 -101 -265.5t-165.5 -217.5t-223.5 -147.5
t-265 -54.5zM613 47q210 0 370 172.5t227 469.5q66 294 -17 454.5t-283 160.5q-210 0 -369.5 -176t-223.5 -458q-23 -100 -26.5 -191t14 -170t55 -137.5t102.5 -91.5t151 -33z" />
    <glyph glyph-name="Ocircumflex" unicode="&#xd4;" horiz-adv-x="1421" 
d="M623 1470l300 322h173l165 -322h-48l-215 253l-324 -253h-51zM611 -23q-137 0 -240 53t-159 148t-72 226t21 287q32 139 101 262.5t165 217.5t223 149t265 55q97 0 176.5 -26t135.5 -73.5t94 -113t54.5 -145t14.5 -169.5t-24 -186q-32 -141 -101 -265.5t-165.5 -217.5
t-223.5 -147.5t-265 -54.5zM613 47q210 0 370 172.5t227 469.5q66 294 -17 454.5t-283 160.5q-210 0 -369.5 -176t-223.5 -458q-23 -100 -26.5 -191t14 -170t55 -137.5t102.5 -91.5t151 -33z" />
    <glyph glyph-name="Otilde" unicode="&#xd5;" horiz-adv-x="1421" 
d="M674 1434l-47 12q23 117 81.5 182.5t140.5 65.5q32 0 60.5 -14.5t41 -27t34.5 -39.5q17 -23 29.5 -35t34.5 -22.5t49 -10.5q55 0 96 44t60 125l46 -12q-21 -116 -80.5 -188t-144.5 -72q-13 0 -24.5 1.5t-22 5.5t-18 6.5t-17 10t-14.5 11t-14 13t-11.5 12.5t-11.5 14
t-11 13q-26 33 -49.5 48.5t-62.5 15.5q-53 0 -91.5 -45t-53.5 -114zM611 -23q-137 0 -240 53t-159 148t-72 226t21 287q32 139 101 262.5t165 217.5t223 149t265 55q97 0 176.5 -26t135.5 -73.5t94 -113t54.5 -145t14.5 -169.5t-24 -186q-32 -141 -101 -265.5t-165.5 -217.5
t-223.5 -147.5t-265 -54.5zM613 47q210 0 370 172.5t227 469.5q66 294 -17 454.5t-283 160.5q-210 0 -369.5 -176t-223.5 -458q-23 -100 -26.5 -191t14 -170t55 -137.5t102.5 -91.5t151 -33z" />
    <glyph glyph-name="Odieresis" unicode="&#xd6;" horiz-adv-x="1421" 
d="M735 1519q-36 0 -61 26.5t-25 60.5q0 35 25.5 60.5t60.5 25.5q37 0 62 -25t25 -61q0 -37 -26 -62t-61 -25zM1097 1519q-37 0 -62 26t-25 61q0 36 25.5 61t61.5 25q35 0 60.5 -25.5t25.5 -60.5q0 -37 -25.5 -62t-60.5 -25zM611 -23q-137 0 -240 53t-159 148t-72 226
t21 287q32 139 101 262.5t165 217.5t223 149t265 55q97 0 176.5 -26t135.5 -73.5t94 -113t54.5 -145t14.5 -169.5t-24 -186q-32 -141 -101 -265.5t-165.5 -217.5t-223.5 -147.5t-265 -54.5zM613 47q210 0 370 172.5t227 469.5q66 294 -17 454.5t-283 160.5
q-210 0 -369.5 -176t-223.5 -458q-23 -100 -26.5 -191t14 -170t55 -137.5t102.5 -91.5t151 -33z" />
    <glyph glyph-name="multiply" unicode="&#xd7;" horiz-adv-x="1159" 
d="M267 223l-68 68l359 357l-359 360l68 68l359 -358l357 358l68 -68l-357 -360l357 -357l-68 -68l-357 358z" />
    <glyph glyph-name="Oslash" unicode="&#xd8;" horiz-adv-x="1421" 
d="M1284 1217q79 -98 99.5 -244.5t-17.5 -310.5q-32 -141 -101 -265.5t-165.5 -217.5t-223.5 -147.5t-265 -54.5q-198 0 -321 109l-89 -101l-51 43l93 106q-78 96 -99.5 239t17.5 318q32 139 101 262.5t165 217.5t223 149t265 55q201 0 325 -110l88 100l48 -44zM317 670
q-61 -268 11 -440l840 954q-85 120 -258 120q-210 0 -369.5 -176t-223.5 -458zM1210 689q61 272 -8 434l-840 -955q84 -121 251 -121q210 0 370 172.5t227 469.5z" />
    <glyph glyph-name="Ugrave" unicode="&#xd9;" horiz-adv-x="1437" 
d="M888 1438l-386 317v4h203l238 -321h-55zM620 -23q-247 0 -346.5 135t-41.5 389l159 697q11 47 -1.5 68.5t-63.5 21.5h-102l15 64h563l-15 -64h-143q-94 0 -116 -102l-158 -697q-49 -217 18.5 -327.5t267.5 -110.5q410 0 515 463l154 670q23 104 -68 104h-92l14 64h413
l-15 -64h-76q-42 0 -72.5 -33t-40.5 -82l-154 -673q-59 -261 -210.5 -392t-403.5 -131z" />
    <glyph glyph-name="Uacute" unicode="&#xda;" horiz-adv-x="1437" 
d="M887 1438l239 321h202v-4l-385 -317h-56zM620 -23q-247 0 -346.5 135t-41.5 389l159 697q11 47 -1.5 68.5t-63.5 21.5h-102l15 64h563l-15 -64h-143q-94 0 -116 -102l-158 -697q-49 -217 18.5 -327.5t267.5 -110.5q410 0 515 463l154 670q23 104 -68 104h-92l14 64h413
l-15 -64h-76q-42 0 -72.5 -33t-40.5 -82l-154 -673q-59 -261 -210.5 -392t-403.5 -131z" />
    <glyph glyph-name="Ucircumflex" unicode="&#xdb;" horiz-adv-x="1437" 
d="M621 1470l300 322h173l165 -322h-48l-215 253l-324 -253h-51zM620 -23q-247 0 -346.5 135t-41.5 389l159 697q11 47 -1.5 68.5t-63.5 21.5h-102l15 64h563l-15 -64h-143q-94 0 -116 -102l-158 -697q-49 -217 18.5 -327.5t267.5 -110.5q410 0 515 463l154 670
q23 104 -68 104h-92l14 64h413l-15 -64h-76q-42 0 -72.5 -33t-40.5 -82l-154 -673q-59 -261 -210.5 -392t-403.5 -131z" />
    <glyph glyph-name="Udieresis" unicode="&#xdc;" horiz-adv-x="1437" 
d="M733 1519q-36 0 -61 26.5t-25 60.5q0 35 25.5 60.5t60.5 25.5q37 0 62 -25t25 -61q0 -37 -26 -62t-61 -25zM1095 1519q-37 0 -62 26t-25 61q0 36 25.5 61t61.5 25q35 0 60.5 -25.5t25.5 -60.5q0 -37 -25.5 -62t-60.5 -25zM620 -23q-247 0 -346.5 135t-41.5 389l159 697
q11 47 -1.5 68.5t-63.5 21.5h-102l15 64h563l-15 -64h-143q-94 0 -116 -102l-158 -697q-49 -217 18.5 -327.5t267.5 -110.5q410 0 515 463l154 670q23 104 -68 104h-92l14 64h413l-15 -64h-76q-42 0 -72.5 -33t-40.5 -82l-154 -673q-59 -261 -210.5 -392t-403.5 -131z" />
    <glyph glyph-name="Yacute" unicode="&#xdd;" horiz-adv-x="1318" 
d="M831 1438l239 321h202v-4l-385 -317h-56zM259 0l14 64h153q90 0 113 101l71 312l-240 730q-15 44 -32.5 62.5t-50.5 18.5h-84l14 64h504l-14 -64h-111q-45 0 -62 -33t-2 -75l209 -620l481 612q88 116 -14 116h-96l15 64h370l-15 -64h-33q-52 0 -127 -93l-569 -711
l-76 -330q-11 -49 1.5 -69.5t62.5 -20.5h158l-14 -64h-626z" />
    <glyph glyph-name="Thorn" unicode="&#xde;" horiz-adv-x="1144" 
d="M-92 0l14 64h95q51 0 76.5 26t36.5 76l219 1033q10 49 -3 69.5t-64 20.5h-99l13 64h513l-13 -64h-93q-44 0 -73 -21t-37 -57l-15 -70h261q206 -1 303.5 -95t58.5 -277q-35 -171 -164.5 -262.5t-331.5 -91.5h-279l-55 -261q-10 -46 2.5 -68t66.5 -22h102l-13 -64h-521z
M339 483h263q137 0 229 77.5t125 230.5q60 288 -221 288h-268z" />
    <glyph glyph-name="germandbls" unicode="&#xdf;" horiz-adv-x="1214" 
d="M735 -20q-56 0 -93 15.5t-52.5 41.5t-20 51.5t-0.5 53.5q4 42 30 42q29 0 23 -45q-7 -42 13 -70t86 -28q94 0 160.5 84t99.5 237q36 169 -49 249.5t-288 78.5l8 65q55 1 99 7.5t90 25t80 49t62.5 83t43.5 123.5q29 132 -23.5 203.5t-192.5 71.5q-154 0 -244.5 -99
t-131.5 -287l-165 -795q-8 -38 1.5 -55.5t43.5 -17.5h106l-13 -64h-464l14 64h84q78 0 99 92l153 736q23 111 59.5 195t96.5 153.5t152 106.5t213 37q206 0 289.5 -96.5t48.5 -264.5q-26 -122 -108 -195t-188 -102q155 -21 225 -119t35 -262q-37 -169 -141 -267t-241 -98z
" />
    <glyph glyph-name="agrave" unicode="&#xe0;" horiz-adv-x="1065" 
d="M630 1030l-386 318v4h203l238 -322h-55zM365 -23q-164 0 -243.5 131t-35.5 324q20 88 61 163t91.5 124.5t109.5 85t114 51t104 15.5q70 0 139 -32.5t112 -94.5l23 102h132l-164 -716q-9 -28 -1.5 -46t39.5 -18h85l-14 -66h-255l19 104q-157 -127 -316 -127zM413 56
q68 0 145 38t136 108l110 472q-29 57 -83.5 88t-124.5 31q-129 0 -234.5 -110t-141.5 -267q-35 -154 18.5 -257t174.5 -103z" />
    <glyph glyph-name="aacute" unicode="&#xe1;" horiz-adv-x="1065" 
d="M630 1030h-55l238 322h203v-4zM365 -23q-164 0 -243.5 131t-35.5 324q20 88 61 163t91.5 124.5t109.5 85t114 51t104 15.5q70 0 139 -32.5t112 -94.5l23 102h132l-164 -716q-9 -28 -1.5 -46t39.5 -18h85l-14 -66h-255l19 104q-157 -127 -316 -127zM413 56q68 0 145 38
t136 108l110 472q-29 57 -83.5 88t-124.5 31q-129 0 -234.5 -110t-141.5 -267q-35 -154 18.5 -257t174.5 -103z" />
    <glyph glyph-name="acircumflex" unicode="&#xe2;" horiz-adv-x="1065" 
d="M349 1030l308 322h161l171 -322h-49l-216 253l-323 -253h-52zM365 -23q-164 0 -243.5 131t-35.5 324q20 88 61 163t91.5 124.5t109.5 85t114 51t104 15.5q70 0 139 -32.5t112 -94.5l23 102h132l-164 -716q-9 -28 -1.5 -46t39.5 -18h85l-14 -66h-255l19 104
q-157 -127 -316 -127zM413 56q68 0 145 38t136 108l110 472q-29 57 -83.5 88t-124.5 31q-129 0 -234.5 -110t-141.5 -267q-35 -154 18.5 -257t174.5 -103z" />
    <glyph glyph-name="atilde" unicode="&#xe3;" horiz-adv-x="1065" 
d="M401 1001l-47 12q24 117 82 182.5t140 65.5q33 0 62.5 -15t41 -27t36.5 -40q18 -23 29 -35t32.5 -22t48.5 -10q54 0 95 44.5t59 124.5l49 -12q-22 -116 -82 -187.5t-144 -71.5q-27 0 -48 6t-40 23t-25.5 24t-26.5 31q-19 22 -31 34t-34.5 22t-49.5 10q-53 0 -92 -45
t-55 -114zM365 -23q-164 0 -243.5 131t-35.5 324q20 88 61 163t91.5 124.5t109.5 85t114 51t104 15.5q70 0 139 -32.5t112 -94.5l23 102h132l-164 -716q-9 -28 -1.5 -46t39.5 -18h85l-14 -66h-255l19 104q-157 -127 -316 -127zM413 56q68 0 145 38t136 108l110 472
q-29 57 -83.5 88t-124.5 31q-129 0 -234.5 -110t-141.5 -267q-35 -154 18.5 -257t174.5 -103z" />
    <glyph glyph-name="adieresis" unicode="&#xe4;" horiz-adv-x="1065" 
d="M448 1138q-37 0 -62 26t-25 60q0 36 25.5 61t61.5 25t61 -25t25 -61q0 -37 -25.5 -61.5t-60.5 -24.5zM809 1138q-36 0 -61 26t-25 60q0 36 25.5 61t60.5 25q36 0 61.5 -25t25.5 -61q0 -37 -26 -61.5t-61 -24.5zM365 -23q-164 0 -243.5 131t-35.5 324q20 88 61 163
t91.5 124.5t109.5 85t114 51t104 15.5q70 0 139 -32.5t112 -94.5l23 102h132l-164 -716q-9 -28 -1.5 -46t39.5 -18h85l-14 -66h-255l19 104q-157 -127 -316 -127zM413 56q68 0 145 38t136 108l110 472q-29 57 -83.5 88t-124.5 31q-129 0 -234.5 -110t-141.5 -267
q-35 -154 18.5 -257t174.5 -103z" />
    <glyph glyph-name="aring" unicode="&#xe5;" horiz-adv-x="1065" 
d="M630 966q-77 0 -130 53.5t-53 130.5t53 130.5t130 53.5q76 0 130 -54t54 -130t-54 -130t-130 -54zM630 1019q56 0 93.5 37.5t37.5 93.5t-37.5 93.5t-93.5 37.5q-54 0 -91.5 -38t-37.5 -93t37.5 -93t91.5 -38zM365 -23q-164 0 -243.5 131t-35.5 324q20 88 61 163
t91.5 124.5t109.5 85t114 51t104 15.5q70 0 139 -32.5t112 -94.5l23 102h132l-164 -716q-9 -28 -1.5 -46t39.5 -18h85l-14 -66h-255l19 104q-157 -127 -316 -127zM413 56q68 0 145 38t136 108l110 472q-29 57 -83.5 88t-124.5 31q-129 0 -234.5 -110t-141.5 -267
q-35 -154 18.5 -257t174.5 -103z" />
    <glyph glyph-name="ae" unicode="&#xe6;" horiz-adv-x="1489" 
d="M1415 432h-636q-17 -74 -11.5 -144t26.5 -124t70.5 -86.5t120.5 -32.5q87 0 167.5 53t137.5 143l48 -41q-68 -104 -170.5 -164.5t-215.5 -60.5q-118 0 -199.5 64t-108.5 175q-147 -133 -239.5 -183.5t-195.5 -50.5q-101 0 -138.5 54.5t-19.5 144.5q18 89 83 145.5
t186 112.5l349 171q17 116 -17 157.5t-133 41.5q-184 0 -262 -169q-23 -45 -66 -40q-28 1 -38 22t1 49q16 38 44.5 71.5t74.5 64t117 48.5t158 18q106 0 169 -31.5t82 -104.5q138 136 315 136q73 0 135.5 -28.5t107 -84.5t61 -138t-2.5 -188zM1113 806q-110 0 -196.5 -92
t-124.5 -220l512 12q12 128 -36 214t-155 86zM264 56q73 0 160.5 56t176.5 158l55 264l-316 -167q-78 -41 -115.5 -86.5t-48.5 -103.5q-24 -121 88 -121z" />
    <glyph glyph-name="ccedilla" unicode="&#xe7;" horiz-adv-x="910" 
d="M599 871q109 0 189 -53.5t85 -151.5q0 -27 -14 -44t-38 -18q-20 -1 -32 12.5t-15.5 28t-4.5 34.5q-37 128 -178 128q-90 0 -169 -57t-129 -141t-72 -180q-40 -179 15.5 -280.5t184.5 -101.5q103 0 188.5 60.5t138.5 151.5l50 -38q-154 -246 -404 -246h-15l-24 -117
q55 0 97 -6.5t79.5 -21.5t58 -45t20.5 -74q0 -83 -83 -141.5t-226 -58.5q-101 0 -198 25l14 64q83 -20 169 -20q111 0 175 36.5t64 90.5q0 14 -4.5 25.5t-15 19t-21 13.5t-29 9.5t-32 6t-37 3.5t-37 1t-39.5 0.5t-37 0.5l37 197q-140 30 -202.5 151.5t-23.5 296.5
q45 194 190.5 317t324.5 123z" />
    <glyph glyph-name="egrave" unicode="&#xe8;" horiz-adv-x="905" 
d="M563 1030l-386 318v4h203l238 -322h-55zM385 -25q-173 0 -257.5 130.5t-38.5 332.5q44 192 180.5 312.5t302.5 120.5q121 0 202.5 -60t81.5 -158q0 -47 -23 -84.5t-59 -62.5t-91 -43.5t-107 -28.5t-120.5 -16t-118 -7.5t-110.5 -2.5q-39 -175 12 -269t180 -94
q88 0 170.5 54t140.5 142l49 -41q-72 -105 -176 -165t-218 -60zM239 468q86 3 153.5 8.5t135.5 19t112.5 34t72.5 53.5t28 76q0 71 -46.5 109t-125.5 38q-110 0 -201.5 -96t-128.5 -242z" />
    <glyph glyph-name="eacute" unicode="&#xe9;" horiz-adv-x="905" 
d="M563 1030h-55l238 322h203v-4zM385 -25q-173 0 -257.5 130.5t-38.5 332.5q44 192 180.5 312.5t302.5 120.5q121 0 202.5 -60t81.5 -158q0 -47 -23 -84.5t-59 -62.5t-91 -43.5t-107 -28.5t-120.5 -16t-118 -7.5t-110.5 -2.5q-39 -175 12 -269t180 -94q88 0 170.5 54
t140.5 142l49 -41q-72 -105 -176 -165t-218 -60zM239 468q86 3 153.5 8.5t135.5 19t112.5 34t72.5 53.5t28 76q0 71 -46.5 109t-125.5 38q-110 0 -201.5 -96t-128.5 -242z" />
    <glyph glyph-name="ecircumflex" unicode="&#xea;" horiz-adv-x="905" 
d="M282 1030l308 322h161l171 -322h-49l-216 253l-323 -253h-52zM385 -25q-173 0 -257.5 130.5t-38.5 332.5q44 192 180.5 312.5t302.5 120.5q121 0 202.5 -60t81.5 -158q0 -47 -23 -84.5t-59 -62.5t-91 -43.5t-107 -28.5t-120.5 -16t-118 -7.5t-110.5 -2.5
q-39 -175 12 -269t180 -94q88 0 170.5 54t140.5 142l49 -41q-72 -105 -176 -165t-218 -60zM239 468q86 3 153.5 8.5t135.5 19t112.5 34t72.5 53.5t28 76q0 71 -46.5 109t-125.5 38q-110 0 -201.5 -96t-128.5 -242z" />
    <glyph glyph-name="edieresis" unicode="&#xeb;" horiz-adv-x="905" 
d="M381 1138q-37 0 -62 26t-25 60q0 36 25.5 61t61.5 25t61 -25t25 -61q0 -37 -25.5 -61.5t-60.5 -24.5zM742 1138q-36 0 -61 26t-25 60q0 36 25.5 61t60.5 25q36 0 61.5 -25t25.5 -61q0 -37 -26 -61.5t-61 -24.5zM385 -25q-173 0 -257.5 130.5t-38.5 332.5
q44 192 180.5 312.5t302.5 120.5q121 0 202.5 -60t81.5 -158q0 -47 -23 -84.5t-59 -62.5t-91 -43.5t-107 -28.5t-120.5 -16t-118 -7.5t-110.5 -2.5q-39 -175 12 -269t180 -94q88 0 170.5 54t140.5 142l49 -41q-72 -105 -176 -165t-218 -60zM239 468q86 3 153.5 8.5t135.5 19
t112.5 34t72.5 53.5t28 76q0 71 -46.5 109t-125.5 38q-110 0 -201.5 -96t-128.5 -242z" />
    <glyph glyph-name="igrave" unicode="&#xec;" horiz-adv-x="527" 
d="M355 1030l-386 318v4h203l238 -322h-55zM105 0l157 693q11 48 -1.5 65t-56.5 10l-97 -24l7 63l321 71l-171 -754q-7 -34 6.5 -47t49.5 -13h87l-13 -64h-289z" />
    <glyph glyph-name="iacute" unicode="&#xed;" horiz-adv-x="527" 
d="M355 1030h-55l238 322h203v-4zM105 0l157 693q11 48 -1.5 65t-56.5 10l-97 -24l7 63l321 71l-171 -754q-7 -34 6.5 -47t49.5 -13h87l-13 -64h-289z" />
    <glyph glyph-name="icircumflex" unicode="&#xee;" horiz-adv-x="527" 
d="M74 1030l308 322h161l171 -322h-49l-216 253l-323 -253h-52zM105 0l157 693q11 48 -1.5 65t-56.5 10l-97 -24l7 63l321 71l-171 -754q-7 -34 6.5 -47t49.5 -13h87l-13 -64h-289z" />
    <glyph glyph-name="idieresis" unicode="&#xef;" horiz-adv-x="527" 
d="M173 1138q-37 0 -62 26t-25 60q0 36 25.5 61t61.5 25t61 -25t25 -61q0 -37 -25.5 -61.5t-60.5 -24.5zM534 1138q-36 0 -61 26t-25 60q0 36 25.5 61t60.5 25q36 0 61.5 -25t25.5 -61q0 -37 -26 -61.5t-61 -24.5zM105 0l157 693q11 48 -1.5 65t-56.5 10l-97 -24l7 63
l321 71l-171 -754q-7 -34 6.5 -47t49.5 -13h87l-13 -64h-289z" />
    <glyph glyph-name="eth" unicode="&#xf0;" horiz-adv-x="1032" 
d="M1121 1200l-180 -56q91 -201 8 -596q-60 -280 -209 -425.5t-343 -145.5q-83 0 -151 31t-111.5 89.5t-58 143t7.5 190.5q23 106 71.5 187.5t114.5 131t141 74t157 24.5q113 0 177 -55.5t79 -157.5q66 326 17 478l-331 -103l-7 62l313 97q-81 145 -308 137l2 67
q286 0 402 -174l204 63zM785 442q35 341 -197 341q-146 0 -241 -103.5t-135 -291.5q-34 -160 14.5 -253t173.5 -93q263 0 385 400z" />
    <glyph glyph-name="ntilde" unicode="&#xf1;" horiz-adv-x="1105" 
d="M403 1001l-47 12q24 117 82 182.5t140 65.5q33 0 62.5 -15t41 -27t36.5 -40q18 -23 29 -35t32.5 -22t48.5 -10q54 0 95 44.5t59 124.5l49 -12q-22 -116 -82 -187.5t-144 -71.5q-27 0 -48 6t-40 23t-25.5 24t-26.5 31q-19 22 -31 34t-34.5 22t-49.5 10q-53 0 -92 -45
t-55 -114zM103 0l156 687q10 43 -1 61.5t-53 12.5l-96 -24l8 64l315 73l-61 -264q83 111 187.5 186t199.5 75q132 0 181.5 -80.5t12.5 -241.5l-93 -404q-9 -41 2.5 -61t49.5 -20h88l-14 -64h-288l126 559q16 72 15 122.5t-32.5 78t-96.5 27.5q-94 0 -196.5 -98t-170.5 -219
l-107 -470h-132z" />
    <glyph glyph-name="ograve" unicode="&#xf2;" horiz-adv-x="987" 
d="M590 1030l-386 318v4h203l238 -322h-55zM397 -25q-24 0 -51 4t-59.5 13.5t-62.5 27t-58.5 41.5t-49 60.5t-33 80.5t-11.5 104.5t17 130.5q21 92 63 167t94 123.5t113 82t118.5 47.5t111.5 14q52 0 103 -15t99.5 -48.5t79 -86.5t42 -129t-12.5 -176q-23 -103 -70.5 -183.5
t-101.5 -127.5t-117.5 -77.5t-115 -41.5t-98.5 -11zM401 40q47 0 99 23.5t104 69t95.5 124.5t66.5 178q40 173 -11.5 272t-168.5 99q-118 0 -221.5 -106.5t-143.5 -283.5q-20 -104 -13.5 -175.5t39 -116t71.5 -64.5t83 -20z" />
    <glyph glyph-name="oacute" unicode="&#xf3;" horiz-adv-x="987" 
d="M590 1030h-55l238 322h203v-4zM397 -25q-24 0 -51 4t-59.5 13.5t-62.5 27t-58.5 41.5t-49 60.5t-33 80.5t-11.5 104.5t17 130.5q21 92 63 167t94 123.5t113 82t118.5 47.5t111.5 14q52 0 103 -15t99.5 -48.5t79 -86.5t42 -129t-12.5 -176q-23 -103 -70.5 -183.5
t-101.5 -127.5t-117.5 -77.5t-115 -41.5t-98.5 -11zM401 40q47 0 99 23.5t104 69t95.5 124.5t66.5 178q40 173 -11.5 272t-168.5 99q-118 0 -221.5 -106.5t-143.5 -283.5q-20 -104 -13.5 -175.5t39 -116t71.5 -64.5t83 -20z" />
    <glyph glyph-name="ocircumflex" unicode="&#xf4;" horiz-adv-x="987" 
d="M309 1030l308 322h161l171 -322h-49l-216 253l-323 -253h-52zM397 -25q-24 0 -51 4t-59.5 13.5t-62.5 27t-58.5 41.5t-49 60.5t-33 80.5t-11.5 104.5t17 130.5q21 92 63 167t94 123.5t113 82t118.5 47.5t111.5 14q52 0 103 -15t99.5 -48.5t79 -86.5t42 -129t-12.5 -176
q-23 -103 -70.5 -183.5t-101.5 -127.5t-117.5 -77.5t-115 -41.5t-98.5 -11zM401 40q47 0 99 23.5t104 69t95.5 124.5t66.5 178q40 173 -11.5 272t-168.5 99q-118 0 -221.5 -106.5t-143.5 -283.5q-20 -104 -13.5 -175.5t39 -116t71.5 -64.5t83 -20z" />
    <glyph glyph-name="otilde" unicode="&#xf5;" horiz-adv-x="987" 
d="M361 1001l-47 12q24 117 82 182.5t140 65.5q33 0 62.5 -15t41 -27t36.5 -40q18 -23 29 -35t32.5 -22t48.5 -10q54 0 95 44.5t59 124.5l49 -12q-22 -116 -82 -187.5t-144 -71.5q-27 0 -48 6t-40 23t-25.5 24t-26.5 31q-19 22 -31 34t-34.5 22t-49.5 10q-53 0 -92 -45
t-55 -114zM397 -25q-24 0 -51 4t-59.5 13.5t-62.5 27t-58.5 41.5t-49 60.5t-33 80.5t-11.5 104.5t17 130.5q21 92 63 167t94 123.5t113 82t118.5 47.5t111.5 14q52 0 103 -15t99.5 -48.5t79 -86.5t42 -129t-12.5 -176q-23 -103 -70.5 -183.5t-101.5 -127.5t-117.5 -77.5
t-115 -41.5t-98.5 -11zM401 40q47 0 99 23.5t104 69t95.5 124.5t66.5 178q40 173 -11.5 272t-168.5 99q-118 0 -221.5 -106.5t-143.5 -283.5q-20 -104 -13.5 -175.5t39 -116t71.5 -64.5t83 -20z" />
    <glyph glyph-name="odieresis" unicode="&#xf6;" horiz-adv-x="987" 
d="M408 1138q-37 0 -62 26t-25 60q0 36 25.5 61t61.5 25t61 -25t25 -61q0 -37 -25.5 -61.5t-60.5 -24.5zM769 1138q-36 0 -61 26t-25 60q0 36 25.5 61t60.5 25q36 0 61.5 -25t25.5 -61q0 -37 -26 -61.5t-61 -24.5zM397 -25q-24 0 -51 4t-59.5 13.5t-62.5 27t-58.5 41.5
t-49 60.5t-33 80.5t-11.5 104.5t17 130.5q21 92 63 167t94 123.5t113 82t118.5 47.5t111.5 14q52 0 103 -15t99.5 -48.5t79 -86.5t42 -129t-12.5 -176q-23 -103 -70.5 -183.5t-101.5 -127.5t-117.5 -77.5t-115 -41.5t-98.5 -11zM401 40q47 0 99 23.5t104 69t95.5 124.5
t66.5 178q40 173 -11.5 272t-168.5 99q-118 0 -221.5 -106.5t-143.5 -283.5q-20 -104 -13.5 -175.5t39 -116t71.5 -64.5t83 -20z" />
    <glyph glyph-name="divide" unicode="&#xf7;" horiz-adv-x="1311" 
d="M703 1001q-40 0 -67 27.5t-27 67.5q0 39 27.5 66.5t66.5 27.5q38 0 66.5 -28t28.5 -66q0 -39 -28 -67t-67 -28zM148 628v96h1110v-96h-1110zM703 161q-40 0 -67 27.5t-27 67.5q0 39 27.5 67t66.5 28q38 0 66.5 -28.5t28.5 -66.5q0 -39 -28 -67t-67 -28z" />
    <glyph glyph-name="oslash" unicode="&#xf8;" horiz-adv-x="987" 
d="M923 866l-86 -99q113 -125 63 -351q-23 -103 -70.5 -183.5t-101.5 -127.5t-117.5 -77.5t-115 -41.5t-98.5 -11q-110 0 -199 60l-86 -98l-49 42l86 99q-114 125 -60 359q21 92 63 167t94 123.5t113 82t118.5 47.5t111.5 14q114 0 199 -61l87 99zM221 416q-35 -153 5 -251
l504 578q-52 63 -144 63q-118 0 -221.5 -106.5t-143.5 -283.5zM766 435q35 152 -2 249l-504 -578q56 -66 141 -66q47 0 99 23.5t104 69t95.5 124.5t66.5 178z" />
    <glyph glyph-name="ugrave" unicode="&#xf9;" horiz-adv-x="1106" 
d="M647 1030l-386 318v4h203l238 -322h-55zM347 -25q-266 0 -193 322l91 404q9 43 -2 62t-48 19h-88l13 64h288l-126 -559q-30 -109 -5.5 -168t118.5 -59q65 0 139 52t130.5 120.5t98.5 143.5l76 325q18 81 -42 81h-100l13 64h292l-159 -700q-10 -43 1.5 -61.5t53.5 -12.5
l97 24l-9 -64l-313 -55l60 259q-84 -112 -187 -186.5t-199 -74.5z" />
    <glyph glyph-name="uacute" unicode="&#xfa;" horiz-adv-x="1106" 
d="M647 1030h-55l238 322h203v-4zM347 -25q-266 0 -193 322l91 404q9 43 -2 62t-48 19h-88l13 64h288l-126 -559q-30 -109 -5.5 -168t118.5 -59q65 0 139 52t130.5 120.5t98.5 143.5l76 325q18 81 -42 81h-100l13 64h292l-159 -700q-10 -43 1.5 -61.5t53.5 -12.5l97 24
l-9 -64l-313 -55l60 259q-84 -112 -187 -186.5t-199 -74.5z" />
    <glyph glyph-name="ucircumflex" unicode="&#xfb;" horiz-adv-x="1106" 
d="M366 1030l308 322h161l171 -322h-49l-216 253l-323 -253h-52zM347 -25q-266 0 -193 322l91 404q9 43 -2 62t-48 19h-88l13 64h288l-126 -559q-30 -109 -5.5 -168t118.5 -59q65 0 139 52t130.5 120.5t98.5 143.5l76 325q18 81 -42 81h-100l13 64h292l-159 -700
q-10 -43 1.5 -61.5t53.5 -12.5l97 24l-9 -64l-313 -55l60 259q-84 -112 -187 -186.5t-199 -74.5z" />
    <glyph glyph-name="udieresis" unicode="&#xfc;" horiz-adv-x="1106" 
d="M465 1138q-37 0 -62 26t-25 60q0 36 25.5 61t61.5 25t61 -25t25 -61q0 -37 -25.5 -61.5t-60.5 -24.5zM826 1138q-36 0 -61 26t-25 60q0 36 25.5 61t60.5 25q36 0 61.5 -25t25.5 -61q0 -37 -26 -61.5t-61 -24.5zM347 -25q-266 0 -193 322l91 404q9 43 -2 62t-48 19h-88
l13 64h288l-126 -559q-30 -109 -5.5 -168t118.5 -59q65 0 139 52t130.5 120.5t98.5 143.5l76 325q18 81 -42 81h-100l13 64h292l-159 -700q-10 -43 1.5 -61.5t53.5 -12.5l97 24l-9 -64l-313 -55l60 259q-84 -112 -187 -186.5t-199 -74.5z" />
    <glyph glyph-name="yacute" unicode="&#xfd;" horiz-adv-x="928" 
d="M556 1030h-55l238 322h203v-4zM-30 -469q-59 -4 -59 54q0 29 17.5 42t50.5 21q91 20 170 78.5t165 182.5l95 141l-193 664q-10 35 -25.5 51.5t-41.5 16.5h-78l14 64h231l187 -659l318 493q63 102 -8 102h-137l13 64h316l-649 -990q-104 -158 -190.5 -232.5t-195.5 -92.5z
" />
    <glyph glyph-name="thorn" unicode="&#xfe;" horiz-adv-x="1088" 
d="M-208 -500l13 64h99q79 0 98 94l327 1540q9 45 -5 63t-63 12l-96 -23l4 62l331 70l-138 -640q152 129 328 129q111 0 193.5 -58t118 -164t7.5 -235q-40 -188 -188.5 -313.5t-316.5 -125.5q-88 0 -157.5 36.5t-113.5 93.5l-100 -460q-10 -42 2.5 -61.5t60.5 -19.5h114
l-14 -64h-504zM472 53q73 0 142 34.5t120.5 89.5t88 122t50.5 134q20 96 0.5 177.5t-79.5 132t-149 50.5q-78 0 -157.5 -41.5t-141.5 -107.5l-100 -466q34 -61 95 -93t131 -32z" />
    <glyph glyph-name="ydieresis" unicode="&#xff;" horiz-adv-x="928" 
d="M374 1138q-37 0 -62 26t-25 60q0 36 25.5 61t61.5 25t61 -25t25 -61q0 -37 -25.5 -61.5t-60.5 -24.5zM735 1138q-36 0 -61 26t-25 60q0 36 25.5 61t60.5 25q36 0 61.5 -25t25.5 -61q0 -37 -26 -61.5t-61 -24.5zM-30 -469q-59 -4 -59 54q0 29 17.5 42t50.5 21
q91 20 170 78.5t165 182.5l95 141l-193 664q-10 35 -25.5 51.5t-41.5 16.5h-78l14 64h231l187 -659l318 493q63 102 -8 102h-137l13 64h316l-649 -990q-104 -158 -190.5 -232.5t-195.5 -92.5z" />
    <glyph glyph-name="dotlessi" unicode="&#x131;" horiz-adv-x="527" 
d="M105 0l157 693q11 48 -1.5 65t-56.5 10l-97 -24l7 63l321 71l-171 -754q-7 -34 6.5 -47t49.5 -13h87l-13 -64h-289z" />
    <glyph glyph-name="Lslash" unicode="&#x141;" horiz-adv-x="1236" 
d="M1113 449l59 -3l-129 -446h-1076l14 64h135q91 0 113 102l71 313l-220 -159l19 95l223 161l141 622q11 49 -1.5 69.5t-62.5 20.5h-139l14 64h590l-14 -64h-133q-93 0 -115 -102l-112 -488l461 333l-18 -94l-465 -336l-100 -438q-14 -47 -1.5 -71.5t68.5 -24.5h403
q133 0 193 135z" />
    <glyph glyph-name="lslash" unicode="&#x142;" horiz-adv-x="490" 
d="M359 709l-128 -564q-18 -81 40 -81h105l-15 -64h-294l135 596l-261 -189l18 88l264 190l117 516q10 46 -2 64.5t-55 10.5l-94 -24l6 64l318 70l-133 -587l262 189l-17 -87z" />
    <glyph glyph-name="OE" unicode="&#x152;" horiz-adv-x="2130" 
d="M714 0q-156 0 -275 45t-193 132t-98.5 215t8.5 295q63 315 282 487.5t538 176.5l1142 1l-49 -349l-60 -3l18 205q-4 49 -25 64t-70 15l-492 -2q-58 -12 -75 -95l-87 -444h355q37 0 66 19.5t37 57.5l22 113h62l-91 -460h-61l25 130q8 42 -10 57t-58 15h-360l-101 -510
q-11 -51 1 -74.5t62 -23.5h484q62 0 96 24t57 73l94 283l62 -3l-117 -444h-1189zM690 67h246q67 0 89 104l203 1027q9 48 -0.5 69t-40.5 21h-235q-106 0 -206 -39.5t-187 -115t-153 -196.5t-96 -273q-28 -129 -14.5 -238.5t59 -189t132 -124.5t203.5 -45z" />
    <glyph glyph-name="oe" unicode="&#x153;" horiz-adv-x="1625" 
d="M1551 432h-635q-18 -74 -12.5 -144t26.5 -124t70.5 -86.5t120.5 -32.5q87 0 168 53t138 143l48 -41q-68 -104 -170.5 -164.5t-216.5 -60.5q-105 0 -181.5 51.5t-111.5 143.5q-77 -103 -184.5 -149t-201.5 -46q-28 0 -59.5 5.5t-70 18.5t-71 36t-63.5 58t-47 83.5
t-21.5 113.5t12.5 147q22 114 77 201t126 136t143 73t142 24q95 0 181.5 -48.5t126.5 -145.5q69 91 165 142.5t201 51.5q73 0 135.5 -28.5t106.5 -84.5t60.5 -138t-2.5 -188zM412 40q48 0 99.5 23.5t102 69t92 125t60.5 179.5q34 171 -21 270t-170 99q-119 0 -219.5 -107
t-134.5 -283q-17 -101 -8 -172.5t41 -116.5t72 -66t86 -21zM1249 806q-110 0 -196.5 -92t-123.5 -220l512 12q12 128 -36 214t-156 86z" />
    <glyph glyph-name="Scaron" unicode="&#x160;" horiz-adv-x="1108" 
d="M711 1456l-172 322h50l213 -253l324 253h52l-307 -322h-160zM519 -23q-132 0 -223.5 64.5t-121.5 182.5l-59 -203h-64l106 465l62 -6q-35 -192 40.5 -312.5t252.5 -120.5q65 0 132 30t127 99t82 165q7 31 8 58t-6 49.5t-17 41.5t-28 36t-36 30.5t-45 27t-50.5 24
t-55.5 23.5q-156 68 -213 109q-115 82 -118 207q0 45 12 99q32 143 154 236.5t266 93.5q97 0 173 -55t107 -147l55 179h63l-90 -397l-60 7q23 154 -49.5 250t-194.5 96q-116 0 -200.5 -71.5t-107.5 -172.5q-27 -119 51 -187q47 -40 183 -97q5 -2 32 -13q39 -16 66.5 -28.5
t62 -31t57.5 -36.5t47.5 -42t38 -52t23 -61t8.5 -74t-12 -87q-22 -96 -75.5 -172.5t-120.5 -119.5t-134 -65t-128 -22z" />
    <glyph glyph-name="scaron" unicode="&#x161;" horiz-adv-x="952" 
d="M692 1030h-161l-171 322h48l215 -253l324 253h51zM798 762l48 109h47l-55 -254l-47 1q-7 93 -77.5 143.5t-190.5 50.5q-104 0 -175 -38.5t-84 -108.5q-6 -33 4 -57.5t27 -38.5t53.5 -24t66 -15t81.5 -11q6 -1 9 -1q59 -8 99.5 -16.5t88 -28t74.5 -45.5t41.5 -69.5
t5.5 -100.5q-19 -134 -127 -208.5t-270 -74.5q-107 0 -181 32t-106 83l-55 -115h-49l59 264l54 -2q14 -93 94.5 -147.5t199.5 -54.5q109 0 185.5 47t91.5 133q7 39 -5 68.5t-31.5 46t-62 29t-71.5 17.5t-84 12q-49 6 -79.5 12t-71.5 16.5t-65 26.5t-45.5 39.5t-28.5 58
t-1 78.5q16 120 116.5 186t252.5 66q193 0 264 -109z" />
    <glyph glyph-name="Wcircumflex" unicode="&#x174;" horiz-adv-x="1873" 
d="M1213 1723l-324 -253h-51l300 322h173l165 -322h-48zM1647 1352h402l-15 -64h-50q-37 0 -69 -35t-66 -106l-563 -1170h-118l-60 1227l-591 -1227h-120l-56 1217q-4 54 -18 74t-54 20h-65l14 64h523l-32 -64h-166q-21 0 -44.5 -34t-20.5 -79l50 -1051h1l595 1241h107
l61 -1239l486 1025q15 31 22.5 53.5t8 43t-12.5 30.5t-40 10h-123z" />
    <glyph glyph-name="wcircumflex" unicode="&#x175;" horiz-adv-x="1442" 
d="M938 1283l-323 -253h-52l308 322h161l171 -322h-49zM1210 846h297l-506 -866h-105l-106 743l-390 -743h-98l-82 730q-7 43 -20 57.5t-44 14.5h-81l13 64h243l80 -719l389 734h101l108 -755l331 577q29 53 25 76t-47 23h-123z" />
    <glyph glyph-name="Ycircumflex" unicode="&#x176;" horiz-adv-x="1318" 
d="M565 1470l300 322h173l165 -322h-48l-215 253l-324 -253h-51zM259 0l14 64h153q90 0 113 101l71 312l-240 730q-15 44 -32.5 62.5t-50.5 18.5h-84l14 64h504l-14 -64h-111q-45 0 -62 -33t-2 -75l209 -620l481 612q88 116 -14 116h-96l15 64h370l-15 -64h-33
q-52 0 -127 -93l-569 -711l-76 -330q-11 -49 1.5 -69.5t62.5 -20.5h158l-14 -64h-626z" />
    <glyph glyph-name="ycircumflex" unicode="&#x177;" horiz-adv-x="928" 
d="M275 1030l308 322h161l171 -322h-49l-216 253l-323 -253h-52zM-30 -469q-59 -4 -59 54q0 29 17.5 42t50.5 21q91 20 170 78.5t165 182.5l95 141l-193 664q-10 35 -25.5 51.5t-41.5 16.5h-78l14 64h231l187 -659l318 493q63 102 -8 102h-137l13 64h316l-649 -990
q-104 -158 -190.5 -232.5t-195.5 -92.5z" />
    <glyph glyph-name="Ydieresis" unicode="&#x178;" horiz-adv-x="1318" 
d="M677 1519q-36 0 -61 26.5t-25 60.5q0 35 25.5 60.5t60.5 25.5q37 0 62 -25t25 -61q0 -37 -26 -62t-61 -25zM1039 1519q-37 0 -62 26t-25 61q0 36 25.5 61t61.5 25q35 0 60.5 -25.5t25.5 -60.5q0 -37 -25.5 -62t-60.5 -25zM259 0l14 64h153q90 0 113 101l71 312l-240 730
q-15 44 -32.5 62.5t-50.5 18.5h-84l14 64h504l-14 -64h-111q-45 0 -62 -33t-2 -75l209 -620l481 612q88 116 -14 116h-96l15 64h370l-15 -64h-33q-52 0 -127 -93l-569 -711l-76 -330q-11 -49 1.5 -69.5t62.5 -20.5h158l-14 -64h-626z" />
    <glyph glyph-name="Zcaron" unicode="&#x17d;" horiz-adv-x="1307" 
d="M957 1456h-160l-172 322h50l213 -253l324 253h52zM1375 1364l-19 -90l-1192 -1207h713q58 0 101 22.5t81 89.5l90 255l61 -3l-131 -431h-1082l20 94l1183 1203h-646q-42 0 -73.5 -7.5t-63.5 -31.5t-51 -66l-69 -190l-60 3l114 359h1024z" />
    <glyph glyph-name="zcaron" unicode="&#x17e;" horiz-adv-x="922" 
d="M679 1030h-161l-171 322h48l215 -253l324 253h51zM144 585l87 261h683l-18 -83l-742 -699h419q61 0 109 84l51 129l60 -3l-88 -274h-718l18 83l742 699h-399q-28 0 -49.5 -17.5t-46.5 -63.5l-48 -120z" />
    <glyph glyph-name="florin" unicode="&#x192;" horiz-adv-x="1112" 
d="M34 -453q-65 0 -95 35t-23 91q3 30 19 47t37 16q17 -2 27 -25.5t4 -53.5q-2 -39 7 -51t43 -12q38 0 69.5 33t48 66.5t54.5 125.5q2 3 2.5 5t2 5t2.5 6q16 41 80.5 192t107.5 256l207 504h-195l24 67h84q78 0 117.5 36.5t81.5 130.5q35 75 63.5 126.5t71 108.5t94 86.5
t109.5 29.5q54 0 89 -29.5t35 -81.5q1 -30 -14 -49.5t-36 -19.5q-38 0 -38 74q-1 7 -1.5 19.5t-1.5 18.5t-4.5 12.5t-11.5 9.5t-22 3q-42 0 -83 -31t-71 -90q-38 -59 -103 -251q-9 -30 -39 -109l243 6l-24 -67h-246l-207 -511q-156 -375 -259 -549q-101 -180 -249 -180z" />
    <glyph glyph-name="oslashacute" unicode="&#x1ff;" horiz-adv-x="987" 
d="M773 1352h203v-4l-386 -318h-55zM875 909l48 -43l-86 -99q113 -125 63 -351q-23 -103 -70.5 -183.5t-101.5 -127.5t-117.5 -77.5t-115 -41.5t-98.5 -11q-110 0 -199 60l-86 -98l-49 42l86 99q-114 125 -60 359q21 92 63 167t94 123.5t113 82t118.5 47.5t111.5 14
q114 0 199 -61zM221 416q-35 -153 5 -251l504 578q-52 63 -144 63q-118 0 -221.5 -106.5t-143.5 -283.5zM766 435q35 152 -2 249l-504 -578q56 -66 141 -66q47 0 99 23.5t104 69t95.5 124.5t66.5 178z" />
    <glyph glyph-name="uni0237" unicode="&#x237;" horiz-adv-x="504" 
d="M-196 -511q-112 0 -172 57.5t-53 162.5q2 22 18 35.5t38 15.5q23 1 35.5 -16t11.5 -47q3 -142 145 -142q96 0 161 75t93 204l181 858q10 45 -4 64t-65 11l-103 -24l6 64l341 71l-214 -1003q-42 -196 -142 -291t-277 -95z" />
    <glyph glyph-name="circumflex" unicode="&#x2c6;" horiz-adv-x="733" 
d="M175 1030l308 322h161l171 -322h-49l-216 253l-323 -253h-52z" />
    <glyph glyph-name="caron" unicode="&#x2c7;" horiz-adv-x="735" 
d="M417 1030l-171 322h48l215 -253l324 253h51l-306 -322h-161z" />
    <glyph glyph-name="breve" unicode="&#x2d8;" horiz-adv-x="769" 
d="M543 1006q-119 0 -196 69.5t-100 174.5h53q56 -158 244 -158q177 0 236 158h51q-4 -28 -14.5 -57.5t-33 -64t-53.5 -61t-79.5 -44t-107.5 -17.5z" />
    <glyph glyph-name="dotaccent" unicode="&#x2d9;" horiz-adv-x="595" 
d="M543 1113q-36 0 -61 26.5t-25 59.5q0 36 25.5 61t60.5 25q37 0 62 -25t25 -61q0 -37 -25.5 -61.5t-61.5 -24.5z" />
    <glyph glyph-name="ring" unicode="&#x2da;" horiz-adv-x="605" 
d="M463 981q-81 0 -138.5 57.5t-57.5 139.5q0 81 57.5 137.5t138.5 56.5q82 0 139.5 -56.5t57.5 -137.5q0 -82 -57.5 -139.5t-139.5 -57.5zM463 1059q49 0 84 34.5t35 84.5q0 49 -35 83.5t-84 34.5t-83 -34.5t-34 -83.5q0 -50 34 -84.5t83 -34.5z" />
    <glyph glyph-name="ogonek" unicode="&#x2db;" horiz-adv-x="566" 
d="M181 -364q-109 0 -175.5 67.5t-66.5 156.5q0 90 75 163l27 -23q-41 -47 -41 -107q0 -80 61.5 -141t148.5 -61q74 0 144 48l23 -31q-93 -72 -196 -72z" />
    <glyph glyph-name="tilde" unicode="&#x2dc;" horiz-adv-x="855" 
d="M288 1001l-47 12q24 117 82 182.5t140 65.5q33 0 62.5 -15t41 -27t36.5 -40q18 -23 29 -35t32.5 -22t48.5 -10q54 0 95 44.5t59 124.5l49 -12q-22 -116 -82 -187.5t-144 -71.5q-27 0 -48 6t-40 23t-25.5 24t-26.5 31q-19 22 -31 34t-34.5 22t-49.5 10q-53 0 -92 -45
t-55 -114z" />
    <glyph glyph-name="hungarumlaut" unicode="&#x2dd;" horiz-adv-x="966" 
d="M305 1030l239 322h203v-4l-386 -318h-56zM688 1030l239 322h202v-4l-385 -318h-56z" />
    <glyph glyph-name="gravecomb" unicode="&#x300;" 
d="M37 1030l-386 318v4h203l238 -322h-55z" />
    <glyph glyph-name="acutecomb" unicode="&#x301;" 
d="M-603 1030h-55l238 322h203v-4z" />
    <glyph glyph-name="uni0302" unicode="&#x302;" 
d="M-558 1030l308 322h161l171 -322h-49l-216 253l-323 -253h-52z" />
    <glyph glyph-name="tildecomb" unicode="&#x303;" 
d="M-567 1001l-47 12q24 117 82 182.5t140 65.5q33 0 62.5 -15t41 -27t36.5 -40q18 -23 29 -35t32.5 -22t48.5 -10q54 0 95 44.5t59 124.5l49 -12q-22 -116 -82 -187.5t-144 -71.5q-27 0 -48 6t-40 23t-25.5 24t-26.5 31q-19 22 -31 34t-34.5 22t-49.5 10q-53 0 -92 -45
t-55 -114z" />
    <glyph glyph-name="uni0304" unicode="&#x304;" 
d="M-659 1117l22 102h653l-22 -102h-653z" />
    <glyph glyph-name="uni0306" unicode="&#x306;" 
d="M-226 1006q-119 0 -196 69.5t-100 174.5h53q56 -158 244 -158q177 0 236 158h51q-4 -28 -14.5 -57.5t-33 -64t-53.5 -61t-79.5 -44t-107.5 -17.5z" />
    <glyph glyph-name="uni0307" unicode="&#x307;" 
d="M-51 1113q-36 0 -61 26.5t-25 59.5q0 36 25.5 61t60.5 25q37 0 62 -25t25 -61q0 -37 -25.5 -61.5t-61.5 -24.5z" />
    <glyph glyph-name="uni0308" unicode="&#x308;" 
d="M-405 1138q-37 0 -62 26t-25 60q0 36 25.5 61t61.5 25t61 -25t25 -61q0 -37 -25.5 -61.5t-60.5 -24.5zM-44 1138q-36 0 -61 26t-25 60q0 36 25.5 61t60.5 25q36 0 61.5 -25t25.5 -61q0 -37 -26 -61.5t-61 -24.5z" />
    <glyph glyph-name="uni030A" unicode="&#x30a;" 
d="M-139 966q-77 0 -130 53.5t-53 130.5t53 130.5t130 53.5t130.5 -54t53.5 -130t-53.5 -130t-130.5 -54zM-139 1019q55 0 93 37.5t38 93.5t-38 93.5t-93 37.5q-54 0 -91.5 -38t-37.5 -93t37.5 -93t91.5 -38z" />
    <glyph glyph-name="uni030B" unicode="&#x30b;" 
d="M-661 1030l239 322h203v-4l-386 -318h-56zM-278 1030l239 322h202v-4l-385 -318h-56z" />
    <glyph glyph-name="uni030C" unicode="&#x30c;" 
d="M-318 1030l-171 322h48l215 -253l324 253h51l-306 -322h-161z" />
    <glyph glyph-name="uni0327" unicode="&#x327;" 
d="M-529 -489q-101 0 -198 25l14 64q83 -20 169 -20q111 0 175 36.5t64 90.5q0 14 -4.5 25.5t-15 19t-21 13.5t-29 9.5t-32 6t-37 3.5t-37 1t-39.5 0.5t-37 0.5l45 237l70 -7l-33 -158q55 0 97 -6.5t79.5 -21.5t58 -45t20.5 -74q0 -83 -83 -141.5t-226 -58.5z" />
    <glyph glyph-name="uni0328" unicode="&#x328;" 
d="M-385 -364q-109 0 -175.5 67.5t-66.5 156.5q0 90 75 163l27 -23q-41 -47 -41 -107q0 -80 61.5 -141t148.5 -61q74 0 144 48l23 -31q-93 -72 -196 -72z" />
    <glyph glyph-name="uni0337" unicode="&#x337;" 
d="M-598 436l18 88l683 493l-17 -87z" />
    <glyph glyph-name="uni0338" unicode="&#x338;" 
d="M-706 -39l-49 42l812 930l48 -43z" />
    <glyph glyph-name="uni0394" unicode="&#x394;" horiz-adv-x="874" 
d="M-14 0l583 1428h163l-26 -1428h-720zM75 64h514l24 1249h-25z" />
    <glyph glyph-name="uni03A9" unicode="&#x3a9;" horiz-adv-x="1290" 
d="M38 0l60 290h48l-24 -112q-18 -85 60 -85h274l39 177q-313 180 -226 596q55 257 209 405.5t375 148.5q149 0 242.5 -74.5t118.5 -202.5t-8 -300q-41 -197 -161.5 -344.5t-305.5 -227.5l-40 -178h267q42 0 68.5 27t35.5 69l22 101h47l-63 -290h-457l65 319
q155 78 254.5 220.5t138.5 325.5q53 251 -6.5 374.5t-219.5 123.5q-168 0 -286 -137t-170 -384q-83 -391 165 -532l-64 -310h-458z" />
    <glyph glyph-name="Wgrave" unicode="&#x1e80;" horiz-adv-x="1873" 
d="M1160 1438h-55l-386 317v4h203zM1647 1352h402l-15 -64h-50q-37 0 -69 -35t-66 -106l-563 -1170h-118l-60 1227l-591 -1227h-120l-56 1217q-4 54 -18 74t-54 20h-65l14 64h523l-32 -64h-166q-21 0 -44.5 -34t-20.5 -79l50 -1051h1l595 1241h107l61 -1239l486 1025
q15 31 22.5 53.5t8 43t-12.5 30.5t-40 10h-123z" />
    <glyph glyph-name="wgrave" unicode="&#x1e81;" horiz-adv-x="1442" 
d="M899 1030h-55l-386 318v4h203zM1210 846h297l-506 -866h-105l-106 743l-390 -743h-98l-82 730q-7 43 -20 57.5t-44 14.5h-81l13 64h243l80 -719l389 734h101l108 -755l331 577q29 53 25 76t-47 23h-123z" />
    <glyph glyph-name="Wacute" unicode="&#x1e82;" horiz-adv-x="1873" 
d="M1545 1755l-385 -317h-56l239 321h202v-4zM1647 1352h402l-15 -64h-50q-37 0 -69 -35t-66 -106l-563 -1170h-118l-60 1227l-591 -1227h-120l-56 1217q-4 54 -18 74t-54 20h-65l14 64h523l-32 -64h-166q-21 0 -44.5 -34t-20.5 -79l50 -1051h1l595 1241h107l61 -1239
l486 1025q15 31 22.5 53.5t8 43t-12.5 30.5t-40 10h-123z" />
    <glyph glyph-name="wacute" unicode="&#x1e83;" horiz-adv-x="1442" 
d="M1230 1348l-386 -318h-55l238 322h203v-4zM1210 846h297l-506 -866h-105l-106 743l-390 -743h-98l-82 730q-7 43 -20 57.5t-44 14.5h-81l13 64h243l80 -719l389 734h101l108 -755l331 577q29 53 25 76t-47 23h-123z" />
    <glyph glyph-name="Wdieresis" unicode="&#x1e84;" horiz-adv-x="1873" 
d="M950 1519q-36 0 -61 26.5t-25 60.5q0 35 25.5 60.5t60.5 25.5q36 0 61.5 -25t25.5 -61q0 -37 -26 -62t-61 -25zM1312 1519q-37 0 -62 26t-25 61q0 36 25.5 61t61.5 25q35 0 60.5 -25.5t25.5 -60.5q0 -37 -25.5 -62t-60.5 -25zM1647 1352h402l-15 -64h-50q-37 0 -69 -35
t-66 -106l-563 -1170h-118l-60 1227l-591 -1227h-120l-56 1217q-4 54 -18 74t-54 20h-65l14 64h523l-32 -64h-166q-21 0 -44.5 -34t-20.5 -79l50 -1051h1l595 1241h107l61 -1239l486 1025q15 31 22.5 53.5t8 43t-12.5 30.5t-40 10h-123z" />
    <glyph glyph-name="wdieresis" unicode="&#x1e85;" horiz-adv-x="1442" 
d="M662 1138q-37 0 -62 26t-25 60q0 36 25.5 61t61.5 25t61 -25t25 -61q0 -37 -25.5 -61.5t-60.5 -24.5zM1023 1138q-36 0 -61 26t-25 60q0 36 25.5 61t60.5 25q36 0 61.5 -25t25.5 -61q0 -37 -26 -61.5t-61 -24.5zM1210 846h297l-506 -866h-105l-106 743l-390 -743h-98
l-82 730q-7 43 -20 57.5t-44 14.5h-81l13 64h243l80 -719l389 734h101l108 -755l331 577q29 53 25 76t-47 23h-123z" />
    <glyph glyph-name="Ygrave" unicode="&#x1ef2;" horiz-adv-x="1318" 
d="M832 1438l-386 317v4h203l238 -321h-55zM259 0l14 64h153q90 0 113 101l71 312l-240 730q-15 44 -32.5 62.5t-50.5 18.5h-84l14 64h504l-14 -64h-111q-45 0 -62 -33t-2 -75l209 -620l481 612q88 116 -14 116h-96l15 64h370l-15 -64h-33q-52 0 -127 -93l-569 -711
l-76 -330q-11 -49 1.5 -69.5t62.5 -20.5h158l-14 -64h-626z" />
    <glyph glyph-name="ygrave" unicode="&#x1ef3;" horiz-adv-x="928" 
d="M556 1030l-386 318v4h203l238 -322h-55zM-30 -469q-59 -4 -59 54q0 29 17.5 42t50.5 21q91 20 170 78.5t165 182.5l95 141l-193 664q-10 35 -25.5 51.5t-41.5 16.5h-78l14 64h231l187 -659l318 493q63 102 -8 102h-137l13 64h316l-649 -990q-104 -158 -190.5 -232.5
t-195.5 -92.5z" />
    <glyph glyph-name="endash" unicode="&#x2013;" horiz-adv-x="1353" 
d="M140 362l18 88h1048l-18 -88h-1048z" />
    <glyph glyph-name="emdash" unicode="&#x2014;" horiz-adv-x="2353" 
d="M140 362l18 88h2048l-18 -88h-2048z" />
    <glyph glyph-name="quoteleft" unicode="&#x2018;" horiz-adv-x="548" 
d="M370 840q-71 0 -99 55t-9 144q27 126 126.5 220t220.5 121l3 -64q-105 -26 -175.5 -98t-83.5 -135q-3 -15 2 -21t18 -2q8 1 23 4t22 3q43 0 69.5 -35t15.5 -88q-8 -41 -45 -72.5t-88 -31.5z" />
    <glyph glyph-name="quoteright" unicode="&#x2019;" horiz-adv-x="547" 
d="M230 840l-2 65q104 25 174.5 97t83.5 135q3 15 -2 21t-18 2q-5 -1 -21.5 -3.5t-23.5 -2.5q-43 0 -69.5 35t-15.5 87q10 42 46.5 73t87.5 31q70 0 98 -55t10 -143q-28 -126 -127.5 -220t-220.5 -122z" />
    <glyph glyph-name="quotesinglbase" unicode="&#x201a;" horiz-adv-x="550" 
d="M-20 -348l-4 65q106 25 175.5 97t83.5 135q4 15 -1.5 21t-17.5 2q-10 -1 -25.5 -3.5t-20.5 -2.5q-42 0 -68.5 34.5t-16.5 87.5q10 42 47 73.5t88 31.5q70 0 98 -55t10 -144q-27 -126 -127 -220t-221 -122z" />
    <glyph glyph-name="quotedblleft" unicode="&#x201c;" horiz-adv-x="956" 
d="M369 840q-70 0 -98 55t-9 144q27 125 126 219.5t218 121.5l3 -64q-104 -26 -174 -98t-83 -135q-3 -15 2.5 -21t17.5 -2q7 1 22 4t23 3q42 0 68.5 -35t15.5 -88q-8 -41 -45 -72.5t-87 -31.5zM778 840q-69 0 -97.5 55t-9.5 144q27 125 126 219.5t218 121.5l4 -64
q-104 -26 -174 -98t-83 -135q-3 -15 2 -21t18 -2q8 1 22.5 4t21.5 3q43 0 69.5 -35t15.5 -88q-8 -41 -45 -72.5t-88 -31.5z" />
    <glyph glyph-name="quotedblright" unicode="&#x201d;" horiz-adv-x="955" 
d="M231 840l-3 65q103 25 173 97t83 135q3 15 -1.5 21t-17.5 2q-6 -1 -22 -3.5t-24 -2.5q-42 0 -68 35t-15 87q10 42 46 73t87 31q69 0 97 -55t9 -143q-27 -126 -126 -220t-218 -122zM641 840l-3 65q103 25 173 97t83 135q3 15 -1.5 21t-17.5 2q-7 -1 -22.5 -3.5t-22.5 -2.5
q-43 0 -69.5 34.5t-15.5 87.5q10 42 46.5 73t87.5 31q69 0 97 -55t9 -143q-27 -126 -126 -220t-218 -122z" />
    <glyph glyph-name="quotedblbase" unicode="&#x201e;" horiz-adv-x="964" 
d="M-20 -348l-4 65q106 25 175.5 97t83.5 135q4 15 -1.5 21t-17.5 2q-10 -1 -25.5 -3.5t-20.5 -2.5q-42 0 -68.5 34.5t-16.5 87.5q10 42 47 73.5t88 31.5q70 0 98 -55t10 -144q-27 -126 -127 -220t-221 -122zM394 -348l-3 65q105 25 175 97t84 135q4 15 -2 21t-18 2
q-9 -1 -25 -3.5t-21 -2.5q-42 0 -68.5 34.5t-16.5 87.5q10 42 47 73.5t88 31.5q70 0 98 -55t10 -144q-27 -126 -127 -220t-221 -122z" />
    <glyph glyph-name="dagger" unicode="&#x2020;" horiz-adv-x="901" 
d="M287 -193l27 133q54 251 111 652q17 145 71 200q-14 -3 -109.5 -30.5t-139.5 -27.5q-10 0 -20.5 2t-27 8t-26.5 17.5t-17 30t1 46.5q17 81 111 81q44 0 124 -26t116 -28q0 4 -4.5 69.5t-2.5 113t12 95.5q8 40 23 66.5t33 37.5t30 14.5t25 3.5q37 0 59.5 -34t8.5 -103
q-17 -78 -116 -274q32 9 87.5 27t92 26.5t72.5 8.5q53 0 74.5 -30.5t12.5 -72.5q-7 -33 -36 -56.5t-79 -23.5q-44 0 -124 24t-104 25q10 -22 8 -54t-8.5 -61t-19.5 -77q-5 -16 -7 -24q-5 -19 -29.5 -103.5t-43 -151t-46 -175.5t-49.5 -211l-23 -118h-67z" />
    <glyph glyph-name="daggerdbl" unicode="&#x2021;" horiz-adv-x="956" 
d="M853 916q56 0 77.5 -31t12.5 -72q-7 -34 -36.5 -57t-78.5 -23q-44 0 -124 24t-104 25q10 -22 8 -54t-8.5 -61t-19.5 -77q-5 -16 -7 -24q-59 -196 -87 -408q-1 -9 -5.5 -40.5t-6 -40t-6.5 -31t-10 -33t-14.5 -26.5t-21.5 -30q17 4 68.5 20.5t97 27.5t77.5 11q55 0 75 -31
t11 -73q-8 -33 -36.5 -56t-78.5 -23q-49 0 -130 26.5t-112 33.5l6 -2q0 -8 3.5 -80t1.5 -122.5t-12 -91.5q-13 -60 -44 -86.5t-62 -26.5q-38 0 -61.5 33t-6.5 114q5 22 13 47.5t14.5 43t21 48t19 40.5t21.5 44t18 35q-29 -5 -118 -31.5t-129 -26.5q-43 0 -70 28t-16 77
q9 42 44 61t75 19q43 -1 121 -23.5t110 -23.5q-20 75 22 212q21 64 51 202.5t37 208.5q10 130 68 199q-11 -2 -107 -29.5t-137 -27.5q-23 0 -45.5 8t-39 33t-7.5 63q18 81 110 81q48 0 130.5 -28.5t111.5 -34.5q0 9 -4 59t-5 77.5t2 72t11 79.5q9 40 24.5 66.5t32 37
t27.5 14t20 3.5q46 0 67.5 -34.5t7.5 -102.5q-4 -16 -9 -33t-13.5 -39t-14 -36.5t-18 -42t-17.5 -38t-19.5 -42t-17.5 -37.5q33 8 86 24.5t88 24t68 7.5z" />
    <glyph glyph-name="bullet" unicode="&#x2022;" horiz-adv-x="818" 
d="M463 427q-102 0 -174.5 72.5t-72.5 174.5q0 104 72.5 174.5t174.5 70.5q100 0 172.5 -70.5t72.5 -174.5q0 -102 -71.5 -174.5t-173.5 -72.5z" />
    <glyph glyph-name="twodotenleader" unicode="&#x2025;" horiz-adv-x="1184" 
d="M228 -34q-47 0 -81 34t-34 81t34 80.5t81 33.5q46 0 79.5 -34t33.5 -80q0 -47 -33.5 -81t-79.5 -34zM809 -34q-47 0 -80.5 34t-33.5 81t33.5 80.5t80.5 33.5t80.5 -33.5t33.5 -80.5t-33.5 -81t-80.5 -34z" />
    <glyph glyph-name="ellipsis" unicode="&#x2026;" horiz-adv-x="1766" 
d="M228 -34q-47 0 -81 34t-34 81t34 80.5t81 33.5q46 0 79.5 -34t33.5 -80q0 -47 -33.5 -81t-79.5 -34zM809 -34q-47 0 -80.5 34t-33.5 81t33.5 80.5t80.5 33.5t80.5 -33.5t33.5 -80.5t-33.5 -81t-80.5 -34zM1391 -34q-47 0 -81 34t-34 81t34 80.5t81 33.5q46 0 79.5 -33.5
t33.5 -80.5t-33.5 -81t-79.5 -34z" />
    <glyph glyph-name="perthousand" unicode="&#x2030;" horiz-adv-x="2370" 
d="M436 673q-63 0 -107.5 26t-65.5 64.5t-29.5 89t-6 94t11.5 83.5q35 161 123.5 253t210.5 92q75 0 124 -33t66.5 -85.5t20.5 -118t-14 -130.5q-9 -40 -24.5 -82t-44.5 -88.5t-65 -82t-88 -59t-112 -23.5zM382 0l981 1352h82l-983 -1352h-80zM438 724q46 0 85.5 28t66 75.5
t43.5 94t28 97.5q32 170 9 237.5t-97 67.5q-158 0 -227 -314q-59 -286 92 -286zM1226 -23q-63 0 -107.5 26t-65.5 64.5t-29.5 88.5t-6 93.5t11.5 84.5q34 161 122 253t211 92q74 0 123 -33t66.5 -85.5t20.5 -118.5t-14 -131q-9 -40 -24.5 -82t-44 -88t-64.5 -81.5t-88 -59
t-111 -23.5zM1903 -23q-63 0 -107.5 26t-65.5 64.5t-29.5 88.5t-6 93.5t11.5 84.5q34 161 122 253t211 92q74 0 123 -33t67 -85.5t21 -118.5t-14 -131q-9 -40 -25 -82t-44.5 -88t-64.5 -81.5t-88 -59t-111 -23.5zM1226 27q46 0 85.5 28.5t66 75.5t44 94t28.5 98
q32 169 9.5 237t-96.5 68q-79 0 -136.5 -80t-90.5 -235q-61 -286 90 -286zM1903 27q46 0 85.5 28.5t66.5 75.5t44 94t28 98q32 169 9.5 237t-96.5 68q-79 0 -136.5 -80t-90.5 -235q-61 -286 90 -286z" />
    <glyph glyph-name="guilsinglleft" unicode="&#x2039;" horiz-adv-x="515" 
d="M274 0l-221 440l406 441h71l-348 -441l159 -440h-67z" />
    <glyph glyph-name="guilsinglright" unicode="&#x203a;" horiz-adv-x="514" 
d="M-7 0l347 440l-158 441h65l222 -441l-408 -440h-68z" />
    <glyph glyph-name="Euro" unicode="&#x20ac;" horiz-adv-x="1233" 
d="M583 -23q-121 0 -203.5 76.5t-115.5 204t-17 287.5l-100 -6l23 64l86 6q2 20 13 76q5 27 19 72l-96 -6l23 64l92 6q83 246 234.5 399.5t329.5 153.5q100 0 170 -55.5t97 -155.5l41 176h64l-82 -396l-62 5q14 166 -41 263.5t-173 97.5q-94 0 -182.5 -68t-154.5 -179
t-109 -253l518 6l-25 -64l-508 -6q-16 -66 -19 -79q-1 -6 -6.5 -30.5t-8.5 -38.5l489 6l-25 -64l-474 -6q-29 -225 27 -357.5t195 -132.5q120 0 229.5 109.5t160.5 265.5l55 -21q-70 -208 -195.5 -314t-268.5 -106z" />
    <glyph glyph-name="uni2113" unicode="&#x2113;" horiz-adv-x="880" 
d="M406 -22q-100 0 -138.5 90.5t-7.5 234.5l25 126q-20 -18 -101 -81t-99 -79l-29 54q20 18 119 94.5t125 100.5l92 460q42 199 136.5 324.5t221.5 125.5q92 0 121 -60.5t1 -190.5q-56 -256 -305 -511q-58 -61 -125 -118l-53 -255q-23 -116 -9 -176t63 -60q112 0 189 252
l55 -24q-50 -158 -118 -232.5t-163 -74.5zM459 652q50 45 103 107q211 221 256 437q21 92 8.5 131.5t-63.5 39.5q-74 0 -134.5 -91t-94.5 -256z" />
    <glyph glyph-name="trademark" unicode="&#x2122;" horiz-adv-x="2290" 
d="M302 1352h744l8 -217l-40 -1l-8 99q-9 47 -28.5 61.5t-55.5 14.5h-200v-663q0 -29 12 -44.5t47 -15.5h76v-40h-366v40h76q34 0 46.5 15.5t12.5 44.5v663h-202q-34 0 -56 -15.5t-27 -62.5l-6 -97l-41 1zM2151 1312q-35 0 -47 -15.5t-12 -46.5v-604q0 -29 12 -44.5
t47 -15.5h84v-40h-375v40h77q33 0 46 14t13 46v619h-14l-324 -719h-46l-319 719h-9v-601q0 -78 58 -78h62v-40h-279v40h61q56 0 56 79v585q0 30 -12 46t-45 16h-60v40h230l309 -694l314 694h257v-40h-84z" />
    <glyph glyph-name="uni2126" unicode="&#x2126;" horiz-adv-x="1463" 
d="M65 0l61 290h53l-24 -112q-18 -85 68 -85h304l41 177q-354 180 -265 596q55 257 222.5 405.5t412.5 148.5q125 0 216.5 -42.5t140.5 -119t63.5 -182.5t-14.5 -233q-41 -197 -171.5 -344.5t-335.5 -227.5l-39 -178h296q46 0 75.5 27.5t38.5 68.5l20 101h53l-62 -290h-508
l66 319q170 78 277 221t145 325q53 251 -16.5 374.5t-246.5 123.5q-186 0 -314 -137t-180 -384q-82 -391 197 -532l-64 -310h-510z" />
    <glyph glyph-name="partialdiff" unicode="&#x2202;" horiz-adv-x="1068" 
d="M854 1471q93 0 143.5 -64.5t54.5 -176t-25 -261.5q-25 -115 -79 -260t-117 -265q-130 -231 -251.5 -346.5t-248.5 -115.5q-146 0 -207.5 98t-26.5 270q22 101 78 204t132 186.5t174.5 136.5t195.5 53q55 0 95 -18t61 -49t31 -65.5t10 -74.5q43 114 69 244
q22 115 19 207.5t-42 150.5t-108 58q-154 0 -296 -182l-32 41q172 229 370 229zM828 601q9 34 13.5 66.5t1 69.5t-17.5 64.5t-45.5 45.5t-78.5 18q-100 0 -204 -85.5t-178 -214.5t-103 -264q-26 -122 16.5 -186.5t141.5 -64.5q79 0 165.5 81.5t157 201t131.5 268.5z" />
    <glyph glyph-name="uni2206" unicode="&#x2206;" horiz-adv-x="1011" 
d="M15 0l613 1428h181l5 -1428h-799zM113 64h569l-1 1249h-27z" />
    <glyph glyph-name="product" unicode="&#x220f;" horiz-adv-x="1298" 
d="M-14 -248l12 53h82q32 0 55 30.5t32 74.5l290 1364q20 93 -39 93h-105l12 53h1073l-12 -53h-98q-32 0 -55 -30t-33 -75l-290 -1364q-19 -93 40 -93h88l-11 -53h-427l11 53h82q32 0 55 30.5t32 74.5l307 1445h-481l-310 -1457q-19 -93 39 -93h88l-12 -53h-425z" />
    <glyph glyph-name="summation" unicode="&#x2211;" horiz-adv-x="1016" 
d="M335 1421h690l-36 -324l-51 -3l15 183q4 47 -10.5 63t-47.5 16h-458l155 -731l-507 -767h524q71 0 96 82l65 216l53 -5l-114 -401h-735l14 73l494 745l-162 779z" />
    <glyph glyph-name="minus" unicode="&#x2212;" horiz-adv-x="1578" 
d="M288 628v96h1110v-96h-1110z" />
    <glyph glyph-name="radical" unicode="&#x221a;" horiz-adv-x="762" 
d="M777 1505h53l-488 -1513h-81l-20 686l-105 -68l-25 45l196 127l17 -673z" />
    <glyph glyph-name="infinity" unicode="&#x221e;" horiz-adv-x="1366" 
d="M979 826q105 0 169.5 -68t64.5 -180q0 -108 -67 -179t-170 -71q-151 0 -255 179q-51 -85 -115 -136t-156 -51q-105 0 -170 68.5t-65 179.5q0 109 67 179.5t172 70.5q148 0 254 -180q107 188 271 188zM975 387q82 0 131 54t49 137q0 87 -45 138t-127 51q-35 0 -66 -13
t-53 -30t-44.5 -48t-35.5 -53.5t-32 -58.5q93 -177 223 -177zM448 379q42 0 77.5 17.5t64.5 52t46.5 62.5t40.5 72q-96 176 -221 176q-81 0 -132 -52t-51 -138q0 -88 46 -139t129 -51z" />
    <glyph glyph-name="integral" unicode="&#x222b;" horiz-adv-x="625" 
d="M48 -412q-66 0 -86.5 41.5t-9.5 91.5q5 17 15.5 28.5t24.5 11.5q18 0 27 -13.5t7 -30.5q-1 -23 8 -36t39 -12q29 5 46.5 25t32.5 67q7 23 13 60t10.5 69t12.5 99.5t14 112.5q25 208 75 438q2 9 35.5 167.5t50.5 237.5q3 15 10 45q27 121 41 180t39.5 132t52.5 115
q59 98 145 98q52 0 76 -28t21 -78q-1 -15 -10 -27.5t-26 -13.5q-16 -1 -24.5 10t-9.5 31q-12 30 -58 26q-45 -7 -72 -74q-11 -21 -19.5 -47.5t-17.5 -73.5t-14 -74.5t-17 -103.5t-17 -108q-39 -280 -71 -436q-57 -277 -98 -448q-60 -267 -112 -376q-23 -54 -54.5 -80
t-79.5 -26z" />
    <glyph glyph-name="approxequal" unicode="&#x2248;" horiz-adv-x="1313" 
d="M252 552l-67 69q44 60 84.5 98.5t104.5 67t139 28.5q124 0 245 -66q117 -66 193 -66q89 0 178 132l67 -69q-51 -73 -109 -116t-134 -43q-100 0 -219 68q-113 63 -218 63q-79 0 -141 -41t-123 -125zM252 399l-67 68q32 44 62.5 76t70 60.5t89 43t106.5 14.5q126 0 245 -65
q117 -66 193 -66q89 0 178 132l67 -69q-51 -73 -108.5 -116t-134.5 -43q-99 0 -219 67q-112 64 -218 64q-79 0 -140.5 -41.5t-123.5 -124.5z" />
    <glyph glyph-name="notequal" unicode="&#x2260;" horiz-adv-x="1396" 
d="M1307 865h-385l-195 -379h580v-96h-630l-218 -423h-127l219 423h-354v96h403l197 379h-600v97h650l202 391h125l-202 -391h335v-97z" />
    <glyph glyph-name="lessequal" unicode="&#x2264;" horiz-adv-x="1286" 
d="M1097 1225v-105l-829 -333l829 -333v-104l-923 378v119zM202 0v96h895v-96h-895z" />
    <glyph glyph-name="greaterequal" unicode="&#x2265;" horiz-adv-x="1285" 
d="M217 1225l923 -378v-119l-923 -378v104l829 333l-829 333v105zM217 0v96h895v-96h-895z" />
    <glyph glyph-name="uni0308.case" 
d="M-325 1519q-36 0 -61 26.5t-25 60.5q0 35 25.5 60.5t60.5 25.5q37 0 62 -25t25 -61q0 -37 -26 -62t-61 -25zM37 1519q-37 0 -62 26t-25 61q0 36 25.5 61t61.5 25q35 0 60.5 -25.5t25.5 -60.5q0 -37 -25.5 -62t-60.5 -25z" />
    <glyph glyph-name="gravecomb.case" 
d="M125 1438l-386 317v4h203l238 -321h-55z" />
    <glyph glyph-name="acutecomb.case" 
d="M-191 1438l239 321h202v-4l-385 -317h-56z" />
    <glyph glyph-name="uni0302.case" 
d="M-465 1470l300 322h173l165 -322h-48l-215 253l-324 -253h-51z" />
    <glyph glyph-name="uni030C.case" 
d="M-227 1456l-172 322h50l213 -253l324 253h52l-307 -322h-160z" />
    <glyph glyph-name="uni030A.case" 
d="M-35 1445q-75 0 -128 53.5t-53 129.5t53 129t128 53q76 0 129.5 -53.5t53.5 -128.5t-53.5 -129t-129.5 -54zM-35 1498q55 0 92.5 38t37.5 92q0 55 -37.5 92.5t-92.5 37.5q-53 0 -90 -37.5t-37 -92.5q0 -54 37 -92t90 -38z" />
    <glyph glyph-name="tildecomb.case" 
d="M-475 1434l-47 12q23 117 81.5 182.5t140.5 65.5q32 0 60.5 -14.5t41 -27t34.5 -39.5q17 -23 29.5 -35t34.5 -22.5t49 -10.5q55 0 96 44t60 125l46 -12q-21 -116 -80.5 -188t-144.5 -72q-13 0 -24.5 1.5t-22 5.5t-18 6.5t-17 10t-14.5 11t-14 13t-11.5 12.5t-11.5 14
t-11 13q-26 33 -49.5 48.5t-62.5 15.5q-53 0 -91.5 -45t-53.5 -114z" />
    <glyph glyph-name="uni0335.case" 
d="M-838 651l14 67h736l-14 -67h-736z" />
    <glyph glyph-name="uni0337.case" 
d="M-745 367l19 95l852 616l-18 -94z" />
    <glyph glyph-name="uni0338.case" 
d="M-961 12l-51 43l1178 1337l48 -44z" />
    </font>
</defs>
</svg>
