<?xml version="1.0" standalone="no"?>
<!DOCTYPE svg PUBLIC "-//W3C//DTD SVG 1.1//EN" "http://www.w3.org/Graphics/SVG/1.1/DTD/svg11.dtd" >
<svg xmlns="http://www.w3.org/2000/svg" xmlns:xlink="http://www.w3.org/1999/xlink" version="1.1">
<metadata>
Created by FontForge 20170731 at Wed Dec 13 18:56:53 2017
 By ,,,
Copyright (c)2017 HK CartaTM by Alfredo Marco Pradil
</metadata>
<defs>
<font id="HKCarta-Medium" horiz-adv-x="0" >
  <font-face 
    font-family="HK Carta Medium"
    font-weight="500"
    font-stretch="normal"
    units-per-em="2048"
    panose-1="0 0 6 0 0 0 0 0 0 0"
    ascent="1393"
    descent="-655"
    x-height="865"
    cap-height="1354"
    bbox="-1198 -575 2344 1814"
    underline-thickness="50"
    underline-position="-200"
    unicode-range="U+0020-FB02"
  />
<missing-glyph horiz-adv-x="1024" 
d="M134 0v1352h755v-1352h-755zM196 64h631v1224h-631v-1224z" />
    <glyph glyph-name="fi" unicode="fi" horiz-adv-x="1201" 
d="M1100 79h67v-79h-1119v79h101q60 0 79.5 25.5t19.5 79.5v601h-200v80h200v159q0 175 109.5 267t283.5 92q348 0 365 -219q1 -40 -25 -68.5t-63 -29.5q-23 0 -38.5 5t-25.5 18.5t-14 21.5t-10.5 31t-8.5 29q-33 131 -177 131q-109 0 -154.5 -64t-45.5 -185v-188h573v-681
q0 -52 17.5 -78.5t65.5 -26.5zM728 79q54 0 73 23.5t19 81.5v601h-376v-601q0 -54 19 -79.5t80 -25.5h185z" />
    <glyph glyph-name="fl" unicode="fl" horiz-adv-x="1198" 
d="M48 0v79h101q60 0 79.5 25.5t19.5 79.5v601h-200v80h200v159q0 118 53 200.5t140 120.5t200 38q138 0 213 -57l164 67v-1209q0 -52 17.5 -78.5t65.5 -26.5h67v-79h-1120zM543 79h186q54 0 73.5 23.5t19.5 81.5v869q0 124 -38 186.5t-143 62.5q-107 0 -152.5 -64.5
t-44.5 -184.5v-188h249v-80h-249v-601q0 -54 19 -79.5t80 -25.5z" />
    <glyph glyph-name="f_f" unicode="ff" horiz-adv-x="1307" 
d="M1496 1164q1 -40 -25.5 -68.5t-63.5 -29.5q-35 -1 -61.5 24t-33.5 65q-26 147 -145 147q-78 0 -116.5 -66t-38.5 -183v-188h249v-80h-249v-601q0 -53 19.5 -79t79.5 -26h150v-79h-1213v79h101q60 0 79.5 25.5t19.5 79.5v601h-200v80h200v159q0 174 108 266.5t274 92.5
q86 0 158 -30t108 -91q106 121 303 121q117 0 202.5 -55t94.5 -164zM816 865v159q0 16 2 44q-28 6 -48.5 29.5t-25.5 57.5q-26 147 -146 147q-78 0 -116 -66t-38 -183v-188h372zM816 184v601h-372v-601q0 -54 19 -79.5t80 -25.5h174q60 0 79.5 25.5t19.5 79.5z" />
    <glyph glyph-name="f_f_i" unicode="ffi" horiz-adv-x="1769" 
d="M1669 79h66v-79h-1687v79h101q60 0 79.5 25.5t19.5 79.5v601h-200v80h200v159q0 174 108 266.5t274 92.5q86 0 158 -30t109 -91q106 121 313 121q347 0 365 -219q1 -40 -25 -68.5t-64 -29.5q-23 0 -38.5 5t-25.5 18.5t-14 21.5t-10.5 31t-8.5 29q-31 131 -177 131
q-108 0 -154 -64.5t-46 -184.5v-188h574v-681q0 -52 17 -78.5t66 -26.5zM816 865v159q0 16 2 44q-28 6 -48.5 29.5t-25.5 57.5q-26 147 -146 147q-78 0 -116 -66t-38 -183v-188h372zM816 184v601h-372v-601q0 -54 19 -79.5t80 -25.5h174q60 0 79.5 25.5t19.5 79.5zM1296 79
q54 0 73 23.5t19 81.5v601h-376v-601q0 -53 19.5 -79t79.5 -26h185z" />
    <glyph glyph-name="f_f_l" unicode="ffl" horiz-adv-x="1766" 
d="M1669 79h67v-79h-1688v79h101q60 0 79.5 25.5t19.5 79.5v601h-200v80h200v159q0 174 108 266.5t274 92.5q86 0 158 -30t109 -91q106 121 313 121q136 0 213 -57l163 67v-1209q0 -52 17.5 -78.5t65.5 -26.5zM816 865v159q0 16 2 44q-28 6 -48.5 29.5t-25.5 57.5
q-26 147 -146 147q-78 0 -116 -66t-38 -183v-188h372zM1390 184v869q0 124 -38 186.5t-142 62.5q-107 0 -152.5 -64.5t-45.5 -184.5v-188h249v-80h-249v-601q0 -53 19.5 -79t79.5 -26h186q54 0 73.5 23.5t19.5 81.5zM816 184v601h-372v-601q0 -54 19 -79.5t80 -25.5h174
q60 0 79.5 25.5t19.5 79.5z" />
    <glyph glyph-name=".notdef" horiz-adv-x="1024" 
d="M134 0v1352h755v-1352h-755zM196 64h631v1224h-631v-1224z" />
    <glyph glyph-name=".null" 
 />
    <glyph glyph-name="nonmarkingreturn" horiz-adv-x="682" 
 />
    <glyph glyph-name="space" unicode=" " horiz-adv-x="501" 
 />
    <glyph glyph-name="exclam" unicode="!" horiz-adv-x="574" 
d="M248 446l-49 687q-1 10 -3.5 40t-4 58.5t-1.5 49.5q0 18 2.5 31.5t11 30t29.5 25.5t53 9t53 -9t30 -25.5t11.5 -30t2.5 -31.5q0 -12 -10 -137l-47 -698h-78zM287 -33q-56 0 -95.5 40t-39.5 98q0 56 39.5 96t95.5 40q55 0 94.5 -40t39.5 -96q0 -57 -39.5 -97.5
t-94.5 -40.5z" />
    <glyph glyph-name="quotedbl" unicode="&#x22;" horiz-adv-x="896" 
d="M213 714l-57 441q-12 77 -12 126q0 42 26 69t65 27q42 0 67 -27t25 -67q0 -19 -2.5 -43.5t-6.5 -50.5t-5 -34l-54 -441h-46zM640 714l-58 441q-11 71 -11 126q0 42 26 69t64 27q42 0 67 -27t25 -67q0 -25 -6.5 -73.5t-6.5 -54.5l-55 -441h-45z" />
    <glyph glyph-name="numbersign" unicode="#" horiz-adv-x="1411" 
d="M225 -38l86 410h-212v123h237l78 368h-315v124h339l86 407h124l-87 -407h420l87 407h123l-86 -407h204v-124h-227l-76 -368h303v-123h-329l-87 -410h-123l87 410h-422l-87 -410h-123zM460 495h422l75 368h-420z" />
    <glyph glyph-name="dollar" unicode="$" horiz-adv-x="1164" 
d="M663 793q59 -23 101 -42.5t91 -47.5t81.5 -59t61 -70.5t42.5 -90t14 -109.5q0 -96 -39 -175t-100.5 -126t-133 -72.5t-141.5 -25.5q-90 0 -166 21l-32 -158h-63l35 178q-157 65 -278 236v178q0 26 11.5 41.5t30.5 15.5q40 0 51 -52q16 -108 68 -193t136 -131l99 496
q-66 29 -109 50t-91.5 50t-77.5 57.5t-55 66t-37.5 83t-11.5 100.5q0 156 113.5 260t270.5 104q82 0 148 -18l22 113h64l-27 -133q105 -45 218 -179v-148q0 -26 -10.5 -41.5t-28.5 -15.5q-40 0 -52 52q-34 149 -147 228l-86 -432q3 -1 28 -11zM316 1088q0 -51 15.5 -88.5
t52 -68t78.5 -52.5t114 -51l87 440q-55 24 -115 24q-110 0 -171 -62t-61 -142zM621 66q101 0 176.5 66t75.5 176q0 98 -67 157.5t-206 112.5q-1 0 -4.5 1.5t-5.5 2.5l-99 -496q62 -20 130 -20z" />
    <glyph glyph-name="percent" unicode="%" horiz-adv-x="1721" 
d="M378 671q-68 0 -121 25t-84 63t-51 87t-27 91t-7 81q0 167 76.5 263t211.5 96q70 0 124 -25t85 -62t51 -87t26.5 -93.5t6.5 -88.5t-8.5 -90.5t-30 -93t-53.5 -84t-83.5 -59.5t-115.5 -23zM476 0l693 1352h102l-694 -1352h-101zM380 728q38 0 65.5 25t40.5 67.5t18.5 86
t5.5 93.5q0 123 -18 196t-45.5 98.5t-70.5 25.5q-67 0 -97.5 -71.5t-30.5 -223.5q0 -60 5 -107t18 -93t40.5 -71.5t68.5 -25.5zM1342 -25q-68 0 -121 25t-84 62.5t-51 86.5t-27 91t-7 82q0 166 76.5 262t211.5 96q70 0 124 -24.5t85 -62t51 -87t26.5 -93t6.5 -88.5
t-8.5 -90.5t-30 -93t-53.5 -84t-83.5 -59.5t-115.5 -23zM1344 32q38 0 65 25t40 67.5t18.5 85.5t5.5 93q0 94 -9.5 158t-28 99t-41.5 49.5t-54 14.5q-67 0 -97.5 -72t-30.5 -224q0 -60 5 -106.5t18 -92.5t40.5 -71.5t68.5 -25.5z" />
    <glyph glyph-name="ampersand" unicode="&#x26;" horiz-adv-x="1585" 
d="M473 -25q-169 0 -281.5 97t-112.5 239q0 136 94 234.5t290 201.5q-53 62 -80 97t-51 90.5t-24 110.5q0 123 85 195t223 72q133 0 212 -64.5t79 -168.5q0 -182 -229 -309q196 -216 310 -399q61 82 114 179.5t72 171.5q7 30 -8 47.5t-50 17.5h-71v78h411v-78h-55
q-26 0 -46.5 -9t-41 -33.5t-33.5 -44.5t-39 -65q-2 -4 -3.5 -6.5t-3.5 -6t-4 -6.5q-96 -200 -192 -317q32 -52 47 -75t38.5 -54.5t41 -43.5t41.5 -21.5t52 -9.5q144 0 152 201h80q0 -70 -17 -126t-45.5 -91.5t-66.5 -59.5t-78 -33.5t-83 -9.5t-80 11t-61.5 24.5t-54 44
t-45 50.5t-46.5 63q-77 -78 -191 -136t-249 -58zM619 841q175 107 175 244q0 66 -46.5 106.5t-128.5 40.5q-75 0 -119 -37.5t-41 -97.5q2 -59 43.5 -120.5t116.5 -135.5zM560 95q163 0 296 141q-78 125 -152 218.5t-188 220.5q-76 -44 -116 -70t-78 -61t-52.5 -71.5
t-14.5 -83.5q0 -66 36 -132.5t108 -114t161 -47.5z" />
    <glyph glyph-name="quotesingle" unicode="'" horiz-adv-x="474" 
d="M215 714l-58 441q-11 83 -11 126q0 42 26 69t65 27q41 0 66.5 -27.5t25.5 -66.5q0 -25 -7 -73t-7 -55l-54 -441h-46z" />
    <glyph glyph-name="parenleft" unicode="(" horiz-adv-x="509" 
d="M385 -492q-146 198 -222.5 436t-76.5 492q0 105 14 215.5t46 236.5t93.5 253.5t145.5 233.5h109q-135 -180 -217 -421t-82 -517q0 -259 73 -482t226 -447h-109z" />
    <glyph glyph-name="parenright" unicode=")" horiz-adv-x="509" 
d="M124 -492h-109q153 224 226 447t73 482q0 276 -82 517t-217 421h109q84 -106 145.5 -233.5t93.5 -253.5t46 -236.5t14 -215.5q0 -254 -76.5 -492t-222.5 -436z" />
    <glyph glyph-name="asterisk" unicode="*" horiz-adv-x="1087" 
d="M312 448q-37 0 -68 28t-31 64q0 11 3 21.5t10.5 22t14 20t21.5 22t23.5 21.5t30 25.5t31.5 26.5q25 19 46 38.5t48.5 46.5t37.5 37q17 17 12 29t-26 18q-45 12 -141 24q-19 2 -79.5 5t-79.5 6q-45 2 -70.5 24t-25.5 62q0 38 24.5 68t59.5 30q52 0 172 -86q72 -47 154 -85
q21 -11 31 -1q11 11 8 28q-23 139 -33 177q-30 102 -33 163q0 34 22.5 59.5t66.5 25.5q42 0 66 -23.5t23 -60.5q-1 -60 -28 -155q-19 -69 -35 -186q-3 -17 9 -29q8 -8 30 2q36 16 89 49t61 37q18 11 43.5 27t37 23t28 16t25.5 12.5t19.5 6.5t20.5 3q40 0 64.5 -31t24.5 -69
q0 -39 -27 -60.5t-62 -23.5q-20 -4 -81 -7.5t-79 -6.5q-97 -10 -147 -23q-22 -5 -26 -17q-5 -16 10 -31q127 -115 165 -144q66 -62 83 -87q18 -27 18 -50q0 -36 -31.5 -64t-68.5 -28q-21 0 -37.5 10t-27 28.5t-16 33t-11.5 36.5q-30 72 -46 105q-45 93 -68 133
q-10 20 -23 20q-14 0 -25 -20q-41 -76 -66 -137q-7 -18 -54 -124q-7 -18 -10 -25t-13.5 -25t-26.5 -26.5t-37 -8.5z" />
    <glyph glyph-name="plus" unicode="+" horiz-adv-x="1251" 
d="M559 121v488h-488v134h488v488h134v-488h488v-134h-488v-488h-134z" />
    <glyph glyph-name="comma" unicode="," horiz-adv-x="617" 
d="M161 -364l-7 82q105 21 161.5 87.5t56.5 128.5q0 44 -32 41q-5 -1 -22.5 -5.5t-33.5 -4.5q-44 0 -81.5 35.5t-37.5 93.5q0 55 36.5 97.5t101.5 42.5q80 0 126 -61t46 -163q0 -80 -27.5 -148t-73.5 -113.5t-100.5 -74t-112.5 -38.5z" />
    <glyph glyph-name="hyphen" unicode="-" horiz-adv-x="875" 
d="M142 323v168h592v-168h-592z" />
    <glyph glyph-name="period" unicode="." horiz-adv-x="599" 
d="M300 -33q-56 0 -95.5 40t-39.5 98q0 56 39.5 96t95.5 40q55 0 94.5 -40t39.5 -96q0 -57 -39.5 -97.5t-94.5 -40.5z" />
    <glyph glyph-name="slash" unicode="/" horiz-adv-x="833" 
d="M-32 -33l717 1387h178l-714 -1387h-181z" />
    <glyph glyph-name="zero" unicode="0" horiz-adv-x="1042" 
d="M521 -25q-40 0 -79.5 9t-82 32.5t-80.5 59t-72.5 91.5t-59 127.5t-39 171t-14.5 217.5q0 339 118.5 515t308.5 176q66 0 126.5 -22.5t116 -75t96 -131t65 -199t24.5 -270.5q0 -347 -116.5 -524t-311.5 -177zM525 57q116 0 168.5 143.5t52.5 450.5q0 335 -52.5 488.5
t-173.5 153.5q-223 0 -223 -613q0 -317 53 -470t175 -153z" />
    <glyph glyph-name="one" unicode="1" horiz-adv-x="1042" 
d="M743 79h165v-79h-733v79h181q53 0 74.5 24t21.5 72v1037q-61 -40 -122.5 -55.5t-175.5 -15.5v77q104 2 174 16t124 46v4l4 -2q54 34 102 92h91v-1196q0 -49 18.5 -74t75.5 -25z" />
    <glyph glyph-name="two" unicode="2" horiz-adv-x="1042" 
d="M923 296h76l-114 -344h-78q9 25 1.5 36.5t-40.5 11.5h-676v86q285 253 423 462q177 247 177 456q0 124 -61 205t-171 81q-99 0 -164.5 -63t-65.5 -155q0 -67 42 -143l-117 -54q-55 97 -55 175q0 142 118 233t284 91q172 0 282.5 -99.5t110.5 -263.5q0 -111 -59 -222
t-175 -250q-124 -147 -197.5 -225t-185.5 -182h508q44 0 68 12t35 49z" />
    <glyph glyph-name="three" unicode="3" horiz-adv-x="1042" 
d="M425 -25q-145 0 -242 62.5t-113 150.5q-4 42 18.5 63.5t55.5 22.5q19 1 33.5 -5.5t25 -21t15 -24t11.5 -27.5q69 -139 211 -139q144 0 226.5 102.5t82.5 262.5q0 85 -20 142.5t-54 84t-65.5 36t-67.5 9.5q-51 0 -95 -28l-63 -46l-50 64l142 92q237 146 237 315
q0 97 -64.5 147.5t-157.5 50.5q-97 0 -163.5 -52.5t-66.5 -135.5q0 -52 42 -119l-127 -57q-50 73 -50 148q0 87 58.5 156.5t152.5 107t202 37.5q93 0 174 -27t135.5 -86.5t54.5 -140.5q0 -192 -297 -344q148 2 246.5 -82t98.5 -246q0 -104 -44 -194t-117.5 -150.5
t-168 -94.5t-196.5 -34z" />
    <glyph glyph-name="four" unicode="4" horiz-adv-x="1042" 
d="M384 0v79h106q62 0 80.5 25t18.5 82v285h-537v117l607 783h126v-805h194v-95h-194v-287q0 -24 3 -40t12.5 -32.5t31 -24.5t54.5 -8h94v-79h-596zM146 566h443v582h-11l-432 -566v-16z" />
    <glyph glyph-name="five" unicode="5" horiz-adv-x="1042" 
d="M527 897q77 0 149.5 -26t133.5 -76.5t98 -136t37 -194.5q0 -103 -32.5 -188t-85 -139.5t-120 -92t-135.5 -53.5t-134 -16q-76 0 -147.5 19.5t-130 64t-76.5 105.5q-3 31 18 55t50 26q32 3 52.5 -17t39.5 -59q35 -49 93 -80t122 -31q128 0 203.5 115.5t75.5 290.5
q0 69 -12.5 127t-40 108.5t-79 79.5t-121.5 29q-143 0 -208 -125h-96l26 669h675l-52 -158h-550l-16 -404q42 52 113.5 79.5t149.5 27.5z" />
    <glyph glyph-name="six" unicode="6" horiz-adv-x="1042" 
d="M543 -25q-89 0 -167.5 34.5t-141.5 103t-99.5 183.5t-36.5 265q0 202 43 360.5t117.5 255.5t169.5 147t205 50t188 -42t102 -112q4 -29 -14 -53.5t-49 -27.5q-24 -3 -44 9.5t-42 47.5q-72 93 -186 93q-66 0 -116.5 -38.5t-80 -97.5t-49 -142t-27 -158t-9.5 -161
q70 161 255 161q58 0 112.5 -14t107 -47t91.5 -81t62.5 -122t23.5 -165q0 -105 -35 -192t-93.5 -142t-132.5 -85t-154 -30zM540 57q108 0 161.5 89.5t53.5 247.5q0 378 -232 378q-57 0 -99 -25.5t-67 -74.5t-38.5 -108t-19.5 -137q12 -185 70.5 -277.5t170.5 -92.5z" />
    <glyph glyph-name="seven" unicode="7" horiz-adv-x="1042" 
d="M408 -22q-39 1 -59.5 14.5t-22.5 39.5t7.5 57.5t29.5 74.5l467 1030h-544q-44 0 -68.5 -12t-35.5 -50l-34 -102h-76l119 369h79q-9 -24 -2.5 -35.5t40.5 -11.5h662l-456 -1263q-19 -61 -42.5 -86.5t-63.5 -24.5z" />
    <glyph glyph-name="eight" unicode="8" horiz-adv-x="1042" 
d="M523 -25q-66 0 -128.5 12.5t-122.5 42t-105 73t-72 110t-27 147.5q0 71 20.5 129t52 95.5t75 66t82.5 43.5t83 25q-265 78 -265 312q0 71 23 129t62 97t91 66t109.5 39t118.5 12q81 0 152 -21t129 -61.5t91.5 -107.5t33.5 -153q0 -70 -25 -127t-66.5 -93t-82 -57.5
t-84.5 -34.5q308 -75 308 -357q0 -96 -37.5 -172t-101.5 -122t-144 -69.5t-170 -23.5zM522 754q210 0 210 280q0 118 -52 189.5t-160 71.5q-75 0 -123.5 -36.5t-68 -92t-19.5 -128.5q0 -284 213 -284zM522 54q129 0 190 85t61 219q0 157 -61 237t-193 80q-128 0 -188 -81.5
t-60 -216.5q0 -323 251 -323z" />
    <glyph glyph-name="nine" unicode="9" horiz-adv-x="1042" 
d="M410 -25q-109 0 -186 42t-103 112q-4 29 13.5 54t49.5 27q43 6 85 -56q74 -94 186 -94q66 0 116.5 38.5t80 97t49 142t27.5 158.5t10 161q-70 -161 -255 -161q-58 0 -113 14t-107.5 47t-91.5 81t-62.5 122t-23.5 165q0 105 35 192t93.5 142t132.5 85t155 30
q89 0 167 -34.5t141 -103t99.5 -184t36.5 -264.5q0 -163 -28 -298t-77.5 -229t-117.5 -159.5t-146.5 -96t-165.5 -30.5zM520 578q76 0 125 47.5t70 119.5t29 177q-11 185 -70 278t-171 93q-108 0 -161.5 -90t-53.5 -247q0 -378 232 -378z" />
    <glyph glyph-name="colon" unicode=":" horiz-adv-x="598" 
d="M299 617q-56 0 -96.5 40t-40.5 97t40.5 97t96.5 40t96 -40t40 -97t-40 -97t-96 -40zM299 -33q-56 0 -96.5 40.5t-40.5 97.5q0 56 40.5 96t96.5 40t96 -40t40 -96q0 -57 -40 -97.5t-96 -40.5z" />
    <glyph glyph-name="semicolon" unicode=";" horiz-adv-x="610" 
d="M300 617q-55 0 -95 40t-40 97t39.5 97t95.5 40t95 -40t39 -97t-39 -97t-95 -40zM161 -364l-7 82q105 21 162 87.5t57 128.5q0 44 -33 41q-5 -1 -22.5 -5.5t-33.5 -4.5q-44 0 -81.5 35.5t-37.5 93.5q0 55 36.5 97.5t101.5 42.5q80 0 126 -61t46 -163q0 -80 -27.5 -148
t-73.5 -113.5t-100.5 -74t-112.5 -38.5z" />
    <glyph glyph-name="less" unicode="&#x3c;" horiz-adv-x="1190" 
d="M1065 1175v-146l-832 -355l832 -355v-145l-986 429v143z" />
    <glyph glyph-name="equal" unicode="=" horiz-adv-x="1559" 
d="M224 846v134h1110v-134h-1110zM224 371v134h1110v-134h-1110z" />
    <glyph glyph-name="greater" unicode="&#x3e;" horiz-adv-x="1190" 
d="M125 1175l986 -429v-143l-986 -429v145l832 355l-832 355v146z" />
    <glyph glyph-name="question" unicode="?" horiz-adv-x="871" 
d="M405 1377q180 0 290 -112.5t110 -274.5q0 -83 -28 -152t-74.5 -112t-104 -66.5t-117.5 -23.5q-55 0 -110 18v-206h-88v307h70q33 -26 79 -26q47 0 83 25t56 64t29.5 80t9.5 80q0 47 -12.5 99.5t-37 103t-69.5 83t-102 32.5q-63 0 -115.5 -36.5t-72.5 -107.5
q-3 -15 -7 -25t-12.5 -23.5t-23 -20t-34.5 -6.5q-26 2 -47 21t-19 49q18 94 112.5 162t234.5 68zM327 241q55 0 94 -40t39 -96q0 -58 -39 -98t-94 -40t-95 40.5t-40 97.5q0 56 39.5 96t95.5 40z" />
    <glyph glyph-name="at" unicode="@" horiz-adv-x="1937" 
d="M992 -449q-185 0 -348.5 63.5t-282.5 175t-188 272.5t-69 347q0 201 68 378t189 308t300 206.5t391 75.5q172 0 309 -50t226 -138.5t136 -208t47 -259.5q0 -133 -41.5 -264t-113.5 -235.5t-179.5 -169t-229.5 -64.5q-125 0 -163.5 66t-13.5 198q-32 -51 -62.5 -90.5
t-72 -83t-89.5 -67.5t-96 -24q-106 0 -154.5 101t-27.5 242q10 123 59 240t116 199t145.5 132t146.5 50q88 0 130 -60.5t48 -153.5l52 183l154 6l-199 -686q-54 -194 89 -194q71 0 150.5 53t147 140.5t111.5 214t44 259.5t-45.5 245.5t-129 193.5t-207.5 126.5t-274 45.5
q-198 0 -365.5 -74t-280.5 -200.5t-176 -297t-63 -362.5q0 -232 109.5 -414t294 -279t408.5 -97q119 0 237.5 34.5t227.5 100t199 173t142 243.5h52q-46 -117 -113 -212.5t-142.5 -159t-155.5 -110t-162.5 -71.5t-151.5 -36t-133 -11zM793 107q61 0 133.5 78t128 199.5
t68.5 238.5q18 123 -13 196.5t-98 73.5q-45 0 -92 -40t-84 -101t-68.5 -135t-51.5 -141.5t-28 -120.5q-18 -108 13.5 -178t91.5 -70z" />
    <glyph glyph-name="A" unicode="A" horiz-adv-x="1355" 
d="M1294 82l56 -3v-79h-549v79l103 3q32 1 47.5 17.5t6.5 45.5l-101 278h-503l-97 -263q-12 -37 11 -57.5t60 -21.5l102 -2v-79h-425v79l42 6q102 42 136 138l443 1154h102l430 -1154q24 -63 53 -97.5t83 -43.5zM385 505h443l-203 560h-33z" />
    <glyph glyph-name="B" unicode="B" horiz-adv-x="1331" 
d="M894 723q47 -10 91.5 -26t93.5 -46t85 -68.5t59 -96t22 -126.5q-1 -85 -36.5 -151t-89 -104t-124.5 -62.5t-134.5 -33t-128.5 -8.5h-668v79h91q50 0 69 30.5t19 89.5v951q0 118 -79 118h-100v84l721 -2q191 -1 297 -88t104 -233q-1 -57 -21 -105.5t-50.5 -81t-70.5 -58
t-76.5 -39.5t-73.5 -23zM674 1276h-218v-512h216q146 0 213.5 60t70.5 190q2 128 -72 195t-210 67zM1012 378q1 88 -25 149t-76 93t-108.5 45t-135.5 13h-211v-481q0 -111 78 -111h181q76 0 134 23.5t92.5 65t51.5 92.5t19 111z" />
    <glyph glyph-name="C" unicode="C" horiz-adv-x="1486" 
d="M733 -25q-148 0 -272.5 58.5t-206 156.5t-127 222.5t-45.5 258.5q0 107 28.5 210t85 192.5t134 157.5t183 107t225.5 39q135 0 256.5 -67t212.5 -199l23 214h78l7 -478h-77q-15 74 -52.5 148t-95 140.5t-143 108.5t-182.5 42q-115 0 -202.5 -54t-138 -146t-75.5 -201.5
t-25 -232.5q0 -265 118.5 -425.5t329.5 -160.5q106 0 201.5 50.5t169 153.5t104.5 243h79v-487h-79l-32 220q-55 -110 -183.5 -190.5t-298.5 -80.5z" />
    <glyph glyph-name="D" unicode="D" horiz-adv-x="1544" 
d="M57 0v79h107q49 0 68 31t19 89v956q0 58 -19 88.5t-71 30.5h-104v78h590q150 0 275 -25t225.5 -78t170 -132.5t107 -191.5t37.5 -252q0 -177 -57.5 -307.5t-166 -210t-255.5 -117.5t-336 -38h-590zM585 85h193q138 0 240 79.5t152 211.5t50 298q0 157 -43 276.5
t-117.5 189.5t-166 104t-198.5 34h-231v-1058q0 -69 22 -102t99 -33z" />
    <glyph glyph-name="E" unicode="E" horiz-adv-x="1365" 
d="M1184 446l78 -2l-23 -444h-1184v79h95q57 0 78.5 30.5t21.5 89.5v954q0 64 -23 91.5t-91 27.5h-81v80h1119l20 -350l-78 -1l-28 163q-22 64 -55.5 83.5t-97.5 19.5h-472v-517h297q110 0 110 79v104h81v-460h-81v102q0 52 -28.5 71t-79.5 19h-299v-446q0 -69 20 -101.5
t87 -32.5h382q92 0 130 25.5t55 87.5z" />
    <glyph glyph-name="F" unicode="F" horiz-adv-x="1223" 
d="M57 0v79h81q66 0 89 28t23 92v954q0 65 -23.5 92t-92.5 27h-79v80h1110l15 -354l-81 -2l-20 153q-12 41 -31 66.5t-45 36t-43.5 13t-43.5 2.5h-453v-514h285q51 0 78 22.5t27 77.5v81h79v-463h-79v88q0 55 -24.5 82t-81.5 27h-284v-469q0 -61 24 -90.5t94 -29.5h96v-79
h-620z" />
    <glyph glyph-name="G" unicode="G" horiz-adv-x="1544" 
d="M757 -25q-156 0 -285.5 57.5t-213.5 154t-130 220.5t-46 260q0 140 49 269.5t134.5 226.5t208.5 155.5t262 58.5q161 0 284 -75t188 -186l22 225h76l7 -464h-78q-14 56 -38.5 109.5t-64.5 107.5t-90 94.5t-119.5 65.5t-147.5 25q-96 0 -173.5 -37t-128.5 -97.5
t-85.5 -142.5t-49 -168.5t-14.5 -178.5t14.5 -175.5t48.5 -160t85 -132t128.5 -88.5t173.5 -33q156 0 251.5 78t115.5 238q0 64 -27 91.5t-92 27.5h-275v80h748v-80h-61q-46 0 -62.5 -30.5t-16.5 -93.5v-402h-86l-74 190q-90 -106 -194.5 -148t-243.5 -42z" />
    <glyph glyph-name="H" unicode="H" horiz-adv-x="1674" 
d="M59 0v79h108q63 0 85.5 29t22.5 91v954q0 61 -22 90t-86 29h-108v80h642v-80h-107q-63 0 -84.5 -29t-21.5 -90v-394h698v394q0 60 -21.5 89.5t-84.5 29.5h-108v80h643v-80h-108q-64 0 -86 -29t-22 -90v-954q0 -62 22.5 -91t85.5 -29h108v-79h-643v79h116q58 0 78 30.5
t20 89.5v471h-698v-471q0 -59 20 -89.5t78 -30.5h115v-79h-642z" />
    <glyph glyph-name="I" unicode="I" horiz-adv-x="764" 
d="M57 0v79h102q70 0 93 28.5t23 91.5v956q0 63 -23 91t-93 28h-102v80h650v-80h-101q-71 0 -94.5 -27t-23.5 -92v-956q0 -66 23.5 -93t94.5 -27h101v-79h-650z" />
    <glyph glyph-name="J" unicode="J" horiz-adv-x="771" 
d="M67 -492q-67 0 -128.5 15t-112 43.5t-81 76.5t-30.5 109q0 43 33.5 73.5t84.5 30.5q44 0 74 -24t30 -67q0 -16 -14 -41t-10 -40q16 -52 65 -74.5t111 -22.5q135 0 190.5 102t55.5 321v1143q0 28 -3.5 46t-14.5 36.5t-35 27.5t-63 9h-193v80h717v-80h-85
q-65 0 -87.5 -28.5t-22.5 -90.5v-1088q0 -57 -3 -103t-14.5 -106.5t-31 -106.5t-56 -93t-86 -78t-123.5 -50.5t-167 -19.5z" />
    <glyph glyph-name="K" unicode="K" horiz-adv-x="1617" 
d="M56 0v79h106q59 0 82 26.5t23 93.5v954q0 65 -23 92t-89 27h-99v80h644v-80h-108q-70 0 -91 -30.5t-21 -91.5v-545l508 519q63 62 63 99q0 24 -18 36.5t-45 12.5h-96v80h586v-80h-105q-40 0 -75.5 -11t-72.5 -38.5t-54.5 -43t-57.5 -54.5l-240 -245l433 -656
q52 -80 90 -112.5t94 -32.5h113v-79h-670v79h97q35 0 58 13t23 38q0 9 -7.5 25t-16.5 29.5l-24 36t-22 33.5l-320 486l-241 -252v-289q0 -63 19.5 -90t72.5 -28l118 -2l1 -79h-635z" />
    <glyph glyph-name="L" unicode="L" horiz-adv-x="1300" 
d="M57 0v79h109q62 0 86 25.5t24 94.5v954q0 64 -22.5 91.5t-89.5 27.5h-107v80h654v-80h-106q-68 0 -92 -26.5t-24 -92.5v-938q0 -35 3.5 -55.5t14.5 -39.5t35.5 -27t64.5 -8h304q189 0 233 178l24 187l76 -2l-22 -448h-1165z" />
    <glyph glyph-name="M" unicode="M" horiz-adv-x="1973" 
d="M1810 79h110v-79h-653v79h99q68 0 91.5 27t23.5 93v960h-21l-521 -1159h-78l-515 1159h-14v-916q0 -164 112 -164h83v-79h-470v79h83q30 0 52 13t32.5 29.5t16 43t6.5 42t1 37.5v907q0 60 -21 90.5t-89 30.5h-81v80h428l483 -1086l492 1086h457v-80h-107q-72 0 -94 -30
t-22 -89v-954q0 -28 3.5 -46.5t14.5 -37t35.5 -27.5t62.5 -9z" />
    <glyph glyph-name="N" unicode="N" horiz-adv-x="1543" 
d="M1038 1352h473v-80h-82q-55 0 -80 -43t-25 -109v-1143h-93l-892 1154v-894q0 -23 2 -41.5t9 -41.5t19 -38.5t35 -26t54 -10.5h80v-79h-483v79h81q115 0 115 158v893q0 65 -30.5 103.5t-90.5 38.5h-78v80h387l798 -1037v806q0 24 -4 46t-14.5 48t-35.5 41.5t-61 15.5h-84
v80z" />
    <glyph glyph-name="O" unicode="O" horiz-adv-x="1519" 
d="M761 -25q-204 0 -359 91.5t-236.5 251t-81.5 362.5q0 106 27 207t83 190t134.5 156t188.5 105.5t238 38.5q135 0 248 -40t191.5 -107.5t133.5 -158t81 -191t26 -206.5q0 -110 -27.5 -212.5t-83.5 -191t-135 -154.5t-189 -103.5t-239 -37.5zM755 66q207 0 319.5 155.5
t112.5 454.5q0 302 -115.5 456t-314.5 154q-140 0 -238 -79.5t-143.5 -212.5t-45.5 -308q0 -93 14 -180t46.5 -168t80.5 -140.5t121 -95.5t163 -36z" />
    <glyph glyph-name="P" unicode="P" horiz-adv-x="1241" 
d="M56 0v79h85q64 0 87 28t23 92v956q0 58 -22 88.5t-94 30.5h-83v78h587q96 0 175 -10t151.5 -35.5t121.5 -66t78.5 -104.5t29.5 -148q0 -188 -134 -279.5t-367 -91.5h-230v-418q0 -28 3.5 -46.5t14.5 -37t36 -27.5t63 -9h82v-79h-607zM464 703h212q289 0 289 282
q0 149 -74.5 220t-211.5 71h-215v-573z" />
    <glyph glyph-name="Q" unicode="Q" horiz-adv-x="1519" 
d="M761 -25q-204 0 -359 91.5t-236.5 251t-81.5 362.5q0 106 27 207t83 190t134.5 156t188.5 105.5t238 38.5q135 0 248 -40t191.5 -107.5t133.5 -158t81 -191t26 -206.5q0 -110 -27.5 -212.5t-83.5 -191t-135 -154.5t-189 -103.5t-239 -37.5zM755 66q207 0 319.5 155.5
t112.5 454.5q0 302 -115.5 456t-314.5 154q-140 0 -238 -79.5t-143.5 -212.5t-45.5 -308q0 -93 14 -180t46.5 -168t80.5 -140.5t121 -95.5t163 -36zM1329 -470q-53 0 -102 11.5t-80 24t-72.5 42.5t-57 44t-57.5 52q-137 123 -248 123q-52 0 -112.5 -34.5t-143.5 -109.5
l-47 52q98 90 176.5 133t166.5 43q128 0 306 -108q87 -54 157.5 -83t147.5 -29q132 0 216 78l80 -100q-119 -139 -330 -139z" />
    <glyph glyph-name="R" unicode="R" horiz-adv-x="1485" 
d="M54 0v79h81q68 0 92 27t24 93v956q0 63 -22.5 90t-86.5 27h-88v80h686q218 0 346 -91t128 -275q0 -245 -292 -331q43 -30 76 -69.5t80 -113.5l203 -306q28 -45 70.5 -66t76.5 -21h53v-79h-328l-279 448q-62 101 -109 134.5t-120 33.5h-181v-417q0 -64 23.5 -92t90.5 -28
h81v-79h-605zM464 703h212q316 0 316 285q0 142 -80 211t-228 69h-220v-565z" />
    <glyph glyph-name="S" unicode="S" horiz-adv-x="1143" 
d="M637 -25q-124 0 -231 54t-171 161l-18 -168h-84v465h84q7 -84 35.5 -158t77.5 -133.5t123 -94.5t165 -35q101 0 176.5 66t75.5 176q0 98 -67 157.5t-206 112.5q-197 85 -266 128q-131 80 -167 191q-17 52 -17 117q0 156 113.5 260t270.5 104q92 0 180 -45t145 -126
l20 147h80v-398h-80q-19 155 -115.5 245.5t-215.5 90.5q-110 0 -171 -62t-61 -142q0 -57 17 -96.5t71.5 -75.5t93.5 -54t146 -61q13 -5 19 -8q59 -23 101 -42.5t91 -47.5t81.5 -59t61 -70.5t42.5 -90t14 -109.5q0 -96 -39 -175t-100.5 -126t-133 -72.5t-141.5 -25.5z" />
    <glyph glyph-name="T" unicode="T" horiz-adv-x="1375" 
d="M365 0v79h100q71 0 94 31t23 89v1068h-274q-32 0 -55.5 -4.5t-51.5 -19t-45.5 -49.5t-22.5 -89l-8 -124l-79 2l10 369h1264l10 -369l-80 -2l-10 126q-12 53 -28.5 86t-40.5 48.5t-47 20.5t-60 5h-269v-1068q0 -29 3 -46.5t14 -36.5t35.5 -28t63.5 -9h100v-79h-646z" />
    <glyph glyph-name="U" unicode="U" horiz-adv-x="1502" 
d="M758 -25q-268 0 -407 136t-139 401v641q0 62 -22.5 90.5t-91.5 28.5h-76v80h631v-80h-113q-68 0 -91.5 -27t-23.5 -92v-641q0 -215 91.5 -328t292.5 -113q215 0 308.5 117t93.5 344v597q0 65 -29.5 104t-93.5 39h-71v80h455v-80h-67q-56 0 -81.5 -38.5t-25.5 -102.5v-601
q0 -555 -540 -555z" />
    <glyph glyph-name="V" unicode="V" horiz-adv-x="1439" 
d="M983 1352h451v-80h-58q-52 0 -83.5 -39.5t-78.5 -153.5l-422 -1106h-106l-467 1145q-18 42 -26.5 60t-22 41.5t-25.5 31.5t-29.5 14.5t-41.5 6.5h-69v80h628v-80h-127q-68 0 -83.5 -34.5t13.5 -98.5l369 -908l332 874q65 167 -65 167h-89v80z" />
    <glyph glyph-name="W" unicode="W" horiz-adv-x="1952" 
d="M1518 1352h427v-80h-46q-49 0 -77 -44t-55 -145l-299 -1108h-134l-357 1116l-320 -1116h-136l-346 1164q-23 79 -46.5 106t-71.5 27h-50v80h570v-80h-127q-56 0 -69 -35t9 -97l266 -899l316 1120h126l357 -1114l221 832q11 43 15 73.5t0.5 60t-23 44.5t-55.5 15h-95v80z
" />
    <glyph glyph-name="X" unicode="X" horiz-adv-x="1629" 
d="M49 0v79h60q52 0 97.5 30.5t95.5 88.5l407 458l-388 474q-66 87 -100.5 114.5t-87.5 27.5h-96v80h662v-80h-104q-54 0 -62.5 -31.5t32.5 -84.5l288 -348l300 339q49 57 39 91t-72 34h-112v80h525v-80h-72q-32 0 -57.5 -8t-53.5 -32t-41.5 -38.5t-49.5 -56.5l-351 -396
l411 -507q34 -44 51 -64.5t43.5 -46t52 -35t56.5 -9.5h84v-79h-710v79h128q74 0 86.5 35.5t-38.5 103.5l-309 370l-330 -374q-49 -57 -35.5 -96t82.5 -39h127v-79h-558z" />
    <glyph glyph-name="Y" unicode="Y" horiz-adv-x="1371" 
d="M361 0v79h122q68 0 89.5 29t21.5 90v305l-389 652q-35 62 -64.5 89.5t-69.5 27.5h-67v80h577v-80h-94q-54 0 -60.5 -36.5t25.5 -84.5l323 -539l304 507q40 67 27.5 110t-77.5 43h-74v80h413v-80h-38q-64 0 -134 -120l-387 -637l-1 -316q0 -64 22 -92t90 -28h121v-79h-680
z" />
    <glyph glyph-name="Z" unicode="Z" horiz-adv-x="1354" 
d="M1194 424l79 -2l-32 -422h-1164v92l892 1183h-534q-107 0 -160.5 -25t-74.5 -103l-24 -148l-78 1l30 360h1098v-90l-901 -1185h612q88 0 140.5 26.5t83.5 112.5z" />
    <glyph glyph-name="bracketleft" unicode="[" horiz-adv-x="682" 
d="M182 -475v1827h486v-78h-208q-60 0 -79 -23.5t-19 -70.5v-1492q0 -43 20.5 -64.5t83.5 -21.5h202v-77h-486z" />
    <glyph glyph-name="backslash" unicode="\" horiz-adv-x="833" 
d="M865 -33h-181l-714 1387h178z" />
    <glyph glyph-name="bracketright" unicode="]" horiz-adv-x="682" 
d="M500 -475h-486v77h202q63 0 83.5 21.5t20.5 64.5v1492q0 47 -19 70.5t-79 23.5h-208v78h486v-1827z" />
    <glyph glyph-name="asciicircum" unicode="^" horiz-adv-x="1045" 
d="M973 636h-157l-292 527l-299 -527h-153l406 718h92z" />
    <glyph glyph-name="underscore" unicode="_" horiz-adv-x="1327" 
d="M139 -200v120h1049v-120h-1049z" />
    <glyph glyph-name="grave" unicode="`" horiz-adv-x="530" 
d="M414 1030l-412 318v4h270l208 -322h-66z" />
    <glyph glyph-name="a" unicode="a" horiz-adv-x="1050" 
d="M297 -20q-114 0 -164 54.5t-50 137.5q0 97 66.5 160.5t197.5 126.5l292 142q-4 125 -42.5 168t-140.5 43q-54 0 -93 -12.5t-61 -36t-33.5 -44.5t-20.5 -50q-14 -79 -86 -76q-38 1 -56.5 23.5t-16.5 54.5q13 91 115 156.5t295 65.5q184 0 261.5 -68.5t76.5 -223.5l-1 -374
q0 -74 16.5 -111t54.5 -37q66 0 73 111h64q-2 -104 -56.5 -157t-145.5 -53q-82 0 -127 43.5t-65 134.5q-170 -178 -353 -178zM381 81q135 0 259 170v266l-254 -143q-63 -36 -89 -76t-26 -90q0 -63 29 -95t81 -32z" />
    <glyph glyph-name="b" unicode="b" horiz-adv-x="1121" 
d="M636 -24q-183 0 -321 144l-98 -132h-65v1165q0 55 -18 81t-68 20l-76 -17l-5 79l364 72v-613q124 118 291 118q172 0 293.5 -129.5t121.5 -327.5q0 -101 -34.5 -188.5t-92.5 -146t-134 -92t-158 -33.5zM583 74q66 0 119 34t83.5 89t46.5 115.5t16 120.5q0 94 -29.5 175
t-90.5 133.5t-142 52.5q-74 0 -135.5 -36.5t-101.5 -89.5v-460q41 -57 101.5 -95.5t132.5 -38.5z" />
    <glyph glyph-name="c" unicode="c" horiz-adv-x="954" 
d="M517 -28q-198 0 -325.5 125t-127.5 326q0 207 136.5 338.5t337.5 131.5q76 0 145 -19t125 -66.5t69 -115.5q3 -38 -16.5 -65t-55.5 -28q-29 -1 -49.5 16.5t-27.5 35t-13 42.5q-57 120 -186 120q-68 0 -120 -34t-80.5 -88.5t-42.5 -113t-14 -116.5q0 -190 74.5 -293
t207.5 -103q55 0 102.5 18t80 47.5t54.5 62t36 68.5l72 -33q-24 -55 -55 -97.5t-75.5 -80t-108.5 -58t-143 -20.5z" />
    <glyph glyph-name="d" unicode="d" horiz-adv-x="1150" 
d="M464 -24q-176 0 -285 130t-109 321q0 102 29 184.5t73 133.5t100.5 85.5t108.5 48.5t100 14q70 0 150 -29t141 -93v380q0 53 -20 80.5t-71 20.5l-71 -17l-5 78l363 75v-1208q0 -46 14.5 -71.5t58.5 -25.5h70v-83h-318l-10 111q-75 -63 -148.5 -99t-170.5 -36zM533 79
q64 0 130.5 34.5t108.5 104.5v458q-92 114 -230 114q-126 0 -195 -101t-69 -249q0 -157 69.5 -259t185.5 -102z" />
    <glyph glyph-name="e" unicode="e" horiz-adv-x="974" 
d="M506 -28q-189 0 -314.5 129.5t-125.5 333.5q0 102 34 188.5t92.5 145.5t138 91.5t168.5 32.5q75 0 146 -26.5t132.5 -78t100 -140.5t39.5 -202h-643q0 -67 14.5 -130.5t45 -123t87.5 -95.5t134 -36q82 0 150 46.5t111 128.5l68 -40q-54 -103 -154 -163.5t-224 -60.5z
M275 522h452q-4 53 -19 102t-41.5 92t-69.5 69t-97 26t-97 -26t-69 -69.5t-40.5 -92.5t-18.5 -101z" />
    <glyph glyph-name="f" unicode="f" horiz-adv-x="739" 
d="M48 0v79h101q60 0 79.5 25.5t19.5 79.5v601h-200v80h200v159q0 174 108 266.5t274 92.5q75 0 137.5 -21.5t108 -72.5t51.5 -125q1 -40 -25 -68.5t-64 -29.5q-35 -1 -61.5 24t-32.5 65q-26 147 -146 147q-78 0 -116 -66t-38 -183v-188h249v-80h-249v-601q0 -54 19 -79.5
t80 -25.5h150v-79h-645z" />
    <glyph glyph-name="g" unicode="g" horiz-adv-x="1062" 
d="M484 -519q-56 0 -106.5 4.5t-111 20t-104 40.5t-73 70.5t-29.5 105.5q0 161 205 208q-79 19 -121.5 61t-42.5 119q0 83 53 135t161 79q-63 19 -108 53.5t-67 74.5t-31.5 75.5t-9.5 68.5q0 132 107 214t283 82q190 0 300 -110q93 108 173 108q38 0 64 -22.5t34 -63.5
q4 -26 -7.5 -43.5t-34.5 -18.5q-25 -1 -44 26q-22 31 -52 31q-24 0 -49 -19.5t-42 -49.5q37 -64 37 -135q0 -79 -35.5 -139.5t-94.5 -95t-125 -51.5t-138 -19q-243 -5 -243 -125q0 -40 32.5 -60t94.5 -26q22 -3 55.5 -4t60 -1t70.5 0.5t67 0.5q88 0 153 -11t119 -38t82 -78
t28 -127q0 -149 -132 -244.5t-378 -95.5zM485 375q89 0 142.5 59.5t53.5 165.5q0 32 -11.5 67.5t-34 68.5t-62.5 54.5t-89 21.5t-88.5 -21t-62 -54t-34 -68.5t-11.5 -69.5q0 -28 7 -57.5t22.5 -59.5t38 -53.5t56 -38.5t73.5 -15zM492 -440q171 0 276.5 55.5t105.5 162.5
q0 48 -23.5 76.5t-95 45.5t-200.5 17q-198 -1 -286.5 -47.5t-88.5 -141.5q0 -168 312 -168z" />
    <glyph glyph-name="h" unicode="h" horiz-adv-x="1177" 
d="M26 0v79h72q53 0 70.5 25.5t17.5 79.5v965q0 53 -18 79t-67 20l-75 -16l-6 78l364 78v-732q65 104 152.5 170.5t184.5 66.5q137 0 210 -79t73 -239v-391q0 -105 86 -105h71v-79h-507v79h79q75 0 75 106v387q0 102 -36 154t-119 52q-43 0 -85.5 -23.5t-76.5 -63.5
t-60.5 -84t-46.5 -92v-331q0 -46 17 -75.5t53 -29.5h78v-79h-506z" />
    <glyph glyph-name="i" unicode="i" horiz-adv-x="610" 
d="M330 1148q-56 0 -91 40.5t-35 88.5q0 53 37 91t89 38t89 -38t37 -91q0 -58 -37 -93.5t-89 -35.5zM59 0v79h78q54 0 73 23.5t19 81.5v476q0 60 -19.5 83.5t-73.5 17.5l-77 -16l-6 78l373 74v-713q0 -52 17.5 -78.5t65.5 -26.5h67v-79h-517z" />
    <glyph glyph-name="j" unicode="j" horiz-adv-x="544" 
d="M287 1148q-56 0 -91 40.5t-35 88.5q0 53 37 91t89 38t88.5 -38t36.5 -91q0 -58 -36.5 -93.5t-88.5 -35.5zM6 -524q-108 0 -179.5 50.5t-80.5 143.5q-1 35 20.5 59t54.5 25q28 1 49 -16.5t29 -49.5q27 -129 140 -129q155 0 155 278v822q0 56 -20.5 82t-82.5 19l-73 -17
l-5 79l378 75v-970q0 -232 -88 -341.5t-297 -109.5z" />
    <glyph glyph-name="k" unicode="k" horiz-adv-x="1214" 
d="M24 0v79h77q51 0 68 25t17 80v968q0 56 -19 81.5t-70 19.5l-73 -17l-6 79l366 73v-988l354 285q50 42 48.5 71t-56.5 29h-45v80h433v-80h-57q-83 0 -159 -71l-170 -137l298 -385q26 -37 41.5 -57t38 -38t42.5 -18h51v-79h-491v79h92q27 0 36 14.5t2.5 36t-25.5 48.5
l-228 293l-205 -169v-118q0 -105 67 -105h86v-79h-513z" />
    <glyph glyph-name="l" unicode="l" horiz-adv-x="567" 
d="M24 0v79h77q51 0 68 25t17 80v968q0 56 -19 81.5t-70 19.5l-73 -17l-6 79l366 73v-1204q0 -105 67 -105h86v-79h-513z" />
    <glyph glyph-name="m" unicode="m" horiz-adv-x="1900" 
d="M62 0v79h72q53 0 70.5 25.5t17.5 79.5v466q0 53 -18 79.5t-67 20.5l-75 -17l-6 79l364 78v-234q72 101 172.5 169t198.5 68q235 0 271 -238q73 102 176 170t204 68q137 0 210.5 -79t73.5 -239v-391q0 -105 86 -105h70v-79h-506v79h78q74 0 74 106v387q0 102 -35.5 154
t-119.5 52q-88 0 -170.5 -75.5t-128.5 -172.5v-346q0 -105 85 -105h72v-79h-507v79h79q75 0 75 106v387q0 102 -36.5 154t-120.5 52q-91 0 -175.5 -81t-125.5 -182v-331q0 -46 17 -75.5t53 -29.5h90v-79h-518z" />
    <glyph glyph-name="n" unicode="n" horiz-adv-x="1214" 
d="M62 0v79h72q53 0 70.5 25.5t17.5 79.5v466q0 53 -18 79.5t-67 20.5l-75 -17l-6 79l364 78v-234q64 103 152 170t185 67q137 0 210 -79t73 -239v-391q0 -105 86 -105h71v-79h-507v79h79q75 0 75 106v387q0 102 -36.5 154t-120.5 52q-82 0 -153 -79t-114 -184v-331
q0 -46 17 -75.5t53 -29.5h78v-79h-506z" />
    <glyph glyph-name="o" unicode="o" horiz-adv-x="1045" 
d="M522 -28q-47 0 -99 10t-117.5 41t-116.5 79t-86.5 134.5t-35.5 197.5q0 119 42.5 211t111 144t145 78t155.5 26q57 0 116.5 -14t121.5 -48.5t110 -85t78.5 -131.5t30.5 -180q0 -101 -30.5 -183t-78 -132.5t-109.5 -85t-121 -48t-117 -13.5zM524 53q104 0 175 103.5
t71 276.5q0 167 -65.5 272.5t-182.5 105.5q-116 0 -181.5 -105.5t-65.5 -265.5q0 -177 71 -282t178 -105z" />
    <glyph glyph-name="p" unicode="p" horiz-adv-x="1159" 
d="M27 -511v80h80q48 0 65.5 26t17.5 78v990q0 54 -20 78.5t-79 20.5l-64 -15l-5 77l350 73l12 -145q61 66 141.5 103.5t165.5 37.5q79 0 152 -33t128.5 -91.5t88.5 -144.5t33 -186q0 -101 -34 -189.5t-91.5 -148.5t-132.5 -94t-156 -34q-166 0 -292 126v-425
q0 -53 19 -78.5t80 -25.5h84v-80h-543zM617 75q55 0 101.5 23.5t76.5 60.5t51 85t30.5 94.5t9.5 90.5q0 94 -29 174.5t-90.5 133.5t-142.5 53q-69 0 -132.5 -40t-104.5 -104v-451q46 -57 108.5 -88.5t121.5 -31.5z" />
    <glyph glyph-name="q" unicode="q" horiz-adv-x="1120" 
d="M589 -511v80h83q59 0 79 25.5t20 78.5v420q-129 -121 -292 -121q-178 0 -295 128.5t-117 324.5q0 108 35 198t94 147.5t134 89.5t156 32q175 0 315 -140l101 131h65v-1210q0 -54 18.5 -79t71.5 -25h74v-80h-542zM533 71q55 0 119.5 30.5t118.5 96.5v463
q-101 135 -236 135q-116 0 -188.5 -97t-72.5 -267q0 -64 16 -126t46.5 -115.5t81.5 -86.5t115 -33z" />
    <glyph glyph-name="r" unicode="r" horiz-adv-x="899" 
d="M62 0v79h80q48 0 64 26t16 79v470q0 54 -17.5 80t-62.5 20l-81 -16l-6 78l340 81l17 -252q115 248 308 248q76 0 120 -42.5t58 -103.5q4 -36 -15 -66.5t-60 -31.5q-44 -1 -76 47q-39 63 -111 63q-57 0 -100.5 -37.5t-67.5 -97t-36 -123t-12 -126.5v-191q0 -57 19 -81
t76 -24h62v-79h-515z" />
    <glyph glyph-name="s" unicode="s" horiz-adv-x="988" 
d="M512 546q46 -7 79 -13t77 -17.5t75 -25t64 -35t53 -47.5t33 -63t13 -81q0 -94 -53.5 -161.5t-138.5 -99t-190 -31.5q-97 0 -175 26t-125 65l-41 -91h-62l-4 275h73q113 -195 338 -195q102 0 168 42t66 116q0 31 -14.5 54.5t-34.5 37.5t-58 25.5t-67.5 17t-81.5 12.5
q-52 8 -84 14t-79.5 18t-77 24.5t-63.5 33t-53 45t-32 60t-13 77.5q0 123 94.5 193.5t260.5 70.5q180 0 285 -87l33 87h59l5 -261h-60q-40 84 -122 132t-202 48q-97 0 -155.5 -32t-58.5 -97q0 -18 4 -32.5t15.5 -26t21.5 -20t32 -16.5t37.5 -13t47.5 -11t51.5 -9t59.5 -9z
" />
    <glyph glyph-name="t" unicode="t" horiz-adv-x="756" 
d="M454 -28q-123 0 -192.5 74.5t-69.5 225.5v513h-174v80h102q84 0 138 51.5t54 135.5v122h76v-309h303v-80h-303v-484q0 -119 30 -175.5t100 -56.5q49 0 84.5 31t43.5 95h66q-4 -62 -30.5 -107.5t-66 -69.5t-80 -35t-81.5 -11z" />
    <glyph glyph-name="u" unicode="u" horiz-adv-x="1182" 
d="M458 -28q-137 0 -211 78.5t-74 238.5v392q0 52 -20 78t-65 26h-70v80h353v-572q0 -103 35.5 -155t120.5 -52q82 0 153 79t114 184v332q0 45 -16 74.5t-52 29.5h-81v80h347v-680q0 -52 18 -78.5t68 -20.5l75 17l4 -79l-363 -49v233q-63 -103 -151 -169.5t-185 -66.5z" />
    <glyph glyph-name="v" unicode="v" horiz-adv-x="1027" 
d="M736 865h304v-80h-28q-34 0 -56.5 -27.5t-55.5 -99.5l-320 -676h-125l-311 692q-31 68 -53 89.5t-55 21.5h-50v80h474v-80h-73q-24 0 -38 -6.5t-18.5 -16t-2 -26.5t8 -31t15.5 -36l225 -510l237 508q12 27 17.5 44.5t6 36.5t-12 28t-38.5 9h-51v80z" />
    <glyph glyph-name="w" unicode="w" horiz-adv-x="1593" 
d="M1258 865h347v-80h-46q-35 0 -56.5 -25.5t-39.5 -74.5l-266 -704h-132l-260 696l-260 -696h-131l-262 705q-22 57 -43 78t-56 21h-64v80h491v-80h-75q-51 0 -62 -22.5t9 -74.5l186 -512l266 699h122l263 -702l177 484q27 66 18 97t-71 31h-55v80z" />
    <glyph glyph-name="x" unicode="x" horiz-adv-x="1114" 
d="M39 0v79h35q64 0 146 82l248 250l-258 275q-81 99 -131 99h-44v80h493v-80h-64q-85 0 -19 -83l158 -170l162 166q24 25 31.5 44.5t-4.5 31t-45 11.5h-39v80h337v-80h-40q-51 0 -137 -90l-218 -217l251 -266q110 -133 158 -133h33v-79h-490v79h64q99 0 32 82l-178 196
l-185 -187q-82 -91 11 -91h62v-79h-369z" />
    <glyph glyph-name="y" unicode="y" horiz-adv-x="1034" 
d="M217 -497q-43 -1 -69 22.5t-27 59.5q0 21 8 36.5t23 25t26.5 14t27.5 8.5q90 21 154.5 69t113.5 155l40 90l-388 708q-31 58 -49.5 76t-50.5 18h-41v80h452v-80h-61q-47 0 -51.5 -29t20.5 -71l265 -502l208 469q13 32 18.5 53.5t5 41t-14 29t-40.5 9.5h-68v80h328v-80
h-24q-34 0 -58 -26t-54 -98l-370 -825q-76 -169 -148 -245.5t-176 -87.5z" />
    <glyph glyph-name="z" unicode="z" horiz-adv-x="977" 
d="M815 287l76 -2l-26 -285h-794v86l570 699h-353q-35 0 -53.5 -16t-37.5 -72l-21 -102l-79 3l27 267h757v-90l-571 -696h368q38 0 64.5 18.5t47.5 75.5z" />
    <glyph glyph-name="braceleft" unicode="{" horiz-adv-x="578" 
d="M554 -519q-97 -3 -175 25t-125.5 76.5t-73 107.5t-25.5 123q-1 73 31 193t32 174q0 56 -16.5 97.5t-44.5 64t-57 33.5t-62 14v80q180 24 180 215q0 56 -31.5 173t-30.5 185q1 36 11 75.5t37.5 86.5t70 84t115 62.5t164.5 26.5v-45q-125 -9 -191.5 -72t-67.5 -166
q-1 -68 28.5 -188.5t29.5 -174.5q0 -112 -67.5 -195.5t-212.5 -103.5v-4q127 -22 204 -98.5t77 -202.5q0 -52 -30 -167t-29 -191q1 -120 77 -180.5t182 -62.5v-45z" />
    <glyph glyph-name="bar" unicode="|" horiz-adv-x="619" 
d="M228 -483v1835h164v-1835h-164z" />
    <glyph glyph-name="braceright" unicode="}" horiz-adv-x="578" 
d="M24 -519v45q106 2 182 62.5t77 180.5q1 76 -29 191t-30 167q0 126 77 202.5t204 98.5v4q-145 20 -212.5 103.5t-67.5 195.5q0 54 29.5 174.5t28.5 188.5q-1 103 -67.5 166t-191.5 72v45q92 -1 164.5 -26.5t115 -62.5t70 -84t37.5 -86.5t11 -75.5q1 -68 -30.5 -185
t-31.5 -173q0 -191 180 -215v-80q-33 -3 -62 -14t-57 -33.5t-44.5 -64t-16.5 -97.5q0 -54 32 -174t31 -193q0 -64 -25.5 -123t-73 -107.5t-125.5 -76.5t-175 -25z" />
    <glyph glyph-name="asciitilde" unicode="~" horiz-adv-x="1323" 
d="M167 521q1 38 7 76.5t24.5 85t46.5 81.5t76.5 59t111.5 24q57 0 118 -22t183 -85q77 -45 112 -60t79 -15q74 0 119 48.5t50 136.5h62q2 -138 -68.5 -232.5t-201.5 -94.5q-32 0 -64 6t-50 10.5t-62 26t-56 28t-76 41.5q-62 37 -100.5 53t-80.5 16q-76 0 -119 -47.5
t-49 -135.5h-62z" />
    <glyph glyph-name="uni00A0" unicode="&#xa0;" horiz-adv-x="543" 
 />
    <glyph glyph-name="exclamdown" unicode="&#xa1;" horiz-adv-x="574" 
d="M287 898q55 0 94.5 -40.5t39.5 -97.5q0 -56 -39.5 -96t-94.5 -40q-56 0 -95.5 40t-39.5 96q0 58 39.5 98t95.5 40zM248 419h78l47 -698q10 -125 10 -137q0 -18 -2.5 -31.5t-11.5 -30t-30 -25.5t-53 -9t-53 9t-29.5 25.5t-11 30t-2.5 31.5q0 21 1.5 49.5t4 58.5t3.5 40z
" />
    <glyph glyph-name="cent" unicode="&#xa2;" horiz-adv-x="1025" 
d="M859 466l72 -34q-24 -55 -55 -97.5t-76 -80t-109 -58t-143 -20.5q-16 0 -48 2l-72 -360h-64l74 370q-154 33 -248 151.5t-94 288.5q0 207 136 338.5t338 131.5q15 0 49 -2l71 356h64l-73 -366q88 -19 150.5 -66t77.5 -123q2 -38 -17 -65.5t-55 -28.5q-18 0 -33 6.5
t-24 15.5t-16.5 23.5t-11 25t-6.5 24.5q-32 66 -84 95l-143 -717q29 -7 67 -7q105 0 173 58t100 139zM303 666q0 -139 40.5 -232.5t116.5 -134.5l143 715q-17 4 -42 4q-68 0 -120 -34t-81 -88.5t-43 -113t-14 -116.5z" />
    <glyph glyph-name="sterling" unicode="&#xa3;" horiz-adv-x="1478" 
d="M177 -37q-30 0 -56 24q-25 25 -20 55q8 25 25 51t42 51.5t43 41.5t45.5 38.5t31.5 25.5q87 156 143 372h-320l27 104h317q55 210 83 285q39 106 89.5 178t112.5 112t129 56.5t151 16.5q121 0 200.5 -51.5t97.5 -137.5q1 -34 -20 -57.5t-52 -25.5q-53 -1 -90 68
q-57 119 -175 119q-41 0 -75 -9.5t-60 -30.5t-45.5 -45t-37 -62t-29.5 -71.5t-27 -82.5q-9 -29 -35 -120t-44 -142h353l-25 -104h-369q-54 -160 -136 -288q65 35 133 35q40 0 75 -11.5t71 -38t56.5 -45t59.5 -57.5q76 -76 124.5 -107.5t111.5 -31.5q57 0 95.5 36t51.5 84
q2 35 0 52.5t-11 58t-12 62.5q-2 37 14.5 59.5t49.5 23.5q39 2 62.5 -24t26.5 -66q7 -55 -11 -119q-28 -114 -125.5 -195.5t-220.5 -81.5q-46 0 -88 11t-71 25t-62 40t-50.5 43.5t-45.5 47.5q-36 39 -58 59t-54.5 38t-64.5 18q-72 0 -141 -68q-15 -24 -39 -64.5t-38 -62
t-33 -46t-38.5 -35.5t-41.5 -11z" />
    <glyph glyph-name="currency" unicode="&#xa4;" horiz-adv-x="1242" 
d="M237 287l-60 62l130 129q-84 127 -84 245q0 122 86 248l-132 132l60 62l136 -131q126 88 247 88q126 0 249 -88l135 131l61 -62l-132 -131q87 -128 87 -249q0 -116 -86 -245l131 -129l-61 -62l-135 131q-123 -88 -249 -88q-125 0 -248 87zM620 417q128 0 219.5 90.5
t91.5 216.5q0 129 -93 220t-218 91q-126 0 -217 -92t-91 -219t90.5 -217t217.5 -90z" />
    <glyph glyph-name="yen" unicode="&#xa5;" horiz-adv-x="1497" 
d="M432 0v79h127q59 0 80.5 29t21.5 91v143h-452v74h452v87l-44 75h-408v73h365l-295 507q-35 63 -61 89.5t-66 26.5h-67v80h550v-80h-90q-54 0 -63 -35.5t23 -85.5l320 -541l307 519q35 59 22 101t-73 42h-85v80h405v-80h-28q-67 0 -133 -118l-301 -505h377v-73h-415
l-43 -67v-95h458v-74h-458v-143q0 -62 20.5 -91t77.5 -29h130v-79h-654z" />
    <glyph glyph-name="brokenbar" unicode="&#xa6;" horiz-adv-x="966" 
d="M401 566v788h164v-788h-164zM401 -482v790h164v-790h-164z" />
    <glyph glyph-name="section" unicode="&#xa7;" horiz-adv-x="1095" 
d="M532 -499q-148 0 -244 68.5t-100 181.5q-1 44 24.5 65.5t54.5 21.5q62 0 82 -78q15 -90 64.5 -134t144.5 -44q94 0 148.5 47.5t54.5 133.5q0 26 -7 50t-16.5 42.5t-30.5 40t-38 35.5t-50.5 36.5t-56 36t-67.5 40t-73 43.5q-165 101 -244 192t-79 211q0 49 14 93t44 84.5
t84 68.5t127 37q-178 120 -178 285q0 149 105 232.5t269 83.5q152 0 246 -70t99 -176q1 -39 -24.5 -62.5t-58.5 -23.5q-36 0 -52.5 21t-29.5 64q-28 168 -208 168q-100 0 -154 -49t-54 -134q0 -25 8 -49t17.5 -42.5t33.5 -40.5t39.5 -35.5t53.5 -37t57 -35t67 -38.5
q18 -11 28 -16q74 -42 119 -71t96.5 -71t79.5 -81.5t47 -92.5t19 -114q0 -73 -22 -128.5t-61 -88t-83 -49.5t-96 -23q82 -56 127 -130t45 -156q0 -76 -30 -136.5t-81.5 -98t-118 -57.5t-141.5 -20zM653 173q98 -12 154.5 32.5t56.5 122.5q0 68 -65.5 145.5t-161.5 138
t-197 94.5q-102 11 -158 -33t-56 -123q0 -66 63 -142.5t161 -139t203 -95.5z" />
    <glyph glyph-name="dieresis" unicode="&#xa8;" horiz-adv-x="810" 
d="M213 1122q-43 0 -74 31t-31 73q0 44 31 74.5t74 30.5q44 0 74.5 -30.5t30.5 -74.5t-31 -74t-74 -30zM596 1122q-43 0 -74 31t-31 73q0 44 30.5 74.5t74.5 30.5t74.5 -30.5t30.5 -74.5t-31 -74t-74 -30z" />
    <glyph glyph-name="copyright" unicode="&#xa9;" horiz-adv-x="1628" 
d="M812 -30q-143 0 -272.5 55.5t-224 150t-150 225t-55.5 273.5q0 191 95 353t256.5 256t350.5 94q143 0 273.5 -55.5t225 -149.5t150.5 -224.5t56 -273.5q0 -191 -94.5 -353t-257 -256.5t-353.5 -94.5zM812 37q173 0 319.5 85.5t232 232t85.5 319.5q0 130 -50.5 247.5
t-136 202.5t-203.5 135.5t-247 50.5q-171 0 -317 -84.5t-231.5 -231.5t-85.5 -320q0 -130 50 -248t135 -203t202.5 -135.5t246.5 -50.5zM814 249q-84 0 -159 29t-132.5 81t-91 132.5t-33.5 176.5q0 191 122.5 313t303.5 122q50 0 104 -13t73 -21t64 -28q28 -10 41 2t14 36
h40v-216h-40q-17 54 -49.5 94t-71.5 60.5t-76.5 30t-74.5 9.5q-64 0 -116.5 -23t-87 -60t-58.5 -86.5t-34.5 -101t-10.5 -104.5q0 -173 81 -277.5t223 -104.5q103 0 180 52.5t113 123.5l16 -47q-55 -86 -144.5 -133t-195.5 -47z" />
    <glyph glyph-name="guillemotleft" unicode="&#xab;" horiz-adv-x="1030" 
d="M370 0l-342 440l341 441h83l-242 -441l244 -440h-84zM873 0l-343 440l341 441h85l-242 -441l242 -440h-83z" />
    <glyph glyph-name="logicalnot" unicode="&#xac;" horiz-adv-x="1388" 
d="M1028 334v512h-938v134h1072v-646h-134z" />
    <glyph glyph-name="uni00AD" unicode="&#xad;" horiz-adv-x="875" 
d="M142 323v168h592v-168h-592z" />
    <glyph glyph-name="registered" unicode="&#xae;" horiz-adv-x="1628" 
d="M812 1379q143 0 273.5 -55.5t225 -149.5t150.5 -224t56 -273t-56 -273.5t-150.5 -225t-225 -150t-273.5 -55.5t-272.5 55.5t-224 149.5t-150 224.5t-55.5 274.5q0 191 95 353t256.5 255.5t350.5 93.5zM812 40q173 0 319.5 85.5t232 232t85.5 319.5q0 172 -85.5 318.5
t-232.5 231.5t-319 85q-171 0 -317 -84.5t-231.5 -231t-85.5 -319.5q0 -130 50 -248t135 -203t202.5 -135.5t246.5 -50.5zM1157 381q27 -39 58 -39h40v-47h-156l-168 262q-35 53 -62 72t-67 19h-122v-251q0 -30 11 -42.5t42 -12.5h61v-47h-332v47h60q33 0 43.5 12t10.5 43
v570q0 31 -10.5 44t-40.5 13h-63v45h392q118 0 190.5 -52.5t72.5 -156.5q0 -146 -166 -193q38 -30 77 -92zM825 695q184 0 184 162q0 81 -47.5 120t-131.5 39h-150v-321h145z" />
    <glyph glyph-name="macron" unicode="&#xaf;" horiz-adv-x="1006" 
d="M141 1093v144h725v-144h-725z" />
    <glyph glyph-name="degree" unicode="&#xb0;" horiz-adv-x="1000" 
d="M499 657q-149 0 -255 106t-106 255t106 255t255 106t255 -106t106 -255t-106 -255t-255 -106zM499 761q107 0 181.5 75t74.5 182t-75 182t-181 75q-107 0 -182 -75t-75 -182t75 -182t182 -75z" />
    <glyph glyph-name="plusminus" unicode="&#xb1;" horiz-adv-x="1310" 
d="M588 358v488h-488v134h488v488h134v-488h488v-134h-488v-488h-134zM100 0v134h1110v-134h-1110z" />
    <glyph glyph-name="acute" unicode="&#xb4;" horiz-adv-x="542" 
d="M116 1030h-66l208 322h270v-4z" />
    <glyph glyph-name="uni00B5" unicode="&#xb5;" horiz-adv-x="1313" 
d="M250 -424v1105q0 104 -86 104h-70v80h353v-572q0 -103 35.5 -155t121.5 -52q43 0 84.5 24t75.5 63.5t60 83.5t46 92v332q0 45 -16 74.5t-52 29.5h-80v80h347v-680q0 -52 18 -78.5t67 -20.5l75 17l4 -79l-363 -49v233q-46 -81 -112 -140t-139 -71q-112 -20 -172 23v-444
h-197z" />
    <glyph glyph-name="paragraph" unicode="&#xb6;" horiz-adv-x="1151" 
d="M532 -510v1060q-36 21 -94 45t-105 41.5t-98.5 47t-86.5 63t-58 88t-23 124.5q0 96 27 165.5t75 113t125 69.5t164 35.5t205 9.5h440v-42h-45q-101 0 -136 -51.5t-35 -154.5v-1614h-73v1801h-208v-1801h-74z" />
    <glyph glyph-name="periodcentered" unicode="&#xb7;" horiz-adv-x="603" 
d="M302 538q-57 0 -97.5 40t-40.5 99q0 57 39.5 95.5t98.5 38.5q56 0 95.5 -39t39.5 -95q0 -59 -39.5 -99t-95.5 -40z" />
    <glyph glyph-name="cedilla" unicode="&#xb8;" horiz-adv-x="594" 
d="M229 -487q-104 0 -200 24l15 80q74 -17 160 -17q110 0 166.5 32t56.5 78q0 25 -20 40.5t-57.5 21.5t-67.5 8t-73 2h-5.5h-4.5h-5.5h-4.5l47 246l88 -7l-30 -146q111 -1 179.5 -39t68.5 -119q0 -82 -80.5 -143t-232.5 -61z" />
    <glyph glyph-name="guillemotright" unicode="&#xbb;" horiz-adv-x="1030" 
d="M157 0h-83l242 440l-242 441h85l341 -441zM660 0h-84l244 440l-242 441h83l341 -441z" />
    <glyph glyph-name="questiondown" unicode="&#xbf;" horiz-adv-x="871" 
d="M544 624q-55 0 -94 40t-39 96q0 58 39 98t94 40t95 -40.5t40 -97.5q0 -56 -39.5 -96t-95.5 -40zM747 -212q26 -2 47 -21t19 -49q-18 -94 -112.5 -162t-234.5 -68q-180 0 -290 112.5t-110 274.5q0 83 28 152t74.5 112t104 66.5t117.5 23.5q55 0 110 -18v206h88v-307h-70
q-33 26 -79 26q-47 0 -83 -25t-56 -64t-29.5 -80t-9.5 -80q0 -47 12.5 -99.5t37 -103t69.5 -83t102 -32.5q63 0 115.5 36.5t72.5 107.5q3 15 7 25t12.5 23.5t23 20t34.5 6.5z" />
    <glyph glyph-name="Agrave" unicode="&#xc0;" horiz-adv-x="1355" 
d="M714 1438h-66l-412 317v4h270zM1294 82l56 -3v-79h-549v79l103 3q32 1 47.5 17.5t6.5 45.5l-101 278h-503l-97 -263q-12 -37 11 -57.5t60 -21.5l102 -2v-79h-425v79l42 6q102 42 136 138l443 1154h102l430 -1154q24 -63 53 -97.5t83 -43.5zM385 505h443l-203 560h-33z
" />
    <glyph glyph-name="Aacute" unicode="&#xc1;" horiz-adv-x="1355" 
d="M1126 1755l-412 -317h-66l208 321h270v-4zM1294 82l56 -3v-79h-549v79l103 3q32 1 47.5 17.5t6.5 45.5l-101 278h-503l-97 -263q-12 -37 11 -57.5t60 -21.5l102 -2v-79h-425v79l42 6q102 42 136 138l443 1154h102l430 -1154q24 -63 53 -97.5t83 -43.5zM385 505h443
l-203 560h-33z" />
    <glyph glyph-name="Acircumflex" unicode="&#xc2;" horiz-adv-x="1355" 
d="M681 1701l-290 -231h-66l242 322h227l242 -322h-66zM1294 82l56 -3v-79h-549v79l103 3q32 1 47.5 17.5t6.5 45.5l-101 278h-503l-97 -263q-12 -37 11 -57.5t60 -21.5l102 -2v-79h-425v79l42 6q102 42 136 138l443 1154h102l430 -1154q24 -63 53 -97.5t83 -43.5zM385 505
h443l-203 560h-33z" />
    <glyph glyph-name="Atilde" unicode="&#xc3;" horiz-adv-x="1355" 
d="M399 1440h-63q-3 123 49.5 194.5t151.5 71.5q10 0 21 -1t19.5 -2.5t20 -5t17.5 -5t18.5 -7.5t17 -8t18.5 -9.5t16.5 -8.5t18 -10t16.5 -10q5 -3 19 -12t19 -12t16 -9.5t17.5 -8.5t17 -5.5t20 -4.5t20.5 -1q47 0 77.5 35t32.5 102h66q4 -76 -16.5 -138.5t-68 -102.5
t-114.5 -40q-36 0 -74.5 12.5t-57 23t-57.5 33.5q-79 53 -132 53q-50 0 -77 -35.5t-29 -88.5zM1294 82l56 -3v-79h-549v79l103 3q32 1 47.5 17.5t6.5 45.5l-101 278h-503l-97 -263q-12 -37 11 -57.5t60 -21.5l102 -2v-79h-425v79l42 6q102 42 136 138l443 1154h102
l430 -1154q24 -63 53 -97.5t83 -43.5zM385 505h443l-203 560h-33z" />
    <glyph glyph-name="Adieresis" unicode="&#xc4;" horiz-adv-x="1355" 
d="M489 1501q-43 0 -74 31.5t-31 73.5q0 43 31 73.5t74 30.5q44 0 74.5 -30.5t30.5 -73.5q0 -45 -31 -75t-74 -30zM872 1501q-43 0 -74 31.5t-31 73.5q0 43 30.5 73.5t74.5 30.5q43 0 74 -30.5t31 -73.5q0 -44 -31 -74.5t-74 -30.5zM1294 82l56 -3v-79h-549v79l103 3
q32 1 47.5 17.5t6.5 45.5l-101 278h-503l-97 -263q-12 -37 11 -57.5t60 -21.5l102 -2v-79h-425v79l42 6q102 42 136 138l443 1154h102l430 -1154q24 -63 53 -97.5t83 -43.5zM385 505h443l-203 560h-33z" />
    <glyph glyph-name="Aring" unicode="&#xc5;" horiz-adv-x="1355" 
d="M681 1441q-77 0 -131.5 54.5t-54.5 132.5t54.5 132t131.5 54t132.5 -54.5t55.5 -131.5t-55.5 -132t-132.5 -55zM681 1754q-52 0 -88 -36.5t-36 -89.5t36 -89.5t88 -36.5q53 0 89.5 37t36.5 89t-36.5 89t-89.5 37zM1294 82l56 -3v-79h-549v79l103 3q32 1 47.5 17.5
t6.5 45.5l-101 278h-503l-97 -263q-12 -37 11 -57.5t60 -21.5l102 -2v-79h-425v79l42 6q102 42 136 138l443 1154h102l430 -1154q24 -63 53 -97.5t83 -43.5zM385 505h443l-203 560h-33z" />
    <glyph glyph-name="AE" unicode="&#xc6;" horiz-adv-x="1971" 
d="M1791 446l78 -2l-23 -444h-1184v79h95q57 0 78.5 30.5t21.5 89.5v224h-470l-130 -263q-18 -37 7 -57.5t64 -21.5l102 -2v-79h-425v79l42 6q31 14 53.5 30.5t39 37.5t24 33.5t19.5 36.5l564 1129h1034l20 -350l-78 -1l-28 163q-22 64 -55.5 83.5t-97.5 19.5h-472v-517h297
q110 0 110 79v104h80v-460h-80v102q0 52 -28.5 71t-79.5 19h-299v-446q0 -69 20 -101.5t86 -32.5h383q91 0 129 25.5t55 87.5zM427 505h430l-3 762h-50z" />
    <glyph glyph-name="Ccedilla" unicode="&#xc7;" horiz-adv-x="1486" 
d="M1247 513h79v-487h-79l-32 220q-34 -67 -95 -125t-157.5 -100t-206.5 -46l-21 -100q111 -1 179.5 -39t68.5 -119q0 -82 -80.5 -143t-232.5 -61q-104 0 -200 24l15 80q74 -17 160 -17q110 0 166.5 32t56.5 78q0 25 -20 40.5t-57.5 21.5t-67.5 8t-73 2h-20l37 196
q-134 12 -245.5 75t-185 158.5t-114 214t-40.5 245.5q0 107 28.5 210t85 192.5t134 157.5t183 107t225.5 39q135 0 256.5 -67t212.5 -199l23 214h78l7 -478h-77q-15 74 -52.5 148t-95 140.5t-143 108.5t-182.5 42q-115 0 -202.5 -54t-138 -146t-75.5 -201.5t-25 -232.5
q0 -265 118.5 -425.5t329.5 -160.5q106 0 201.5 50.5t169 153.5t104.5 243z" />
    <glyph glyph-name="Egrave" unicode="&#xc8;" horiz-adv-x="1365" 
d="M715 1438h-66l-412 317v4h270zM1184 446l78 -2l-23 -444h-1184v79h95q57 0 78.5 30.5t21.5 89.5v954q0 64 -23 91.5t-91 27.5h-81v80h1119l20 -350l-78 -1l-28 163q-22 64 -55.5 83.5t-97.5 19.5h-472v-517h297q110 0 110 79v104h81v-460h-81v102q0 52 -28.5 71t-79.5 19
h-299v-446q0 -69 20 -101.5t87 -32.5h382q92 0 130 25.5t55 87.5z" />
    <glyph glyph-name="Eacute" unicode="&#xc9;" horiz-adv-x="1365" 
d="M1127 1755l-412 -317h-66l208 321h270v-4zM1184 446l78 -2l-23 -444h-1184v79h95q57 0 78.5 30.5t21.5 89.5v954q0 64 -23 91.5t-91 27.5h-81v80h1119l20 -350l-78 -1l-28 163q-22 64 -55.5 83.5t-97.5 19.5h-472v-517h297q110 0 110 79v104h81v-460h-81v102
q0 52 -28.5 71t-79.5 19h-299v-446q0 -69 20 -101.5t87 -32.5h382q92 0 130 25.5t55 87.5z" />
    <glyph glyph-name="Ecircumflex" unicode="&#xca;" horiz-adv-x="1365" 
d="M682 1701l-290 -231h-66l242 322h227l242 -322h-66zM1184 446l78 -2l-23 -444h-1184v79h95q57 0 78.5 30.5t21.5 89.5v954q0 64 -23 91.5t-91 27.5h-81v80h1119l20 -350l-78 -1l-28 163q-22 64 -55.5 83.5t-97.5 19.5h-472v-517h297q110 0 110 79v104h81v-460h-81v102
q0 52 -28.5 71t-79.5 19h-299v-446q0 -69 20 -101.5t87 -32.5h382q92 0 130 25.5t55 87.5z" />
    <glyph glyph-name="Edieresis" unicode="&#xcb;" horiz-adv-x="1365" 
d="M490 1501q-43 0 -74 31.5t-31 73.5q0 43 31 73.5t74 30.5q44 0 74.5 -30.5t30.5 -73.5q0 -45 -31 -75t-74 -30zM873 1501q-43 0 -74 31.5t-31 73.5q0 43 30.5 73.5t74.5 30.5q43 0 74 -30.5t31 -73.5q0 -44 -31 -74.5t-74 -30.5zM1184 446l78 -2l-23 -444h-1184v79h95
q57 0 78.5 30.5t21.5 89.5v954q0 64 -23 91.5t-91 27.5h-81v80h1119l20 -350l-78 -1l-28 163q-22 64 -55.5 83.5t-97.5 19.5h-472v-517h297q110 0 110 79v104h81v-460h-81v102q0 52 -28.5 71t-79.5 19h-299v-446q0 -69 20 -101.5t87 -32.5h382q92 0 130 25.5t55 87.5z" />
    <glyph glyph-name="Igrave" unicode="&#xcc;" horiz-adv-x="764" 
d="M350 1438l-412 317v4h270l208 -321h-66zM57 0v79h102q70 0 93 28.5t23 91.5v956q0 63 -23 91t-93 28h-102v80h650v-80h-101q-71 0 -94.5 -27t-23.5 -92v-956q0 -66 23.5 -93t94.5 -27h101v-79h-650z" />
    <glyph glyph-name="Iacute" unicode="&#xcd;" horiz-adv-x="764" 
d="M350 1438l208 321h270v-4l-412 -317h-66zM57 0v79h102q70 0 93 28.5t23 91.5v956q0 63 -23 91t-93 28h-102v80h650v-80h-101q-71 0 -94.5 -27t-23.5 -92v-956q0 -66 23.5 -93t94.5 -27h101v-79h-650z" />
    <glyph glyph-name="Icircumflex" unicode="&#xce;" horiz-adv-x="764" 
d="M27 1470l242 322h227l242 -322h-66l-289 231l-290 -231h-66zM57 0v79h102q70 0 93 28.5t23 91.5v956q0 63 -23 91t-93 28h-102v80h650v-80h-101q-71 0 -94.5 -27t-23.5 -92v-956q0 -66 23.5 -93t94.5 -27h101v-79h-650z" />
    <glyph glyph-name="Idieresis" unicode="&#xcf;" horiz-adv-x="764" 
d="M191 1501q-43 0 -74 31.5t-31 73.5q0 43 31 73.5t74 30.5q44 0 74.5 -30.5t30.5 -73.5q0 -45 -31 -75t-74 -30zM574 1501q-43 0 -74 31.5t-31 73.5q0 43 30.5 73.5t74.5 30.5q43 0 74 -30.5t31 -73.5q0 -44 -31 -74.5t-74 -30.5zM57 0v79h102q70 0 93 28.5t23 91.5v956
q0 63 -23 91t-93 28h-102v80h650v-80h-101q-71 0 -94.5 -27t-23.5 -92v-956q0 -66 23.5 -93t94.5 -27h101v-79h-650z" />
    <glyph glyph-name="Eth" unicode="&#xd0;" horiz-adv-x="1544" 
d="M647 1352q150 0 275 -25t225.5 -78t170 -132.5t107 -191.5t37.5 -252q0 -177 -57.5 -307.5t-166 -210t-255.5 -117.5t-336 -38h-590v79h107q49 0 68 31t19 89v434h-191v85h191v437q0 58 -19 88.5t-71 30.5h-104v78h590zM778 85q138 0 240 79.5t152 211.5t50 298
q0 157 -43 276.5t-117.5 189.5t-166 104t-198.5 34h-231v-560h413v-85h-413v-413q0 -69 22 -102t99 -33h193z" />
    <glyph glyph-name="Ntilde" unicode="&#xd1;" horiz-adv-x="1543" 
d="M498 1440h-63q-3 123 49.5 194.5t151.5 71.5q10 0 21 -1t19.5 -2.5t20 -5t17.5 -5t18.5 -7.5t17 -8t18.5 -9.5t16.5 -8.5t18 -10t16.5 -10q5 -3 19 -12t19 -12t16 -9.5t17.5 -8.5t17 -5.5t20 -4.5t20.5 -1q47 0 77.5 35t32.5 102h66q4 -76 -16.5 -138.5t-68 -102.5
t-114.5 -40q-36 0 -74.5 12.5t-57 23t-57.5 33.5q-79 53 -132 53q-50 0 -77 -35.5t-29 -88.5zM1038 1352h473v-80h-82q-55 0 -80 -43t-25 -109v-1143h-93l-892 1154v-894q0 -23 2 -41.5t9 -41.5t19 -38.5t35 -26t54 -10.5h80v-79h-483v79h81q115 0 115 158v893
q0 65 -30.5 103.5t-90.5 38.5h-78v80h387l798 -1037v806q0 24 -4 46t-14.5 48t-35.5 41.5t-61 15.5h-84v80z" />
    <glyph glyph-name="Ograve" unicode="&#xd2;" horiz-adv-x="1519" 
d="M726 1438l-412 317v4h270l208 -321h-66zM761 -25q-204 0 -359 91.5t-236.5 251t-81.5 362.5q0 106 27 207t83 190t134.5 156t188.5 105.5t238 38.5q135 0 248 -40t191.5 -107.5t133.5 -158t81 -191t26 -206.5q0 -110 -27.5 -212.5t-83.5 -191t-135 -154.5t-189 -103.5
t-239 -37.5zM755 66q207 0 319.5 155.5t112.5 454.5q0 302 -115.5 456t-314.5 154q-140 0 -238 -79.5t-143.5 -212.5t-45.5 -308q0 -93 14 -180t46.5 -168t80.5 -140.5t121 -95.5t163 -36z" />
    <glyph glyph-name="Oacute" unicode="&#xd3;" horiz-adv-x="1519" 
d="M726 1438l208 321h270v-4l-412 -317h-66zM761 -25q-204 0 -359 91.5t-236.5 251t-81.5 362.5q0 106 27 207t83 190t134.5 156t188.5 105.5t238 38.5q135 0 248 -40t191.5 -107.5t133.5 -158t81 -191t26 -206.5q0 -110 -27.5 -212.5t-83.5 -191t-135 -154.5t-189 -103.5
t-239 -37.5zM755 66q207 0 319.5 155.5t112.5 454.5q0 302 -115.5 456t-314.5 154q-140 0 -238 -79.5t-143.5 -212.5t-45.5 -308q0 -93 14 -180t46.5 -168t80.5 -140.5t121 -95.5t163 -36z" />
    <glyph glyph-name="Ocircumflex" unicode="&#xd4;" horiz-adv-x="1519" 
d="M403 1470l242 322h227l242 -322h-66l-289 231l-290 -231h-66zM761 -25q-204 0 -359 91.5t-236.5 251t-81.5 362.5q0 106 27 207t83 190t134.5 156t188.5 105.5t238 38.5q135 0 248 -40t191.5 -107.5t133.5 -158t81 -191t26 -206.5q0 -110 -27.5 -212.5t-83.5 -191
t-135 -154.5t-189 -103.5t-239 -37.5zM755 66q207 0 319.5 155.5t112.5 454.5q0 302 -115.5 456t-314.5 154q-140 0 -238 -79.5t-143.5 -212.5t-45.5 -308q0 -93 14 -180t46.5 -168t80.5 -140.5t121 -95.5t163 -36z" />
    <glyph glyph-name="Otilde" unicode="&#xd5;" horiz-adv-x="1519" 
d="M414 1440q-3 123 49.5 194.5t151.5 71.5q10 0 21 -1t19.5 -2.5t20 -5t17.5 -5t18.5 -7.5t17 -8t18.5 -9.5t16.5 -8.5t18 -10t16.5 -10q5 -3 19 -12t19 -12t16 -9.5t17.5 -8.5t17 -5.5t20 -4.5t20.5 -1q47 0 77.5 35t32.5 102h66q4 -76 -16.5 -138.5t-68 -102.5
t-114.5 -40q-36 0 -74.5 12.5t-57 23t-57.5 33.5q-79 53 -132 53q-50 0 -77 -35.5t-29 -88.5h-63zM761 -25q-204 0 -359 91.5t-236.5 251t-81.5 362.5q0 106 27 207t83 190t134.5 156t188.5 105.5t238 38.5q135 0 248 -40t191.5 -107.5t133.5 -158t81 -191t26 -206.5
q0 -110 -27.5 -212.5t-83.5 -191t-135 -154.5t-189 -103.5t-239 -37.5zM755 66q207 0 319.5 155.5t112.5 454.5q0 302 -115.5 456t-314.5 154q-140 0 -238 -79.5t-143.5 -212.5t-45.5 -308q0 -93 14 -180t46.5 -168t80.5 -140.5t121 -95.5t163 -36z" />
    <glyph glyph-name="Odieresis" unicode="&#xd6;" horiz-adv-x="1519" 
d="M567 1501q-43 0 -74 31.5t-31 73.5q0 43 31 73.5t74 30.5q44 0 74.5 -30.5t30.5 -73.5q0 -45 -31 -75t-74 -30zM950 1501q-43 0 -74 31.5t-31 73.5q0 43 30.5 73.5t74.5 30.5q43 0 74 -30.5t31 -73.5q0 -44 -31 -74.5t-74 -30.5zM761 -25q-204 0 -359 91.5t-236.5 251
t-81.5 362.5q0 106 27 207t83 190t134.5 156t188.5 105.5t238 38.5q135 0 248 -40t191.5 -107.5t133.5 -158t81 -191t26 -206.5q0 -110 -27.5 -212.5t-83.5 -191t-135 -154.5t-189 -103.5t-239 -37.5zM755 66q207 0 319.5 155.5t112.5 454.5q0 302 -115.5 456t-314.5 154
q-140 0 -238 -79.5t-143.5 -212.5t-45.5 -308q0 -93 14 -180t46.5 -168t80.5 -140.5t121 -95.5t163 -36z" />
    <glyph glyph-name="multiply" unicode="&#xd7;" horiz-adv-x="1074" 
d="M192 218l-95 95l345 345l-345 345l95 95l345 -346l345 346l94 -95l-344 -345l344 -345l-94 -95l-345 345z" />
    <glyph glyph-name="Oslash" unicode="&#xd8;" horiz-adv-x="1519" 
d="M1252 1175q90 -98 136.5 -229t46.5 -272q0 -110 -27.5 -212.5t-83.5 -191t-135 -154.5t-189 -103.5t-239 -37.5q-259 0 -437 145l-122 -139l-62 52l125 143q-181 195 -181 504q0 106 27 207t83 190t134.5 156t188.5 105.5t238 38.5q263 0 438 -146l124 140l59 -54z
M330 686q0 -207 66 -362l691 785q-113 177 -330 177q-140 0 -238 -79.5t-143.5 -212.5t-45.5 -308zM755 66q207 0 319.5 155.5t112.5 454.5q0 214 -60 357l-691 -786q112 -181 319 -181z" />
    <glyph glyph-name="Ugrave" unicode="&#xd9;" horiz-adv-x="1502" 
d="M715 1438l-412 317v4h270l208 -321h-66zM758 -25q-268 0 -407 136t-139 401v641q0 62 -22.5 90.5t-91.5 28.5h-76v80h631v-80h-113q-68 0 -91.5 -27t-23.5 -92v-641q0 -215 91.5 -328t292.5 -113q215 0 308.5 117t93.5 344v597q0 65 -29.5 104t-93.5 39h-71v80h455v-80
h-67q-56 0 -81.5 -38.5t-25.5 -102.5v-601q0 -555 -540 -555z" />
    <glyph glyph-name="Uacute" unicode="&#xda;" horiz-adv-x="1502" 
d="M715 1438l208 321h270v-4l-412 -317h-66zM758 -25q-268 0 -407 136t-139 401v641q0 62 -22.5 90.5t-91.5 28.5h-76v80h631v-80h-113q-68 0 -91.5 -27t-23.5 -92v-641q0 -215 91.5 -328t292.5 -113q215 0 308.5 117t93.5 344v597q0 65 -29.5 104t-93.5 39h-71v80h455v-80
h-67q-56 0 -81.5 -38.5t-25.5 -102.5v-601q0 -555 -540 -555z" />
    <glyph glyph-name="Ucircumflex" unicode="&#xdb;" horiz-adv-x="1502" 
d="M392 1470l242 322h227l242 -322h-66l-289 231l-290 -231h-66zM758 -25q-268 0 -407 136t-139 401v641q0 62 -22.5 90.5t-91.5 28.5h-76v80h631v-80h-113q-68 0 -91.5 -27t-23.5 -92v-641q0 -215 91.5 -328t292.5 -113q215 0 308.5 117t93.5 344v597q0 65 -29.5 104
t-93.5 39h-71v80h455v-80h-67q-56 0 -81.5 -38.5t-25.5 -102.5v-601q0 -555 -540 -555z" />
    <glyph glyph-name="Udieresis" unicode="&#xdc;" horiz-adv-x="1502" 
d="M556 1501q-43 0 -74 31.5t-31 73.5q0 43 31 73.5t74 30.5q44 0 74.5 -30.5t30.5 -73.5q0 -45 -31 -75t-74 -30zM939 1501q-43 0 -74 31.5t-31 73.5q0 43 30.5 73.5t74.5 30.5q43 0 74 -30.5t31 -73.5q0 -44 -31 -74.5t-74 -30.5zM758 -25q-268 0 -407 136t-139 401v641
q0 62 -22.5 90.5t-91.5 28.5h-76v80h631v-80h-113q-68 0 -91.5 -27t-23.5 -92v-641q0 -215 91.5 -328t292.5 -113q215 0 308.5 117t93.5 344v597q0 65 -29.5 104t-93.5 39h-71v80h455v-80h-67q-56 0 -81.5 -38.5t-25.5 -102.5v-601q0 -555 -540 -555z" />
    <glyph glyph-name="Yacute" unicode="&#xdd;" horiz-adv-x="1371" 
d="M654 1438l208 321h270v-4l-412 -317h-66zM361 0v79h122q68 0 89.5 29t21.5 90v305l-389 652q-35 62 -64.5 89.5t-69.5 27.5h-67v80h577v-80h-94q-54 0 -60.5 -36.5t25.5 -84.5l323 -539l304 507q40 67 27.5 110t-77.5 43h-74v80h413v-80h-38q-64 0 -134 -120l-387 -637
l-1 -316q0 -64 22 -92t90 -28h121v-79h-680z" />
    <glyph glyph-name="Thorn" unicode="&#xde;" horiz-adv-x="1241" 
d="M56 0v79h76q70 0 93 28.5t23 91.5v956q0 63 -23 91t-93 28h-75v80h595v-80h-73q-118 0 -118 -79v-64h210q524 -2 524 -363q0 -188 -134 -279.5t-367 -91.5h-230v-198q0 -28 3.5 -46.5t14.5 -37t36 -27.5t63 -9h82v-79h-607zM464 482h212q289 0 289 283q0 290 -286 290
h-215v-573z" />
    <glyph glyph-name="germandbls" unicode="&#xdf;" horiz-adv-x="1215" 
d="M825 -20q-58 0 -100 17.5t-62 45t-28 52.5t-8 49q0 21 10.5 34t25.5 13q26 0 28 -33q8 -104 101 -104q150 0 150 299q0 160 -82.5 243.5t-265.5 81.5v79q46 1 80 6.5t71.5 22.5t61.5 45t39.5 78.5t15.5 119.5q0 130 -58.5 204.5t-182.5 74.5q-56 0 -98.5 -16t-69.5 -44.5
t-44 -72.5t-24 -95t-7 -117l3 -792q0 -45 13.5 -68.5t50.5 -23.5h111v-79h-523v79h65q52 0 68.5 25t16.5 79l-3 692q0 60 4 109.5t15.5 104t31.5 97t54 82t79.5 65.5t111 41.5t146.5 15.5q218 0 324 -96.5t106 -258.5q0 -69 -25 -126.5t-65.5 -94t-79.5 -58t-79 -33.5
q163 -15 253 -104t90 -254q0 -176 -89.5 -280.5t-231.5 -104.5z" />
    <glyph glyph-name="agrave" unicode="&#xe0;" horiz-adv-x="1050" 
d="M492 1030l-412 318v4h270l208 -322h-66zM297 -20q-114 0 -164 54.5t-50 137.5q0 97 66.5 160.5t197.5 126.5l292 142q-4 125 -42.5 168t-140.5 43q-54 0 -93 -12.5t-61 -36t-33.5 -44.5t-20.5 -50q-14 -79 -86 -76q-38 1 -56.5 23.5t-16.5 54.5q13 91 115 156.5t295 65.5
q184 0 261.5 -68.5t76.5 -223.5l-1 -374q0 -74 16.5 -111t54.5 -37q66 0 73 111h64q-2 -104 -56.5 -157t-145.5 -53q-82 0 -127 43.5t-65 134.5q-170 -178 -353 -178zM381 81q135 0 259 170v266l-254 -143q-63 -36 -89 -76t-26 -90q0 -63 29 -95t81 -32z" />
    <glyph glyph-name="aacute" unicode="&#xe1;" horiz-adv-x="1050" 
d="M492 1030h-66l208 322h270v-4zM297 -20q-114 0 -164 54.5t-50 137.5q0 97 66.5 160.5t197.5 126.5l292 142q-4 125 -42.5 168t-140.5 43q-54 0 -93 -12.5t-61 -36t-33.5 -44.5t-20.5 -50q-14 -79 -86 -76q-38 1 -56.5 23.5t-16.5 54.5q13 91 115 156.5t295 65.5
q184 0 261.5 -68.5t76.5 -223.5l-1 -374q0 -74 16.5 -111t54.5 -37q66 0 73 111h64q-2 -104 -56.5 -157t-145.5 -53q-82 0 -127 43.5t-65 134.5q-170 -178 -353 -178zM381 81q135 0 259 170v266l-254 -143q-63 -36 -89 -76t-26 -90q0 -63 29 -95t81 -32z" />
    <glyph glyph-name="acircumflex" unicode="&#xe2;" horiz-adv-x="1050" 
d="M136 1030l253 322h205l253 -322h-66l-289 230l-290 -230h-66zM297 -20q-114 0 -164 54.5t-50 137.5q0 97 66.5 160.5t197.5 126.5l292 142q-4 125 -42.5 168t-140.5 43q-54 0 -93 -12.5t-61 -36t-33.5 -44.5t-20.5 -50q-14 -79 -86 -76q-38 1 -56.5 23.5t-16.5 54.5
q13 91 115 156.5t295 65.5q184 0 261.5 -68.5t76.5 -223.5l-1 -374q0 -74 16.5 -111t54.5 -37q66 0 73 111h64q-2 -104 -56.5 -157t-145.5 -53q-82 0 -127 43.5t-65 134.5q-170 -178 -353 -178zM381 81q135 0 259 170v266l-254 -143q-63 -36 -89 -76t-26 -90q0 -63 29 -95
t81 -32z" />
    <glyph glyph-name="atilde" unicode="&#xe3;" horiz-adv-x="1050" 
d="M147 1017q-3 123 49.5 194.5t151.5 71.5q13 0 26.5 -2t23.5 -3.5t24.5 -7t21 -8t23 -11t20.5 -10.5t23 -12.5t21 -11.5q6 -4 22 -14t21.5 -13.5t18.5 -10.5t21.5 -9t20.5 -4.5t25 -2.5q47 0 77.5 35t32.5 102h66q4 -76 -16.5 -138.5t-68 -102.5t-114.5 -40
q-36 0 -74.5 12.5t-57 23t-57.5 33.5q-79 53 -132 53q-50 0 -77 -35.5t-29 -88.5h-63zM297 -20q-114 0 -164 54.5t-50 137.5q0 97 66.5 160.5t197.5 126.5l292 142q-4 125 -42.5 168t-140.5 43q-54 0 -93 -12.5t-61 -36t-33.5 -44.5t-20.5 -50q-14 -79 -86 -76
q-38 1 -56.5 23.5t-16.5 54.5q13 91 115 156.5t295 65.5q184 0 261.5 -68.5t76.5 -223.5l-1 -374q0 -74 16.5 -111t54.5 -37q66 0 73 111h64q-2 -104 -56.5 -157t-145.5 -53q-82 0 -127 43.5t-65 134.5q-170 -178 -353 -178zM381 81q135 0 259 170v266l-254 -143
q-63 -36 -89 -76t-26 -90q0 -63 29 -95t81 -32z" />
    <glyph glyph-name="adieresis" unicode="&#xe4;" horiz-adv-x="1050" 
d="M298 1122q-43 0 -74 31t-31 73q0 44 30.5 74.5t74.5 30.5t74.5 -30.5t30.5 -74.5t-31 -74t-74 -30zM681 1122q-43 0 -74 31t-31 73q0 44 30.5 74.5t74.5 30.5q43 0 74 -30.5t31 -74.5t-31 -74t-74 -30zM297 -20q-114 0 -164 54.5t-50 137.5q0 97 66.5 160.5t197.5 126.5
l292 142q-4 125 -42.5 168t-140.5 43q-54 0 -93 -12.5t-61 -36t-33.5 -44.5t-20.5 -50q-14 -79 -86 -76q-38 1 -56.5 23.5t-16.5 54.5q13 91 115 156.5t295 65.5q184 0 261.5 -68.5t76.5 -223.5l-1 -374q0 -74 16.5 -111t54.5 -37q66 0 73 111h64q-2 -104 -56.5 -157
t-145.5 -53q-82 0 -127 43.5t-65 134.5q-170 -178 -353 -178zM381 81q135 0 259 170v266l-254 -143q-63 -36 -89 -76t-26 -90q0 -63 29 -95t81 -32z" />
    <glyph glyph-name="aring" unicode="&#xe5;" horiz-adv-x="1050" 
d="M492 971q-78 0 -133 54.5t-55 133.5t55 133.5t133 54.5t133 -55t55 -133t-55 -133t-133 -55zM492 1032q53 0 90 37t37 90t-37 90t-90 37q-52 0 -88.5 -37t-36.5 -90t36.5 -90t88.5 -37zM297 -20q-114 0 -164 54.5t-50 137.5q0 97 66.5 160.5t197.5 126.5l292 142
q-4 125 -42.5 168t-140.5 43q-54 0 -93 -12.5t-61 -36t-33.5 -44.5t-20.5 -50q-14 -79 -86 -76q-38 1 -56.5 23.5t-16.5 54.5q13 91 115 156.5t295 65.5q184 0 261.5 -68.5t76.5 -223.5l-1 -374q0 -74 16.5 -111t54.5 -37q66 0 73 111h64q-2 -104 -56.5 -157t-145.5 -53
q-82 0 -127 43.5t-65 134.5q-170 -178 -353 -178zM381 81q135 0 259 170v266l-254 -143q-63 -36 -89 -76t-26 -90q0 -63 29 -95t81 -32z" />
    <glyph glyph-name="ae" unicode="&#xe6;" horiz-adv-x="1556" 
d="M1138 61q81 0 149 46.5t111 128.5l69 -40q-55 -103 -155 -163.5t-224 -60.5q-126 0 -227 60t-156 166q-129 -125 -214 -171.5t-194 -46.5q-114 0 -164 54.5t-50 137.5q0 97 66.5 160.5t197.5 126.5l292 142q-4 125 -42.5 168t-140.5 43q-54 0 -93 -12.5t-61 -36
t-33.5 -44.5t-20.5 -50q-14 -79 -86 -76q-38 1 -56.5 23.5t-16.5 54.5q13 91 115 156.5t295 65.5q224 0 295 -107q118 107 287 107q75 0 146.5 -26.5t133 -78t99.5 -140.5t39 -202h-643q0 -53 8.5 -104t29 -102.5t51.5 -90.5t81 -63.5t112 -24.5zM1082 811q-54 0 -97 -26
t-69 -69.5t-40.5 -92.5t-18.5 -101h453q-4 53 -19.5 102t-41.5 92t-69.5 69t-97.5 26zM640 251v266l-254 -143q-63 -36 -89 -76t-26 -90q0 -60 30 -93.5t84 -33.5q60 0 127.5 43.5t127.5 126.5z" />
    <glyph glyph-name="ccedilla" unicode="&#xe7;" horiz-adv-x="954" 
d="M517 -28h-18l-20 -97q111 -1 179.5 -39t68.5 -119q0 -82 -80.5 -143t-232.5 -61q-104 0 -200 24l15 80q74 -17 160 -17q110 0 166.5 32t56.5 78q0 25 -20 40.5t-57.5 21.5t-67.5 8t-73 2h-20l38 200q-157 32 -252.5 150.5t-95.5 290.5q0 207 136.5 338.5t337.5 131.5
q76 0 145 -19t125 -66.5t69 -115.5q3 -38 -16.5 -65t-55.5 -28q-29 -1 -49.5 16.5t-27.5 35t-13 42.5q-57 120 -186 120q-68 0 -120 -34t-80.5 -88.5t-42.5 -113t-14 -116.5q0 -190 74.5 -293t207.5 -103q55 0 102.5 18t80 47.5t54.5 62t36 68.5l72 -33q-24 -55 -55 -97.5
t-75.5 -80t-108.5 -58t-143 -20.5z" />
    <glyph glyph-name="egrave" unicode="&#xe8;" horiz-adv-x="974" 
d="M487 1030l-412 318v4h270l208 -322h-66zM506 -28q-189 0 -314.5 129.5t-125.5 333.5q0 102 34 188.5t92.5 145.5t138 91.5t168.5 32.5q75 0 146 -26.5t132.5 -78t100 -140.5t39.5 -202h-643q0 -67 14.5 -130.5t45 -123t87.5 -95.5t134 -36q82 0 150 46.5t111 128.5
l68 -40q-54 -103 -154 -163.5t-224 -60.5zM275 522h452q-4 53 -19 102t-41.5 92t-69.5 69t-97 26t-97 -26t-69 -69.5t-40.5 -92.5t-18.5 -101z" />
    <glyph glyph-name="eacute" unicode="&#xe9;" horiz-adv-x="974" 
d="M487 1030h-66l208 322h270v-4zM506 -28q-189 0 -314.5 129.5t-125.5 333.5q0 102 34 188.5t92.5 145.5t138 91.5t168.5 32.5q75 0 146 -26.5t132.5 -78t100 -140.5t39.5 -202h-643q0 -67 14.5 -130.5t45 -123t87.5 -95.5t134 -36q82 0 150 46.5t111 128.5l68 -40
q-54 -103 -154 -163.5t-224 -60.5zM275 522h452q-4 53 -19 102t-41.5 92t-69.5 69t-97 26t-97 -26t-69 -69.5t-40.5 -92.5t-18.5 -101z" />
    <glyph glyph-name="ecircumflex" unicode="&#xea;" horiz-adv-x="974" 
d="M131 1030l253 322h205l253 -322h-66l-289 230l-290 -230h-66zM506 -28q-189 0 -314.5 129.5t-125.5 333.5q0 102 34 188.5t92.5 145.5t138 91.5t168.5 32.5q75 0 146 -26.5t132.5 -78t100 -140.5t39.5 -202h-643q0 -67 14.5 -130.5t45 -123t87.5 -95.5t134 -36
q82 0 150 46.5t111 128.5l68 -40q-54 -103 -154 -163.5t-224 -60.5zM275 522h452q-4 53 -19 102t-41.5 92t-69.5 69t-97 26t-97 -26t-69 -69.5t-40.5 -92.5t-18.5 -101z" />
    <glyph glyph-name="edieresis" unicode="&#xeb;" horiz-adv-x="974" 
d="M293 1122q-43 0 -74 31t-31 73q0 44 31 74.5t74 30.5q44 0 74.5 -30.5t30.5 -74.5t-31 -74t-74 -30zM676 1122q-43 0 -74 31t-31 73q0 44 30.5 74.5t74.5 30.5t74.5 -30.5t30.5 -74.5t-31 -74t-74 -30zM506 -28q-189 0 -314.5 129.5t-125.5 333.5q0 102 34 188.5
t92.5 145.5t138 91.5t168.5 32.5q75 0 146 -26.5t132.5 -78t100 -140.5t39.5 -202h-643q0 -67 14.5 -130.5t45 -123t87.5 -95.5t134 -36q82 0 150 46.5t111 128.5l68 -40q-54 -103 -154 -163.5t-224 -60.5zM275 522h452q-4 53 -19 102t-41.5 92t-69.5 69t-97 26t-97 -26
t-69 -69.5t-40.5 -92.5t-18.5 -101z" />
    <glyph glyph-name="igrave" unicode="&#xec;" horiz-adv-x="615" 
d="M316 1030l-412 318v4h270l208 -322h-66zM59 0v79h78q54 0 73 23.5t19 81.5v476q0 60 -19.5 83.5t-73.5 17.5l-77 -16l-6 78l373 74v-713q0 -52 17.5 -78.5t65.5 -26.5h85v-79h-535z" />
    <glyph glyph-name="iacute" unicode="&#xed;" horiz-adv-x="615" 
d="M316 1030h-66l208 322h270v-4zM59 0v79h78q54 0 73 23.5t19 81.5v476q0 60 -19.5 83.5t-73.5 17.5l-77 -16l-6 78l373 74v-713q0 -52 17.5 -78.5t65.5 -26.5h85v-79h-535z" />
    <glyph glyph-name="icircumflex" unicode="&#xee;" horiz-adv-x="615" 
d="M-40 1030l253 322h205l253 -322h-66l-289 230l-290 -230h-66zM59 0v79h78q54 0 73 23.5t19 81.5v476q0 60 -19.5 83.5t-73.5 17.5l-77 -16l-6 78l373 74v-713q0 -52 17.5 -78.5t65.5 -26.5h85v-79h-535z" />
    <glyph glyph-name="idieresis" unicode="&#xef;" horiz-adv-x="615" 
d="M122 1122q-43 0 -74 31t-31 73q0 44 30.5 74.5t74.5 30.5t74.5 -30.5t30.5 -74.5t-31 -74t-74 -30zM505 1122q-43 0 -74 31t-31 73q0 44 30.5 74.5t74.5 30.5q43 0 74 -30.5t31 -74.5t-31 -74t-74 -30zM59 0v79h78q54 0 73 23.5t19 81.5v476q0 60 -19.5 83.5t-73.5 17.5
l-77 -16l-6 78l373 74v-713q0 -52 17.5 -78.5t65.5 -26.5h85v-79h-535z" />
    <glyph glyph-name="eth" unicode="&#xf0;" horiz-adv-x="1022" 
d="M950 1180l-155 -48q132 -203 132 -571q0 -150 -36.5 -265t-99.5 -183.5t-141.5 -103t-167.5 -34.5q-80 0 -154 30t-132.5 85t-93.5 142t-35 192q0 91 23.5 165t62.5 122t91.5 81t107 47t112.5 14q185 0 255 -161q-6 260 -69 395l-276 -85l-23 78l256 79
q-102 135 -302 130l-12 84q290 0 448 -172l187 58zM485 57q112 0 170.5 92.5t70.5 277.5q-6 78 -19.5 137t-38.5 108t-67 74.5t-99 25.5q-232 0 -232 -378q0 -158 53 -247.5t162 -89.5z" />
    <glyph glyph-name="ntilde" unicode="&#xf1;" horiz-adv-x="1214" 
d="M261 1017q-3 123 49.5 194.5t151.5 71.5q13 0 26.5 -2t23.5 -3.5t24.5 -7t21 -8t23 -11t20.5 -10.5t23 -12.5t21 -11.5q6 -4 22 -14t21.5 -13.5t18.5 -10.5t21.5 -9t20.5 -4.5t25 -2.5q47 0 77.5 35t32.5 102h66q4 -76 -16.5 -138.5t-68 -102.5t-114.5 -40
q-36 0 -74.5 12.5t-57 23t-57.5 33.5q-79 53 -132 53q-50 0 -77 -35.5t-29 -88.5h-63zM62 0v79h72q53 0 70.5 25.5t17.5 79.5v466q0 53 -18 79.5t-67 20.5l-75 -17l-6 79l364 78v-234q64 103 152 170t185 67q137 0 210 -79t73 -239v-391q0 -105 86 -105h71v-79h-507v79h79
q75 0 75 106v387q0 102 -36.5 154t-120.5 52q-82 0 -153 -79t-114 -184v-331q0 -46 17 -75.5t53 -29.5h78v-79h-506z" />
    <glyph glyph-name="ograve" unicode="&#xf2;" horiz-adv-x="1045" 
d="M524 1030l-412 318v4h270l208 -322h-66zM522 -28q-47 0 -99 10t-117.5 41t-116.5 79t-86.5 134.5t-35.5 197.5q0 119 42.5 211t111 144t145 78t155.5 26q57 0 116.5 -14t121.5 -48.5t110 -85t78.5 -131.5t30.5 -180q0 -101 -30.5 -183t-78 -132.5t-109.5 -85t-121 -48
t-117 -13.5zM524 53q104 0 175 103.5t71 276.5q0 167 -65.5 272.5t-182.5 105.5q-116 0 -181.5 -105.5t-65.5 -265.5q0 -177 71 -282t178 -105z" />
    <glyph glyph-name="oacute" unicode="&#xf3;" horiz-adv-x="1045" 
d="M524 1030h-66l208 322h270v-4zM522 -28q-47 0 -99 10t-117.5 41t-116.5 79t-86.5 134.5t-35.5 197.5q0 119 42.5 211t111 144t145 78t155.5 26q57 0 116.5 -14t121.5 -48.5t110 -85t78.5 -131.5t30.5 -180q0 -101 -30.5 -183t-78 -132.5t-109.5 -85t-121 -48t-117 -13.5z
M524 53q104 0 175 103.5t71 276.5q0 167 -65.5 272.5t-182.5 105.5q-116 0 -181.5 -105.5t-65.5 -265.5q0 -177 71 -282t178 -105z" />
    <glyph glyph-name="ocircumflex" unicode="&#xf4;" horiz-adv-x="1045" 
d="M168 1030l253 322h205l253 -322h-66l-289 230l-290 -230h-66zM522 -28q-47 0 -99 10t-117.5 41t-116.5 79t-86.5 134.5t-35.5 197.5q0 119 42.5 211t111 144t145 78t155.5 26q57 0 116.5 -14t121.5 -48.5t110 -85t78.5 -131.5t30.5 -180q0 -101 -30.5 -183t-78 -132.5
t-109.5 -85t-121 -48t-117 -13.5zM524 53q104 0 175 103.5t71 276.5q0 167 -65.5 272.5t-182.5 105.5q-116 0 -181.5 -105.5t-65.5 -265.5q0 -177 71 -282t178 -105z" />
    <glyph glyph-name="otilde" unicode="&#xf5;" horiz-adv-x="1045" 
d="M179 1017q-3 123 49.5 194.5t151.5 71.5q13 0 26.5 -2t23.5 -3.5t24.5 -7t21 -8t23 -11t20.5 -10.5t23 -12.5t21 -11.5q6 -4 22 -14t21.5 -13.5t18.5 -10.5t21.5 -9t20.5 -4.5t25 -2.5q47 0 77.5 35t32.5 102h66q4 -76 -16.5 -138.5t-68 -102.5t-114.5 -40
q-36 0 -74.5 12.5t-57 23t-57.5 33.5q-79 53 -132 53q-50 0 -77 -35.5t-29 -88.5h-63zM522 -28q-47 0 -99 10t-117.5 41t-116.5 79t-86.5 134.5t-35.5 197.5q0 119 42.5 211t111 144t145 78t155.5 26q57 0 116.5 -14t121.5 -48.5t110 -85t78.5 -131.5t30.5 -180
q0 -101 -30.5 -183t-78 -132.5t-109.5 -85t-121 -48t-117 -13.5zM524 53q104 0 175 103.5t71 276.5q0 167 -65.5 272.5t-182.5 105.5q-116 0 -181.5 -105.5t-65.5 -265.5q0 -177 71 -282t178 -105z" />
    <glyph glyph-name="odieresis" unicode="&#xf6;" horiz-adv-x="1045" 
d="M330 1122q-43 0 -74 31t-31 73q0 44 30.5 74.5t74.5 30.5t74.5 -30.5t30.5 -74.5t-31 -74t-74 -30zM713 1122q-43 0 -74 31t-31 73q0 44 30.5 74.5t74.5 30.5q43 0 74 -30.5t31 -74.5t-31 -74t-74 -30zM522 -28q-47 0 -99 10t-117.5 41t-116.5 79t-86.5 134.5
t-35.5 197.5q0 119 42.5 211t111 144t145 78t155.5 26q57 0 116.5 -14t121.5 -48.5t110 -85t78.5 -131.5t30.5 -180q0 -101 -30.5 -183t-78 -132.5t-109.5 -85t-121 -48t-117 -13.5zM524 53q104 0 175 103.5t71 276.5q0 167 -65.5 272.5t-182.5 105.5q-116 0 -181.5 -105.5
t-65.5 -265.5q0 -177 71 -282t178 -105z" />
    <glyph glyph-name="divide" unicode="&#xf7;" horiz-adv-x="1269" 
d="M630 991q-44 0 -74 30.5t-30 74.5q0 42 30.5 73t73.5 31t74 -31t31 -73q0 -44 -31 -74.5t-74 -30.5zM75 609v134h1110v-134h-1110zM630 151q-44 0 -74 30.5t-30 74.5q0 43 30.5 74t73.5 31t74 -31t31 -74q0 -44 -31 -74.5t-74 -30.5z" />
    <glyph glyph-name="oslash" unicode="&#xf8;" horiz-adv-x="1045" 
d="M859 755q119 -122 119 -321q0 -101 -30.5 -183t-78 -132.5t-109.5 -85t-121 -48t-117 -13.5q-60 0 -134 19t-140 63l-106 -122l-60 52l105 120q-120 122 -120 330q0 119 42.5 211t111 144t145 78t155.5 26q154 0 279 -87l108 124l58 -52zM275 440q0 -113 31 -200l402 461
q-67 110 -186 110q-116 0 -181.5 -105.5t-65.5 -265.5zM524 53q104 0 175 103.5t71 276.5q0 107 -27 189l-400 -459q70 -110 181 -110z" />
    <glyph glyph-name="ugrave" unicode="&#xf9;" horiz-adv-x="1182" 
d="M591 1030l-412 318v4h270l208 -322h-66zM458 -28q-137 0 -211 78.5t-74 238.5v392q0 52 -20 78t-65 26h-70v80h353v-572q0 -103 35.5 -155t120.5 -52q82 0 153 79t114 184v332q0 45 -16 74.5t-52 29.5h-81v80h347v-680q0 -52 18 -78.5t68 -20.5l75 17l4 -79l-363 -49v233
q-63 -103 -151 -169.5t-185 -66.5z" />
    <glyph glyph-name="uacute" unicode="&#xfa;" horiz-adv-x="1182" 
d="M591 1030h-66l208 322h270v-4zM458 -28q-137 0 -211 78.5t-74 238.5v392q0 52 -20 78t-65 26h-70v80h353v-572q0 -103 35.5 -155t120.5 -52q82 0 153 79t114 184v332q0 45 -16 74.5t-52 29.5h-81v80h347v-680q0 -52 18 -78.5t68 -20.5l75 17l4 -79l-363 -49v233
q-63 -103 -151 -169.5t-185 -66.5z" />
    <glyph glyph-name="ucircumflex" unicode="&#xfb;" horiz-adv-x="1182" 
d="M235 1030l253 322h205l253 -322h-66l-289 230l-290 -230h-66zM458 -28q-137 0 -211 78.5t-74 238.5v392q0 52 -20 78t-65 26h-70v80h353v-572q0 -103 35.5 -155t120.5 -52q82 0 153 79t114 184v332q0 45 -16 74.5t-52 29.5h-81v80h347v-680q0 -52 18 -78.5t68 -20.5
l75 17l4 -79l-363 -49v233q-63 -103 -151 -169.5t-185 -66.5z" />
    <glyph glyph-name="udieresis" unicode="&#xfc;" horiz-adv-x="1182" 
d="M397 1122q-43 0 -74 31t-31 73q0 44 31 74.5t74 30.5q44 0 74.5 -30.5t30.5 -74.5t-31 -74t-74 -30zM780 1122q-43 0 -74 31t-31 73q0 44 30.5 74.5t74.5 30.5t74.5 -30.5t30.5 -74.5t-31 -74t-74 -30zM458 -28q-137 0 -211 78.5t-74 238.5v392q0 52 -20 78t-65 26h-70
v80h353v-572q0 -103 35.5 -155t120.5 -52q82 0 153 79t114 184v332q0 45 -16 74.5t-52 29.5h-81v80h347v-680q0 -52 18 -78.5t68 -20.5l75 17l4 -79l-363 -49v233q-63 -103 -151 -169.5t-185 -66.5z" />
    <glyph glyph-name="yacute" unicode="&#xfd;" horiz-adv-x="1034" 
d="M519 1030h-66l208 322h270v-4zM217 -497q-43 -1 -69 22.5t-27 59.5q0 21 8 36.5t23 25t26.5 14t27.5 8.5q90 21 154.5 69t113.5 155l40 90l-388 708q-31 58 -49.5 76t-50.5 18h-41v80h452v-80h-61q-47 0 -51.5 -29t20.5 -71l265 -502l208 469q13 32 18.5 53.5t5 41
t-14 29t-40.5 9.5h-68v80h328v-80h-24q-34 0 -58 -26t-54 -98l-370 -825q-76 -169 -148 -245.5t-176 -87.5z" />
    <glyph glyph-name="thorn" unicode="&#xfe;" horiz-adv-x="1123" 
d="M-9 -511v80h80q48 0 65.5 26t17.5 78v1475q0 54 -20 78.5t-79 20.5l-64 -15l-5 77l362 73v-630q61 66 141.5 103.5t165.5 37.5q79 0 152 -33t128.5 -91.5t88.5 -144.5t33 -186q0 -101 -34 -189.5t-91.5 -148.5t-132.5 -94t-156 -34q-166 0 -292 126v-425q0 -53 19 -78.5
t80 -25.5h84v-80h-543zM581 75q55 0 101.5 23.5t76.5 60.5t51 85t30.5 94.5t9.5 90.5q0 94 -29 174.5t-90.5 133.5t-142.5 53q-69 0 -132.5 -40t-104.5 -104v-451q46 -57 108.5 -88.5t121.5 -31.5z" />
    <glyph glyph-name="ydieresis" unicode="&#xff;" horiz-adv-x="1034" 
d="M325 1122q-43 0 -74 31t-31 73q0 44 31 74.5t74 30.5q44 0 74.5 -30.5t30.5 -74.5t-31 -74t-74 -30zM708 1122q-43 0 -74 31t-31 73q0 44 30.5 74.5t74.5 30.5t74.5 -30.5t30.5 -74.5t-31 -74t-74 -30zM217 -497q-43 -1 -69 22.5t-27 59.5q0 21 8 36.5t23 25t26.5 14
t27.5 8.5q90 21 154.5 69t113.5 155l40 90l-388 708q-31 58 -49.5 76t-50.5 18h-41v80h452v-80h-61q-47 0 -51.5 -29t20.5 -71l265 -502l208 469q13 32 18.5 53.5t5 41t-14 29t-40.5 9.5h-68v80h328v-80h-24q-34 0 -58 -26t-54 -98l-370 -825q-76 -169 -148 -245.5
t-176 -87.5z" />
    <glyph glyph-name="dotlessi" unicode="&#x131;" horiz-adv-x="615" 
d="M59 0v79h78q54 0 73 23.5t19 81.5v476q0 60 -19.5 83.5t-73.5 17.5l-77 -16l-6 78l373 74v-713q0 -52 17.5 -78.5t65.5 -26.5h85v-79h-535z" />
    <glyph glyph-name="Lslash" unicode="&#x141;" horiz-adv-x="1300" 
d="M1168 450l76 -2l-22 -448h-1165v79h109q62 0 86 25.5t24 94.5v251l-191 -147v124l191 147v579q0 64 -22.5 91.5t-89.5 27.5h-107v80h654v-80h-106q-68 0 -92 -26.5t-24 -92.5v-416l404 310v-123l-404 -310v-399q0 -35 3.5 -55.5t14.5 -39.5t35.5 -27t64.5 -8h304
q189 0 233 178z" />
    <glyph glyph-name="lslash" unicode="&#x142;" horiz-adv-x="567" 
d="M605 888l-221 -170v-534q0 -105 67 -105h86v-79h-513v79h77q51 0 68 25t17 80v382l-223 -172v113l223 171v474q0 56 -19 81.5t-70 19.5l-73 -17l-6 79l366 73v-558l221 170v-112z" />
    <glyph glyph-name="OE" unicode="&#x152;" horiz-adv-x="2195" 
d="M843 0q-175 0 -313.5 40.5t-239 122t-154 210.5t-53.5 300q0 332 201 501t559 177l1161 1l20 -350l-78 -1l-28 163q-22 64 -55.5 83.5t-97.5 19.5h-417q-55 -18 -55 -112v-405h297q110 0 110 79v104h81v-460h-81v102q0 52 -28.5 71t-79.5 19h-299v-447q0 -69 20 -101
t87 -32h382q92 0 130 25.5t55 87.5l47 248l78 -2l-23 -444h-1226zM789 85h216q43 0 59 31.5t16 91.5v945q0 61 -16 90t-52 29h-197q-75 0 -143.5 -20t-132.5 -65.5t-111.5 -113.5t-75.5 -170.5t-28 -228.5q0 -167 51 -298.5t158 -211t256 -79.5z" />
    <glyph glyph-name="oe" unicode="&#x153;" horiz-adv-x="1695" 
d="M1277 61q81 0 149 46.5t111 128.5l69 -40q-55 -103 -155 -163.5t-224 -60.5q-105 0 -194 43t-149 121q-67 -84 -166 -124t-196 -40q-47 0 -99 10t-117.5 41t-116.5 79t-86.5 134.5t-35.5 197.5q0 119 42.5 211t111 144t145 78t155.5 26q95 0 194 -40t167 -123
q59 78 147 120.5t191 42.5q75 0 146.5 -26.5t133 -78t99.5 -140.5t39 -202h-643q0 -53 8.5 -104t29 -102.5t51.5 -90.5t81 -63.5t112 -24.5zM524 53q104 0 175 103.5t71 276.5q0 167 -65.5 272.5t-182.5 105.5q-116 0 -181.5 -105.5t-65.5 -265.5q0 -177 71 -282t178 -105z
M1222 811q-55 0 -98 -26t-69 -69.5t-40.5 -92.5t-18.5 -101h453q-4 53 -19.5 102t-41.5 92t-69 69t-97 26z" />
    <glyph glyph-name="Scaron" unicode="&#x160;" horiz-adv-x="1143" 
d="M476 1456l-253 322h66l289 -230l290 230h66l-253 -322h-205zM637 -25q-124 0 -231 54t-171 161l-18 -168h-84v465h84q7 -84 35.5 -158t77.5 -133.5t123 -94.5t165 -35q101 0 176.5 66t75.5 176q0 98 -67 157.5t-206 112.5q-197 85 -266 128q-131 80 -167 191
q-17 52 -17 117q0 156 113.5 260t270.5 104q92 0 180 -45t145 -126l20 147h80v-398h-80q-19 155 -115.5 245.5t-215.5 90.5q-110 0 -171 -62t-61 -142q0 -57 17 -96.5t71.5 -75.5t93.5 -54t146 -61q13 -5 19 -8q59 -23 101 -42.5t91 -47.5t81.5 -59t61 -70.5t42.5 -90
t14 -109.5q0 -96 -39 -175t-100.5 -126t-133 -72.5t-141.5 -25.5z" />
    <glyph glyph-name="scaron" unicode="&#x161;" horiz-adv-x="988" 
d="M597 1030h-205l-253 322h66l289 -230l290 230h66zM512 546q46 -7 79 -13t77 -17.5t75 -25t64 -35t53 -47.5t33 -63t13 -81q0 -94 -53.5 -161.5t-138.5 -99t-190 -31.5q-97 0 -175 26t-125 65l-41 -91h-62l-4 275h73q113 -195 338 -195q102 0 168 42t66 116
q0 31 -14.5 54.5t-34.5 37.5t-58 25.5t-67.5 17t-81.5 12.5q-52 8 -84 14t-79.5 18t-77 24.5t-63.5 33t-53 45t-32 60t-13 77.5q0 123 94.5 193.5t260.5 70.5q180 0 285 -87l33 87h59l5 -261h-60q-40 84 -122 132t-202 48q-97 0 -155.5 -32t-58.5 -97q0 -18 4 -32.5
t15.5 -26t21.5 -20t32 -16.5t37.5 -13t47.5 -11t51.5 -9t59.5 -9z" />
    <glyph glyph-name="Wcircumflex" unicode="&#x174;" horiz-adv-x="1952" 
d="M975 1701l-290 -231h-66l242 322h227l242 -322h-66zM1518 1352h427v-80h-46q-49 0 -77 -44t-55 -145l-299 -1108h-134l-357 1116l-320 -1116h-136l-346 1164q-23 79 -46.5 106t-71.5 27h-50v80h570v-80h-127q-56 0 -69 -35t9 -97l266 -899l316 1120h126l357 -1114
l221 832q11 43 15 73.5t0.5 60t-23 44.5t-55.5 15h-95v80z" />
    <glyph glyph-name="wcircumflex" unicode="&#x175;" horiz-adv-x="1593" 
d="M797 1260l-290 -230h-66l253 322h205l253 -322h-66zM1258 865h347v-80h-46q-35 0 -56.5 -25.5t-39.5 -74.5l-266 -704h-132l-260 696l-260 -696h-131l-262 705q-22 57 -43 78t-56 21h-64v80h491v-80h-75q-51 0 -62 -22.5t9 -74.5l186 -512l266 699h122l263 -702l177 484
q27 66 18 97t-71 31h-55v80z" />
    <glyph glyph-name="Ycircumflex" unicode="&#x176;" horiz-adv-x="1371" 
d="M331 1470l242 322h227l242 -322h-66l-289 231l-290 -231h-66zM361 0v79h122q68 0 89.5 29t21.5 90v305l-389 652q-35 62 -64.5 89.5t-69.5 27.5h-67v80h577v-80h-94q-54 0 -60.5 -36.5t25.5 -84.5l323 -539l304 507q40 67 27.5 110t-77.5 43h-74v80h413v-80h-38
q-64 0 -134 -120l-387 -637l-1 -316q0 -64 22 -92t90 -28h121v-79h-680z" />
    <glyph glyph-name="ycircumflex" unicode="&#x177;" horiz-adv-x="1034" 
d="M163 1030l253 322h205l253 -322h-66l-289 230l-290 -230h-66zM217 -497q-43 -1 -69 22.5t-27 59.5q0 21 8 36.5t23 25t26.5 14t27.5 8.5q90 21 154.5 69t113.5 155l40 90l-388 708q-31 58 -49.5 76t-50.5 18h-41v80h452v-80h-61q-47 0 -51.5 -29t20.5 -71l265 -502
l208 469q13 32 18.5 53.5t5 41t-14 29t-40.5 9.5h-68v80h328v-80h-24q-34 0 -58 -26t-54 -98l-370 -825q-76 -169 -148 -245.5t-176 -87.5z" />
    <glyph glyph-name="Ydieresis" unicode="&#x178;" horiz-adv-x="1371" 
d="M495 1501q-43 0 -74 31.5t-31 73.5q0 43 31 73.5t74 30.5q44 0 74.5 -30.5t30.5 -73.5q0 -45 -31 -75t-74 -30zM878 1501q-43 0 -74 31.5t-31 73.5q0 43 30.5 73.5t74.5 30.5q43 0 74 -30.5t31 -73.5q0 -44 -31 -74.5t-74 -30.5zM361 0v79h122q68 0 89.5 29t21.5 90v305
l-389 652q-35 62 -64.5 89.5t-69.5 27.5h-67v80h577v-80h-94q-54 0 -60.5 -36.5t25.5 -84.5l323 -539l304 507q40 67 27.5 110t-77.5 43h-74v80h413v-80h-38q-64 0 -134 -120l-387 -637l-1 -316q0 -64 22 -92t90 -28h121v-79h-680z" />
    <glyph glyph-name="Zcaron" unicode="&#x17d;" horiz-adv-x="1354" 
d="M773 1456h-205l-253 322h66l289 -230l290 230h66zM1194 424l79 -2l-32 -422h-1164v92l892 1183h-534q-107 0 -160.5 -25t-74.5 -103l-24 -148l-78 1l30 360h1098v-90l-901 -1185h612q88 0 140.5 26.5t83.5 112.5z" />
    <glyph glyph-name="zcaron" unicode="&#x17e;" horiz-adv-x="977" 
d="M593 1030h-205l-253 322h66l289 -230l290 230h66zM815 287l76 -2l-26 -285h-794v86l570 699h-353q-35 0 -53.5 -16t-37.5 -72l-21 -102l-79 3l27 267h757v-90l-571 -696h368q38 0 64.5 18.5t47.5 75.5z" />
    <glyph glyph-name="florin" unicode="&#x192;" horiz-adv-x="1094" 
d="M199 -454q-66 0 -104 32.5t-41 82.5q-2 35 16.5 59.5t49.5 23.5q20 -1 39.5 -20t20.5 -51q0 -5 1 -17t1.5 -15.5t2 -11.5t2.5 -10l3.5 -7t6 -6.5t8 -3.5t11 -2.5t14.5 -0.5q19 0 33 6.5t23.5 21t16 29.5t11 41.5t7.5 46.5t7 54t7 56q4 35 12 83t15.5 86.5t23 115
t24.5 124.5l103 519h-177l14 85h75q76 0 111 39t65 140q16 57 33 102.5t41.5 89t52.5 72.5t66.5 46.5t83.5 17.5q57 0 100 -27.5t49 -81.5q5 -39 -13 -66t-50 -27q-28 0 -43 22t-19 47q-4 23 -1 42.5t-4.5 32.5t-32.5 13q-39 0 -71 -30t-43 -90q-8 -26 -13.5 -65t-10 -90
t-6.5 -69q-5 -62 -15 -118h212l-13 -85h-216l-99 -503q-82 -414 -164 -559q-25 -71 -83.5 -122.5t-142.5 -51.5z" />
    <glyph glyph-name="oslashacute" unicode="&#x1ff;" horiz-adv-x="1045" 
d="M936 1348l-412 -318h-66l208 322h270v-4zM859 755q119 -122 119 -321q0 -101 -30.5 -183t-78 -132.5t-109.5 -85t-121 -48t-117 -13.5q-60 0 -134 19t-140 63l-106 -122l-60 52l105 120q-120 122 -120 330q0 119 42.5 211t111 144t145 78t155.5 26q154 0 279 -87l108 124
l58 -52zM275 440q0 -113 31 -200l402 461q-67 110 -186 110q-116 0 -181.5 -105.5t-65.5 -265.5zM524 53q104 0 175 103.5t71 276.5q0 107 -27 189l-400 -459q70 -110 181 -110z" />
    <glyph glyph-name="uni0237" unicode="&#x237;" horiz-adv-x="544" 
d="M6 -524q-108 0 -179.5 50.5t-80.5 143.5q-1 35 20.5 59t54.5 25q28 1 49 -16.5t29 -49.5q27 -129 140 -129q155 0 155 278v822q0 56 -20.5 82t-82.5 19l-73 -17l-5 79l378 75v-970q0 -232 -88 -341.5t-297 -109.5z" />
    <glyph glyph-name="circumflex" unicode="&#x2c6;" horiz-adv-x="811" 
d="M50 1030l253 322h205l253 -322h-66l-289 230l-290 -230h-66z" />
    <glyph glyph-name="caron" unicode="&#x2c7;" horiz-adv-x="815" 
d="M305 1030l-253 322h66l289 -230l290 230h66l-253 -322h-205z" />
    <glyph glyph-name="breve" unicode="&#x2d8;" horiz-adv-x="942" 
d="M376 995q-126 0 -204.5 83t-94.5 194h58q29 -83 93 -121.5t151 -38.5q49 0 89 13t63.5 29.5t42.5 42t26 40.5t14 35h56q-4 -46 -22.5 -91.5t-52 -88.5t-91 -70t-128.5 -27z" />
    <glyph glyph-name="dotaccent" unicode="&#x2d9;" horiz-adv-x="428" 
d="M213 1080q-43 0 -74 31t-31 73q0 44 31 74.5t74 30.5q44 0 75 -30.5t31 -74.5t-31.5 -74t-74.5 -30z" />
    <glyph glyph-name="ring" unicode="&#x2da;" horiz-adv-x="506" 
d="M253 981q-82 0 -139.5 57.5t-57.5 139.5q0 81 57.5 137.5t139.5 56.5q81 0 138.5 -56.5t57.5 -137.5q0 -82 -57.5 -139.5t-138.5 -57.5zM253 1059q49 0 83.5 35t34.5 84t-34.5 83.5t-83.5 34.5t-83 -34.5t-34 -83.5q0 -50 34 -84.5t83 -34.5z" />
    <glyph glyph-name="ogonek" unicode="&#x2db;" horiz-adv-x="838" 
d="M333 -369q-109 0 -173.5 64.5t-64.5 151.5q0 91 83 174l29 -21q-35 -52 -35 -106q0 -80 61.5 -138.5t148.5 -58.5q68 0 136 40l22 -30q-103 -76 -207 -76z" />
    <glyph glyph-name="tilde" unicode="&#x2dc;" horiz-adv-x="892" 
d="M100 1017q-3 123 49.5 194.5t151.5 71.5q13 0 26.5 -2t23.5 -3.5t24.5 -7t21 -8t23 -11t20.5 -10.5t23 -12.5t21 -11.5q6 -4 22 -14t21.5 -13.5t18.5 -10.5t21.5 -9t20.5 -4.5t25 -2.5q47 0 77.5 35t32.5 102h66q4 -76 -16.5 -138.5t-68 -102.5t-114.5 -40
q-36 0 -74.5 12.5t-57 23t-57.5 33.5q-79 53 -132 53q-50 0 -77 -35.5t-29 -88.5h-63z" />
    <glyph glyph-name="hungarumlaut" unicode="&#x2dd;" horiz-adv-x="955" 
d="M50 1030l208 322h270v-4l-412 -318h-66zM463 1030l207 322h270v-4l-412 -318h-65z" />
    <glyph glyph-name="gravecomb" unicode="&#x300;" 
d="M-116 1030l-412 318v4h270l208 -322h-66z" />
    <glyph glyph-name="acutecomb" unicode="&#x301;" 
d="M-414 1030h-66l208 322h270v-4z" />
    <glyph glyph-name="uni0302" unicode="&#x302;" 
d="M-761 1030l253 322h205l253 -322h-66l-289 230l-290 -230h-66z" />
    <glyph glyph-name="tildecomb" unicode="&#x303;" 
d="M-792 1017q-3 123 49.5 194.5t151.5 71.5q13 0 26.5 -2t23.5 -3.5t24.5 -7t21 -8t23 -11t20.5 -10.5t23 -12.5t21 -11.5q6 -4 22 -14t21.5 -13.5t18.5 -10.5t21.5 -9t20.5 -4.5t25 -2.5q47 0 77.5 35t32.5 102h66q4 -76 -16.5 -138.5t-68 -102.5t-114.5 -40
q-36 0 -74.5 12.5t-57 23t-57.5 33.5q-79 53 -132 53q-50 0 -77 -35.5t-29 -88.5h-63z" />
    <glyph glyph-name="uni0304" unicode="&#x304;" 
d="M-865 1093v144h725v-144h-725z" />
    <glyph glyph-name="uni0306" unicode="&#x306;" 
d="M-372 995q-126 0 -204.5 83t-94.5 194h58q29 -83 93 -121.5t151 -38.5q49 0 89 13t63.5 29.5t42.5 42t26 40.5t14 35h56q-4 -46 -22.5 -91.5t-52 -88.5t-91 -70t-128.5 -27z" />
    <glyph glyph-name="uni0307" unicode="&#x307;" 
d="M-215 1080q-43 0 -74 31t-31 73q0 44 31 74.5t74 30.5q44 0 75 -30.5t31 -74.5t-31.5 -74t-74.5 -30z" />
    <glyph glyph-name="uni0308" unicode="&#x308;" 
d="M-597 1122q-43 0 -74 31t-31 73q0 44 31 74.5t74 30.5q44 0 74.5 -30.5t30.5 -74.5t-31 -74t-74 -30zM-214 1122q-43 0 -74 31t-31 73q0 44 30.5 74.5t74.5 30.5t74.5 -30.5t30.5 -74.5t-31 -74t-74 -30z" />
    <glyph glyph-name="uni030A" unicode="&#x30a;" 
d="M-282 971q-78 0 -133 54.5t-55 133.5t55 133.5t133 54.5t133 -55t55 -133t-55 -133t-133 -55zM-282 1032q53 0 90 37t37 90t-37 90t-90 37q-52 0 -88.5 -37t-36.5 -90t36.5 -90t88.5 -37z" />
    <glyph glyph-name="uni030B" unicode="&#x30b;" 
d="M-903 1030l208 322h270v-4l-412 -318h-66zM-490 1030l207 322h270v-4l-412 -318h-65z" />
    <glyph glyph-name="uni030C" unicode="&#x30c;" 
d="M-510 1030l-253 322h66l289 -230l290 230h66l-253 -322h-205z" />
    <glyph glyph-name="uni0327" unicode="&#x327;" 
d="M-365 -487q-104 0 -200 24l15 80q74 -17 160 -17q110 0 166.5 32t56.5 78q0 25 -20 40.5t-57.5 21.5t-67.5 8t-73 2h-20l47 246l88 -7l-30 -146q111 -1 179.5 -39t68.5 -119q0 -82 -80.5 -143t-232.5 -61z" />
    <glyph glyph-name="uni0328" unicode="&#x328;" 
d="M-234 -369q-109 0 -173.5 64.5t-64.5 151.5q0 91 83 174l29 -21q-35 -52 -35 -106q0 -80 61.5 -138.5t148.5 -58.5q68 0 136 40l22 -30q-103 -76 -207 -76z" />
    <glyph glyph-name="uni0337" unicode="&#x337;" 
d="M-650 405v113l642 493v-112z" />
    <glyph glyph-name="uni0338" unicode="&#x338;" 
d="M-798 -52l-60 52l826 946l58 -52z" />
    <glyph glyph-name="uni0394" unicode="&#x394;" horiz-adv-x="1007" 
d="M610 1438l309 -1438h-831l312 1438h210zM456 1263l-261 -1184h513z" />
    <glyph glyph-name="uni03A9" unicode="&#x3a9;" horiz-adv-x="1458" 
d="M149 0v326h60v-87q0 -111 108 -111h262v140q-391 171 -391 584q0 260 142.5 416t397.5 156q169 0 294 -76.5t187 -204t62 -289.5q0 -201 -103 -354.5t-285 -224.5v-147h259q109 0 109 109v89h60v-326h-513v331q64 36 113 93t78.5 126t44 144.5t14.5 155.5q0 260 -84 383
t-236 123q-160 0 -243 -132.5t-83 -370.5q0 -192 66.5 -330.5t195.5 -197.5v-325h-515z" />
    <glyph glyph-name="Wgrave" unicode="&#x1e80;" horiz-adv-x="1952" 
d="M1008 1438h-66l-412 317v4h270zM1518 1352h427v-80h-46q-49 0 -77 -44t-55 -145l-299 -1108h-134l-357 1116l-320 -1116h-136l-346 1164q-23 79 -46.5 106t-71.5 27h-50v80h570v-80h-127q-56 0 -69 -35t9 -97l266 -899l316 1120h126l357 -1114l221 832q11 43 15 73.5
t0.5 60t-23 44.5t-55.5 15h-95v80z" />
    <glyph glyph-name="wgrave" unicode="&#x1e81;" horiz-adv-x="1593" 
d="M863 1030h-66l-412 318v4h270zM1258 865h347v-80h-46q-35 0 -56.5 -25.5t-39.5 -74.5l-266 -704h-132l-260 696l-260 -696h-131l-262 705q-22 57 -43 78t-56 21h-64v80h491v-80h-75q-51 0 -62 -22.5t9 -74.5l186 -512l266 699h122l263 -702l177 484q27 66 18 97t-71 31
h-55v80z" />
    <glyph glyph-name="Wacute" unicode="&#x1e82;" horiz-adv-x="1952" 
d="M1420 1755l-412 -317h-66l208 321h270v-4zM1518 1352h427v-80h-46q-49 0 -77 -44t-55 -145l-299 -1108h-134l-357 1116l-320 -1116h-136l-346 1164q-23 79 -46.5 106t-71.5 27h-50v80h570v-80h-127q-56 0 -69 -35t9 -97l266 -899l316 1120h126l357 -1114l221 832
q11 43 15 73.5t0.5 60t-23 44.5t-55.5 15h-95v80z" />
    <glyph glyph-name="wacute" unicode="&#x1e83;" horiz-adv-x="1593" 
d="M1209 1348l-412 -318h-66l208 322h270v-4zM1258 865h347v-80h-46q-35 0 -56.5 -25.5t-39.5 -74.5l-266 -704h-132l-260 696l-260 -696h-131l-262 705q-22 57 -43 78t-56 21h-64v80h491v-80h-75q-51 0 -62 -22.5t9 -74.5l186 -512l266 699h122l263 -702l177 484
q27 66 18 97t-71 31h-55v80z" />
    <glyph glyph-name="Wdieresis" unicode="&#x1e84;" horiz-adv-x="1952" 
d="M783 1501q-43 0 -74 31.5t-31 73.5q0 43 31 73.5t74 30.5q44 0 74.5 -30.5t30.5 -73.5q0 -45 -31 -75t-74 -30zM1166 1501q-43 0 -74 31.5t-31 73.5q0 43 30.5 73.5t74.5 30.5q43 0 74 -30.5t31 -73.5q0 -44 -31 -74.5t-74 -30.5zM1518 1352h427v-80h-46q-49 0 -77 -44
t-55 -145l-299 -1108h-134l-357 1116l-320 -1116h-136l-346 1164q-23 79 -46.5 106t-71.5 27h-50v80h570v-80h-127q-56 0 -69 -35t9 -97l266 -899l316 1120h126l357 -1114l221 832q11 43 15 73.5t0.5 60t-23 44.5t-55.5 15h-95v80z" />
    <glyph glyph-name="wdieresis" unicode="&#x1e85;" horiz-adv-x="1593" 
d="M603 1122q-43 0 -74 31t-31 73q0 44 31 74.5t74 30.5q44 0 74.5 -30.5t30.5 -74.5t-31 -74t-74 -30zM986 1122q-43 0 -74 31t-31 73q0 44 30.5 74.5t74.5 30.5t74.5 -30.5t30.5 -74.5t-31 -74t-74 -30zM1258 865h347v-80h-46q-35 0 -56.5 -25.5t-39.5 -74.5l-266 -704
h-132l-260 696l-260 -696h-131l-262 705q-22 57 -43 78t-56 21h-64v80h491v-80h-75q-51 0 -62 -22.5t9 -74.5l186 -512l266 699h122l263 -702l177 484q27 66 18 97t-71 31h-55v80z" />
    <glyph glyph-name="Ygrave" unicode="&#x1ef2;" horiz-adv-x="1371" 
d="M654 1438l-412 317v4h270l208 -321h-66zM361 0v79h122q68 0 89.5 29t21.5 90v305l-389 652q-35 62 -64.5 89.5t-69.5 27.5h-67v80h577v-80h-94q-54 0 -60.5 -36.5t25.5 -84.5l323 -539l304 507q40 67 27.5 110t-77.5 43h-74v80h413v-80h-38q-64 0 -134 -120l-387 -637
l-1 -316q0 -64 22 -92t90 -28h121v-79h-680z" />
    <glyph glyph-name="ygrave" unicode="&#x1ef3;" horiz-adv-x="1034" 
d="M519 1030l-412 318v4h270l208 -322h-66zM217 -497q-43 -1 -69 22.5t-27 59.5q0 21 8 36.5t23 25t26.5 14t27.5 8.5q90 21 154.5 69t113.5 155l40 90l-388 708q-31 58 -49.5 76t-50.5 18h-41v80h452v-80h-61q-47 0 -51.5 -29t20.5 -71l265 -502l208 469q13 32 18.5 53.5
t5 41t-14 29t-40.5 9.5h-68v80h328v-80h-24q-34 0 -58 -26t-54 -98l-370 -825q-76 -169 -148 -245.5t-176 -87.5z" />
    <glyph glyph-name="endash" unicode="&#x2013;" horiz-adv-x="1327" 
d="M139 347v120h1049v-120h-1049z" />
    <glyph glyph-name="emdash" unicode="&#x2014;" horiz-adv-x="2327" 
d="M139 347v120h2048v-120h-2048z" />
    <glyph glyph-name="quoteleft" unicode="&#x2018;" horiz-adv-x="559" 
d="M284 782q-81 0 -127.5 61t-46.5 163q0 80 28 148t74.5 113.5t102 74t114.5 38.5l8 -82q-73 -14 -126 -53.5t-75 -82t-22 -80.5q0 -44 33 -41q6 1 25 5.5t31 4.5q46 0 84 -35.5t38 -93.5q0 -55 -37.5 -97.5t-103.5 -42.5z" />
    <glyph glyph-name="quoteright" unicode="&#x2019;" horiz-adv-x="561" 
d="M131 782l-7 82q107 21 165 87.5t58 128.5q0 21 -9.5 32t-24.5 9q-6 -1 -24.5 -5.5t-31.5 -4.5q-45 0 -83.5 36t-38.5 94q0 55 37.5 97t103.5 42q81 0 127.5 -61t46.5 -163q0 -80 -28 -148t-74.5 -113.5t-102 -74t-114.5 -38.5z" />
    <glyph glyph-name="quotesinglbase" unicode="&#x201a;" horiz-adv-x="561" 
d="M131 -364l-7 82q107 21 165 87.5t58 128.5q0 21 -9.5 32t-24.5 9q-7 -1 -27 -5.5t-29 -4.5q-45 0 -83.5 35.5t-38.5 93.5q0 55 37.5 97.5t103.5 42.5q81 0 127.5 -61t46.5 -163q0 -80 -28 -148t-74.5 -113.5t-102 -74t-114.5 -38.5z" />
    <glyph glyph-name="quotedblleft" unicode="&#x201c;" horiz-adv-x="1008" 
d="M282 782q-80 0 -126 61t-46 163q0 80 27.5 148t73.5 113.5t100.5 74t113.5 38.5l6 -82q-105 -21 -161.5 -87.5t-56.5 -128.5q0 -44 33 -41q5 1 23.5 5.5t31.5 4.5q44 0 81.5 -35.5t37.5 -93.5q0 -55 -36.5 -97.5t-101.5 -42.5zM734 782q-79 0 -125 61t-46 163
q0 80 28 148t73.5 113.5t100 74t112.5 38.5l8 -82q-105 -21 -162.5 -87.5t-57.5 -128.5q0 -21 9.5 -32t24.5 -9q6 1 24.5 5.5t30.5 4.5q45 0 82.5 -35.5t37.5 -93.5q0 -55 -37.5 -97.5t-102.5 -42.5z" />
    <glyph glyph-name="quotedblright" unicode="&#x201d;" horiz-adv-x="1010" 
d="M131 782l-7 82q104 21 161 87.5t57 128.5q0 21 -9 32t-23 9q-7 -1 -25.5 -5.5t-30.5 -4.5q-45 0 -82.5 36t-37.5 94q0 55 37 97t102 42q80 0 125.5 -61t45.5 -163q0 -80 -27.5 -148t-73.5 -113.5t-100 -74t-112 -38.5zM584 782l-8 82q105 21 162.5 87.5t57.5 128.5
q0 21 -9.5 32t-24.5 9q-6 -1 -24.5 -5.5t-30.5 -4.5q-45 0 -82.5 36t-37.5 94q0 54 37.5 96.5t102.5 42.5q79 0 125 -61t46 -163q0 -80 -28 -148t-73.5 -113.5t-100 -74t-112.5 -38.5z" />
    <glyph glyph-name="quotedblbase" unicode="&#x201e;" horiz-adv-x="1022" 
d="M131 -364l-7 82q107 21 165 87.5t58 128.5q0 21 -9.5 32t-24.5 9q-7 -1 -27 -5.5t-29 -4.5q-45 0 -83.5 35.5t-38.5 93.5q0 55 37.5 97.5t103.5 42.5q81 0 127.5 -61t46.5 -163q0 -80 -28 -148t-74.5 -113.5t-102 -74t-114.5 -38.5zM591 -364l-7 82q107 21 165 87.5
t58 128.5q0 21 -9 32t-24 9q-8 -1 -28 -5.5t-29 -4.5q-45 0 -83 35.5t-38 93.5q0 55 37.5 97.5t103.5 42.5q81 0 127 -61t46 -163q0 -80 -28 -148t-74.5 -113.5t-102 -74t-114.5 -38.5z" />
    <glyph glyph-name="dagger" unicode="&#x2020;" horiz-adv-x="933" 
d="M425 -294v139q0 86 -5.5 209.5t-11.5 217t-12.5 183.5t-6.5 98q-7 154 35 222q-25 -3 -118 -33t-141 -30q-14 0 -29 3t-37.5 12.5t-36.5 33.5t-14 60q0 62 34.5 87t75.5 25q50 0 142 -33t124 -38q-1 3 -15 44t-20 60t-16 56.5t-14 70t-4 63.5q0 46 12.5 78t32.5 45.5
t35.5 18.5t31.5 5q43 0 77 -33.5t34 -103.5q0 -22 -3.5 -50t-7.5 -49t-13.5 -56t-13.5 -49.5t-16 -53.5t-14 -46q24 6 116.5 37t145.5 31q55 0 84 -32t29 -77t-28.5 -78t-84.5 -33q-49 0 -143 31.5t-110 33.5q23 -40 28 -99t-1 -125q-2 -40 -11.5 -158.5t-17.5 -263.5
t-8 -288v-135h-84z" />
    <glyph glyph-name="daggerdbl" unicode="&#x2021;" horiz-adv-x="992" 
d="M801 18q57 0 85 -32.5t28 -78.5q0 -44 -28.5 -76.5t-84.5 -32.5q-40 0 -80.5 10.5t-91.5 29t-88 27.5q1 -4 9 -30.5t10.5 -34t9.5 -32.5t10 -36.5t8.5 -34t7.5 -37t5.5 -33t4.5 -34.5t1 -31q0 -70 -34 -103.5t-77 -33.5q-16 0 -31.5 5t-35.5 18.5t-32 45.5t-12 78
q0 23 2 46t7.5 49t9.5 43.5t12.5 46t12 38.5t13.5 39.5t11 31.5l3 1q-31 -5 -125 -38.5t-144 -33.5q-40 0 -74.5 25t-34.5 87q0 29 10.5 51t24 32.5t31.5 17t29.5 8t21.5 1.5q47 0 139 -29.5t114 -33.5q-39 86 -30 222q5 29 5 187.5t-5 189.5q-9 133 30 221
q-24 -3 -115 -32.5t-138 -29.5q-14 0 -29 3t-37.5 12.5t-36.5 33.5t-14 60q0 62 34.5 87t74.5 25q50 0 144 -33.5t125 -38.5l-3 1q-2 4 -10 27.5t-11 33t-10.5 33.5t-11.5 38.5t-9.5 38t-8.5 42t-5 40t-2 41.5q0 46 12 78t32 45.5t35.5 18.5t31.5 5q43 0 77 -33.5t34 -103.5
q0 -15 -1 -31t-4.5 -34.5t-5.5 -33t-7.5 -37t-8.5 -34t-10 -36.5t-9.5 -32.5t-10.5 -34t-9 -30.5q23 6 115 36.5t145 30.5q56 0 84.5 -32t28.5 -77q0 -46 -28 -78.5t-85 -32.5q-48 0 -142 31t-111 34q23 -39 28 -98.5t-1 -125.5q-6 -70 -5.5 -189.5t5.5 -183.5q6 -66 1 -126
t-28 -99q17 3 111 34t142 31z" />
    <glyph glyph-name="bullet" unicode="&#x2022;" horiz-adv-x="801" 
d="M401 414q-107 0 -184 76.5t-77 183.5q0 109 77 183.5t184 74.5q106 0 182 -74.5t76 -183.5q0 -107 -75.5 -183.5t-182.5 -76.5z" />
    <glyph glyph-name="twodotenleader" unicode="&#x2025;" horiz-adv-x="1217" 
d="M301 -35q-57 0 -97.5 40.5t-40.5 96.5t40.5 96.5t97.5 40.5q55 0 95 -40.5t40 -96.5t-40 -96.5t-95 -40.5zM915 -35q-57 0 -96.5 40t-39.5 97t39.5 97t96.5 40q56 0 96 -40.5t40 -96.5t-40 -96.5t-96 -40.5z" />
    <glyph glyph-name="ellipsis" unicode="&#x2026;" horiz-adv-x="1832" 
d="M301 -35q-57 0 -97.5 40.5t-40.5 96.5t40.5 96.5t97.5 40.5q55 0 95 -40.5t40 -96.5t-40 -96.5t-95 -40.5zM915 -35q-57 0 -96.5 40t-39.5 97t39.5 97t96.5 40q56 0 96 -40.5t40 -96.5t-40 -96.5t-96 -40.5zM1531 -35q-56 0 -96.5 40.5t-40.5 96.5t40.5 96.5t96.5 40.5
t96 -40.5t40 -96.5t-40 -96.5t-96 -40.5z" />
    <glyph glyph-name="perthousand" unicode="&#x2030;" horiz-adv-x="2432" 
d="M378 671q-68 0 -121 25t-84 63t-51 87t-27 91t-7 81q0 167 76.5 263t211.5 96q70 0 124 -25t85 -62t51 -87t26.5 -93.5t6.5 -88.5t-8.5 -90.5t-30 -93t-53.5 -84t-83.5 -59.5t-115.5 -23zM476 0l693 1352h102l-694 -1352h-101zM380 728q38 0 65.5 25t40.5 67.5t18.5 86
t5.5 93.5q0 123 -18 196t-45.5 98.5t-70.5 25.5q-67 0 -97.5 -71.5t-30.5 -223.5q0 -60 5 -107t18 -93t40.5 -71.5t68.5 -25.5zM1342 -25q-68 0 -121 25t-84 62.5t-51 86.5t-27 91t-7 82q0 166 76.5 262t211.5 96q70 0 124 -24.5t85 -62t51 -87t26.5 -93t6.5 -88.5
t-8.5 -90.5t-30 -93t-53.5 -84t-83.5 -59.5t-115.5 -23zM2052 -25q-68 0 -121 25t-84 62.5t-51 86.5t-27 91t-7 82q0 166 76.5 262t211.5 96q70 0 124.5 -24.5t85.5 -62t51 -87t26.5 -93.5t6.5 -88q0 -45 -8.5 -90.5t-30 -93t-53.5 -84t-84 -59.5t-116 -23zM1344 32
q38 0 65 25t40 67.5t18.5 85.5t5.5 93q0 94 -9.5 158t-28 99t-41.5 49.5t-54 14.5q-67 0 -97.5 -72t-30.5 -224q0 -60 5 -106.5t18 -92.5t40.5 -71.5t68.5 -25.5zM2055 32q38 0 65 25t40 67.5t18.5 86t5.5 92.5q0 124 -18 197t-45.5 98.5t-70.5 25.5q-67 0 -97.5 -72
t-30.5 -224q0 -60 5 -106.5t18 -92.5t41 -71.5t69 -25.5z" />
    <glyph glyph-name="guilsinglleft" unicode="&#x2039;" horiz-adv-x="527" 
d="M370 0l-342 440l341 441h83l-242 -441l242 -440h-82z" />
    <glyph glyph-name="guilsinglright" unicode="&#x203a;" horiz-adv-x="527" 
d="M157 0h-82l242 440l-242 441h83l341 -441z" />
    <glyph glyph-name="Euro" unicode="&#x20ac;" horiz-adv-x="1202" 
d="M657 -25q-123 0 -222 76t-156.5 200t-75.5 280h-100l12 79h81q-2 20 -2 61q0 35 3 71h-94l12 80h89q21 158 78.5 280.5t156 197t223.5 74.5q92 0 167 -43.5t124 -129.5l4 137h79l2 -394l-79 -1q-26 163 -92.5 257t-175.5 94q-67 0 -119.5 -37t-87 -103t-55 -149.5
t-27.5 -182.5h461l-11 -80h-451q-2 -40 -2 -63v-69h432l-12 -79h-418q31 -473 286 -473q73 0 135.5 52.5t100 132t49.5 170.5l71 -11q-17 -115 -55 -200.5t-91.5 -133.5t-112.5 -70.5t-127 -22.5z" />
    <glyph glyph-name="uni2113" unicode="&#x2113;" horiz-adv-x="857" 
d="M478 -23q-109 0 -169.5 87t-60.5 228l-1 114q-14 -17 -69 -71t-67 -67l-40 54q13 15 84 84t91 94l-5 458q0 130 30.5 236t98 175t161.5 69q92 0 134 -55.5t42 -172.5q0 -246 -169 -493q-59 -93 -98 -137l2 -285q0 -105 23.5 -159t65.5 -54q45 0 71.5 53t38.5 168l70 -15
q-20 -159 -76.5 -235t-156.5 -76zM439 700q24 33 69 109q56 87 93 194t37 199q0 83 -18.5 122.5t-63.5 39.5q-59 0 -90 -80.5t-31 -233.5z" />
    <glyph glyph-name="trademark" unicode="&#x2122;" horiz-adv-x="2183" 
d="M107 1352h758l6 -222l-50 -1l-6 72q-15 62 -39 80t-71 18h-151v-633q0 -18 2 -28.5t8.5 -22.5t21.5 -17.5t39 -5.5h56v-48h-389v48h55q44 0 58 19t14 55v633h-155q-20 0 -34 -2.5t-31 -11.5t-28 -31t-15 -56l-5 -69l-49 1zM1982 592h61v-48h-393v48h55q41 0 55.5 17
t14.5 57v565h-13l-307 -687h-46l-306 687h-9v-537q0 -102 70 -102h46v-48h-279v48h45q66 0 66 103v533q0 19 -2 30.5t-8 23t-20.5 17t-36.5 5.5h-44v48h260l284 -638l290 638h277v-48h-60q-45 0 -58 -19t-13 -56v-563q0 -36 13 -55t58 -19z" />
    <glyph glyph-name="uni2126" unicode="&#x2126;" horiz-adv-x="1458" 
d="M149 0v326h60v-87q0 -111 108 -111h262v140q-391 171 -391 584q0 260 142.5 416t397.5 156q169 0 294 -76.5t187 -204t62 -289.5q0 -201 -103 -354.5t-285 -224.5v-147h259q109 0 109 109v89h60v-326h-513v331q64 36 113 93t78.5 126t44 144.5t14.5 155.5q0 260 -84 383
t-236 123q-160 0 -243 -132.5t-83 -370.5q0 -192 66.5 -330.5t195.5 -197.5v-325h-515z" />
    <glyph glyph-name="partialdiff" unicode="&#x2202;" horiz-adv-x="1038" 
d="M626 1477q74 0 128.5 -35.5t86.5 -101.5t47 -152t15 -195q0 -116 -27 -268t-66 -264q-92 -255 -188.5 -368t-222.5 -113q-144 0 -223.5 97.5t-79.5 272.5q0 106 33.5 211t91 189t144 136t184.5 52q54 0 96.5 -17.5t68.5 -47.5t41.5 -61.5t23.5 -68.5q12 83 12 207
q0 105 -23 195t-75 151t-123 61q-145 0 -246 -159l-37 37q130 242 339 242zM464 65q70 0 131.5 84t101 203.5t64.5 264.5q0 41 -6.5 77.5t-22.5 76t-51 63t-86 23.5q-86 0 -158.5 -80.5t-112.5 -206.5t-40 -262q0 -117 49.5 -180t130.5 -63z" />
    <glyph glyph-name="uni2206" unicode="&#x2206;" horiz-adv-x="1007" 
d="M610 1438l309 -1438h-831l312 1438h210zM456 1263l-261 -1184h513z" />
    <glyph glyph-name="product" unicode="&#x220f;" horiz-adv-x="1306" 
d="M128 -255v61h63q63 0 63 125v1308q0 125 -61 125h-76v60h1073v-60h-74q-64 0 -64 -125v-1308q0 -125 62 -125h65v-61h-447v61h62q64 0 64 125v1413h-411v-1413q0 -125 60 -125h65v-61h-444z" />
    <glyph glyph-name="summation" unicode="&#x2211;" horiz-adv-x="989" 
d="M808 158l61 -6l-26 -408h-743v78l329 729l-322 795v79h703l27 -331l-59 -2l-19 148q-6 60 -27.5 82t-56.5 22h-394l283 -697l-343 -749h486q35 0 58 18.5t28 69.5z" />
    <glyph glyph-name="minus" unicode="&#x2212;" horiz-adv-x="1544" 
d="M217 609v134h1110v-134h-1110z" />
    <glyph glyph-name="radical" unicode="&#x221a;" horiz-adv-x="734" 
d="M525 1500h63l-164 -1514h-96l-168 673l-77 -59l-39 53l179 134l152 -646z" />
    <glyph glyph-name="infinity" unicode="&#x221e;" horiz-adv-x="1324" 
d="M922 828q105 0 172 -69.5t67 -181.5q0 -109 -67.5 -181.5t-170.5 -72.5q-82 0 -141 41.5t-109 127.5q-32 -51 -65.5 -86t-87.5 -61.5t-118 -26.5q-106 0 -173 70t-67 180t67.5 182t173.5 72q150 0 248 -170q106 176 271 176zM922 394q77 0 123 52.5t46 130.5
q0 81 -41.5 130t-120.5 49q-42 0 -75.5 -16t-61.5 -51t-42.5 -59t-38.5 -72q81 -164 211 -164zM398 388q40 0 73.5 17t62.5 54.5t42.5 59.5t38.5 70q-88 162 -210 162q-75 0 -124.5 -49t-49.5 -132t44 -132.5t123 -49.5z" />
    <glyph glyph-name="integral" unicode="&#x222b;" horiz-adv-x="624" 
d="M211 -418q-56 0 -88 34.5t-32 84.5q0 30 14 48.5t41 18.5t42 -35q11 -45 55 -45q21 0 32.5 15t14.5 56q2 25 -4.5 74t-18.5 128.5t-18 135.5q-25 192 -25 445q0 230 8 403q7 338 47 443q23 64 60 98t81 34q56 0 86 -27.5t36 -75.5q1 -25 -9 -45.5t-36 -20.5
q-33 -2 -49 30q-15 32 -58 32q-38 0 -49 -40q-5 -21 -5.5 -50t2.5 -67t6.5 -73.5t9.5 -89.5t10 -95q33 -214 33 -454q0 -360 -11 -484q-15 -254 -39 -336q-37 -142 -136 -142z" />
    <glyph glyph-name="approxequal" unicode="&#x2248;" horiz-adv-x="1289" 
d="M211 696l-90 99q67 92 141.5 142t182.5 50q122 0 242 -65q121 -66 197 -66q51 0 94 35t87 98l90 -98q-55 -79 -119 -124t-149 -45q-107 0 -226 66q-112 65 -211 65q-72 0 -128 -40.5t-111 -116.5zM211 226l-90 99q67 92 141.5 142t182.5 50q125 0 242 -65
q120 -67 197 -67q51 0 94.5 35.5t86.5 99.5l90 -100q-55 -79 -119 -124t-149 -45q-105 0 -226 67q-115 65 -211 65q-72 0 -128 -40.5t-111 -116.5z" />
    <glyph glyph-name="notequal" unicode="&#x2260;" horiz-adv-x="1350" 
d="M1230 846h-369l-175 -341h544v-134h-613l-208 -404h-181l209 404h-317v134h386l176 341h-562v134h632l193 374h178l-193 -374h300v-134z" />
    <glyph glyph-name="lessequal" unicode="&#x2264;" horiz-adv-x="1265" 
d="M1101 1231v-146l-821 -298l821 -299v-144l-985 372v143zM134 0v134h967v-134h-967z" />
    <glyph glyph-name="greaterequal" unicode="&#x2265;" horiz-adv-x="1265" 
d="M164 1231l985 -372v-143l-985 -372v144l821 299l-821 298v146zM164 0v134h967v-134h-967z" />
    <glyph glyph-name="a.sc" horiz-adv-x="1315" 
d="M1202 66l46 -2v-64h-488v64l89 2q27 1 40.5 13t4.5 30l-71 156h-465l-63 -132q-16 -33 5 -49.5t56 -17.5l87 -1v-65h-375v65l36 5q54 22 80 48.5t48 67.5l379 779h93l372 -779q18 -36 29.5 -55t37 -39t59.5 -26zM389 331h404l-183 400h-31z" />
    <glyph glyph-name="aacute.sc" horiz-adv-x="1315" 
d="M1073 1429l-412 -318h-66l208 322h270v-4zM1202 66l46 -2v-64h-488v64l89 2q27 1 40.5 13t4.5 30l-71 156h-465l-63 -132q-16 -33 5 -49.5t56 -17.5l87 -1v-65h-375v65l36 5q54 22 80 48.5t48 67.5l379 779h93l372 -779q18 -36 29.5 -55t37 -39t59.5 -26zM389 331h404
l-183 400h-31z" />
    <glyph glyph-name="acircumflex.sc" horiz-adv-x="1315" 
d="M661 1341l-290 -230h-66l253 322h205l253 -322h-66zM1202 66l46 -2v-64h-488v64l89 2q27 1 40.5 13t4.5 30l-71 156h-465l-63 -132q-16 -33 5 -49.5t56 -17.5l87 -1v-65h-375v65l36 5q54 22 80 48.5t48 67.5l379 779h93l372 -779q18 -36 29.5 -55t37 -39t59.5 -26z
M389 331h404l-183 400h-31z" />
    <glyph glyph-name="adieresis.sc" horiz-adv-x="1315" 
d="M467 1203q-43 0 -74 31t-31 73q0 43 31 74t74 31q44 0 74.5 -30.5t30.5 -74.5t-31 -74t-74 -30zM850 1203q-43 0 -74 31t-31 73q0 44 30.5 74.5t74.5 30.5t74.5 -31t30.5 -74q0 -44 -31 -74t-74 -30zM1202 66l46 -2v-64h-488v64l89 2q27 1 40.5 13t4.5 30l-71 156h-465
l-63 -132q-16 -33 5 -49.5t56 -17.5l87 -1v-65h-375v65l36 5q54 22 80 48.5t48 67.5l379 779h93l372 -779q18 -36 29.5 -55t37 -39t59.5 -26zM389 331h404l-183 400h-31z" />
    <glyph glyph-name="agrave.sc" horiz-adv-x="1315" 
d="M727 1111h-66l-412 318v4h270zM1202 66l46 -2v-64h-488v64l89 2q27 1 40.5 13t4.5 30l-71 156h-465l-63 -132q-16 -33 5 -49.5t56 -17.5l87 -1v-65h-375v65l36 5q54 22 80 48.5t48 67.5l379 779h93l372 -779q18 -36 29.5 -55t37 -39t59.5 -26zM389 331h404l-183 400h-31z
" />
    <glyph glyph-name="aring.sc" horiz-adv-x="1315" 
d="M661 1052q-78 0 -133 54.5t-55 133.5t55 133.5t133 54.5t133 -55t55 -133t-55 -133t-133 -55zM661 1367q-52 0 -88.5 -37t-36.5 -90t36.5 -90t88.5 -37q53 0 90 37t37 90t-37 90t-90 37zM1202 66l46 -2v-64h-488v64l89 2q27 1 40.5 13t4.5 30l-71 156h-465l-63 -132
q-16 -33 5 -49.5t56 -17.5l87 -1v-65h-375v65l36 5q54 22 80 48.5t48 67.5l379 779h93l372 -779q18 -36 29.5 -55t37 -39t59.5 -26zM389 331h404l-183 400h-31z" />
    <glyph glyph-name="atilde.sc" horiz-adv-x="1315" 
d="M379 1098h-63q-3 123 49.5 194.5t151.5 71.5q13 0 26.5 -2t23.5 -3.5t24.5 -7t21 -8t23 -11t20.5 -10.5t23 -12.5t21 -11.5q6 -4 22 -14t21.5 -13.5t18.5 -10.5t21.5 -9t20.5 -4.5t25 -2.5q47 0 77.5 35t32.5 102h66q4 -76 -16.5 -138.5t-68 -102.5t-114.5 -40
q-36 0 -74.5 12.5t-57 23t-57.5 33.5q-79 53 -132 53q-50 0 -77 -35.5t-29 -88.5zM1202 66l46 -2v-64h-488v64l89 2q27 1 40.5 13t4.5 30l-71 156h-465l-63 -132q-16 -33 5 -49.5t56 -17.5l87 -1v-65h-375v65l36 5q54 22 80 48.5t48 67.5l379 779h93l372 -779
q18 -36 29.5 -55t37 -39t59.5 -26zM389 331h404l-183 400h-31z" />
    <glyph glyph-name="b.sc" horiz-adv-x="1334" 
d="M870 506q41 -6 79.5 -16t82.5 -30t75.5 -47t52.5 -69t20 -94q-3 -249 -453 -249h-586v63h77q46 0 63 25t17 72v623q0 95 -71 95h-86l1 69l638 -3q165 -1 257 -62t90 -159q-1 -43 -19 -78.5t-45 -58.5t-63 -40.5t-67 -26.5t-63 -14zM677 885h-183v-347h178q127 0 185 40.5
t60 129.5q2 88 -61 132.5t-179 44.5zM965 267q1 64 -21 106t-66.5 62t-92 27t-116.5 7h-175v-310q0 -89 68 -89h151q125 0 187.5 58t64.5 139z" />
    <glyph glyph-name="c.sc" horiz-adv-x="1453" 
d="M713 -19q-135 0 -244.5 39t-180.5 106.5t-109 155t-38 186.5q0 96 38.5 184.5t109 158.5t182 112t247.5 42q243 0 408 -170l20 136h72l5 -341h-68q-11 35 -31.5 73t-57 79.5t-81 73.5t-108 53t-134.5 21q-84 0 -150.5 -26t-108.5 -68.5t-70 -100.5t-39.5 -118.5
t-11.5 -126.5q0 -183 98 -288.5t288 -105.5q147 0 260 79t154 227h71v-348h-71l-29 137q-146 -170 -421 -170z" />
    <glyph glyph-name="ccedilla.sc" horiz-adv-x="1453" 
d="M1163 362h71v-348h-71l-29 137q-138 -162 -398 -170l-22 -106q111 -1 179.5 -39t68.5 -119q0 -82 -80.5 -143t-232.5 -61q-104 0 -200 24l15 80q74 -17 160 -17q110 0 166.5 32t56.5 78q0 25 -20 40.5t-57.5 21.5t-67.5 8t-73 2h-20l38 201q-237 19 -371.5 156
t-134.5 329q0 96 38.5 184.5t109 158.5t182 112t247.5 42q243 0 408 -170l20 136h72l5 -341h-68q-11 35 -31.5 73t-57 79.5t-81 73.5t-108 53t-134.5 21q-84 0 -150.5 -26t-108.5 -68.5t-70 -100.5t-39.5 -118.5t-11.5 -126.5q0 -183 98 -288.5t288 -105.5q147 0 260 79
t154 227z" />
    <glyph glyph-name="d.sc" horiz-adv-x="1510" 
d="M135 0v65h91q44 0 61 25t17 72v625q0 47 -17 72t-63 25h-89v62h514q168 0 297 -26t225.5 -81t146.5 -147.5t50 -220.5q0 -105 -33.5 -185.5t-94 -134t-151 -88t-198 -49t-242.5 -14.5h-514zM607 69h162q177 0 277.5 115.5t100.5 287.5q0 92 -25 164.5t-67 119
t-101.5 76.5t-123.5 42.5t-137 12.5h-193v-706q0 -28 3 -45t13 -34t32.5 -25t58.5 -8z" />
    <glyph glyph-name="e.sc" horiz-adv-x="1364" 
d="M1123 311h72l-20 -311h-1039v65h80q51 0 70 24.5t19 72.5v623q0 51 -20.5 73.5t-80.5 22.5h-68v65h981l18 -245l-71 1l-22 96q-30 49 -58.5 64t-83.5 15h-399v-348h249q46 0 73 12.5t27 47.5v63h72v-320h-72v59q0 42 -25.5 55.5t-72.5 13.5h-251v-280q0 -57 17.5 -84
t77.5 -27h318q57 0 90.5 11.5t48.5 28.5t31 51z" />
    <glyph glyph-name="eacute.sc" horiz-adv-x="1364" 
d="M1095 1348l-412 -318h-66l208 322h270v-4zM1123 311h72l-20 -311h-1039v65h80q51 0 70 24.5t19 72.5v623q0 51 -20.5 73.5t-80.5 22.5h-68v65h981l18 -245l-71 1l-22 96q-30 49 -58.5 64t-83.5 15h-399v-348h249q46 0 73 12.5t27 47.5v63h72v-320h-72v59q0 42 -25.5 55.5
t-72.5 13.5h-251v-280q0 -57 17.5 -84t77.5 -27h318q57 0 90.5 11.5t48.5 28.5t31 51z" />
    <glyph glyph-name="ecircumflex.sc" horiz-adv-x="1364" 
d="M683 1260l-290 -230h-66l253 322h205l253 -322h-66zM1123 311h72l-20 -311h-1039v65h80q51 0 70 24.5t19 72.5v623q0 51 -20.5 73.5t-80.5 22.5h-68v65h981l18 -245l-71 1l-22 96q-30 49 -58.5 64t-83.5 15h-399v-348h249q46 0 73 12.5t27 47.5v63h72v-320h-72v59
q0 42 -25.5 55.5t-72.5 13.5h-251v-280q0 -57 17.5 -84t77.5 -27h318q57 0 90.5 11.5t48.5 28.5t31 51z" />
    <glyph glyph-name="edieresis.sc" horiz-adv-x="1364" 
d="M489 1122q-43 0 -74 31t-31 73q0 44 31 74.5t74 30.5q44 0 74.5 -30.5t30.5 -74.5t-31 -74t-74 -30zM872 1122q-43 0 -74 31t-31 73q0 44 30.5 74.5t74.5 30.5t74.5 -30.5t30.5 -74.5t-31 -74t-74 -30zM1123 311h72l-20 -311h-1039v65h80q51 0 70 24.5t19 72.5v623
q0 51 -20.5 73.5t-80.5 22.5h-68v65h981l18 -245l-71 1l-22 96q-30 49 -58.5 64t-83.5 15h-399v-348h249q46 0 73 12.5t27 47.5v63h72v-320h-72v59q0 42 -25.5 55.5t-72.5 13.5h-251v-280q0 -57 17.5 -84t77.5 -27h318q57 0 90.5 11.5t48.5 28.5t31 51z" />
    <glyph glyph-name="egrave.sc" horiz-adv-x="1364" 
d="M749 1030h-66l-412 318v4h270zM1123 311h72l-20 -311h-1039v65h80q51 0 70 24.5t19 72.5v623q0 51 -20.5 73.5t-80.5 22.5h-68v65h981l18 -245l-71 1l-22 96q-30 49 -58.5 64t-83.5 15h-399v-348h249q46 0 73 12.5t27 47.5v63h72v-320h-72v59q0 42 -25.5 55.5t-72.5 13.5
h-251v-280q0 -57 17.5 -84t77.5 -27h318q57 0 90.5 11.5t48.5 28.5t31 51z" />
    <glyph glyph-name="f.sc" horiz-adv-x="1225" 
d="M137 0v65h68q58 0 78.5 22.5t20.5 74.5v623q0 53 -21 74.5t-83 21.5h-66v65h973l13 -249h-73l-15 87q-33 57 -70 75t-81 18h-381v-345h239q45 0 69 17.5t24 61.5v42h72v-323h-72v45q0 45 -21 66t-73 21h-238v-300q0 -49 21.5 -73t84.5 -24h80v-65h-549z" />
    <glyph glyph-name="g.sc" horiz-adv-x="1498" 
d="M730 -19q-138 0 -252.5 41t-188 109t-113.5 154t-40 179q0 97 43 188t118 160.5t183.5 111t231.5 41.5q137 0 243.5 -45.5t165.5 -107.5l20 134h68l8 -327h-70q-17 43 -46.5 84.5t-77 84.5t-119.5 69.5t-157 26.5q-84 0 -152 -27t-111.5 -70t-73 -100.5t-41.5 -115
t-12 -117.5q0 -75 21 -143t64 -126.5t121 -93.5t182 -35q134 0 216 50.5t99 152.5q0 52 -24.5 74.5t-83.5 22.5h-228v63h652v-63h-50q-41 0 -56 -25.5t-15 -77.5v-257h-76l-58 109q-86 -72 -177 -98t-214 -26z" />
    <glyph glyph-name="h.sc" horiz-adv-x="1625" 
d="M129 0v65h90q59 0 78.5 23t19.5 74v623q0 50 -19.5 73t-78.5 23h-90v65h567v-65h-89q-58 0 -76.5 -23.5t-18.5 -72.5v-249h601v249q0 49 -19 72.5t-75 23.5h-90v65h567v-65h-90q-58 0 -77.5 -23t-19.5 -73v-623q0 -51 20 -74t77 -23h90v-65h-567v65h97q52 0 69.5 24.5
t17.5 72.5v301h-601v-301q0 -48 17 -72.5t69 -24.5h98v-65h-567z" />
    <glyph glyph-name="i.sc" horiz-adv-x="831" 
d="M129 0v65h84q63 0 84 22.5t21 74.5v625q0 51 -21 74t-84 23h-84v64h573v-64h-82q-65 0 -86 -21.5t-21 -75.5v-625q0 -54 21 -75.5t86 -21.5h82v-65h-573z" />
    <glyph glyph-name="iacute.sc" horiz-adv-x="831" 
d="M416 1111h-66l208 322h270v-4zM129 0v65h84q63 0 84 22.5t21 74.5v625q0 51 -21 74t-84 23h-84v64h573v-64h-82q-65 0 -86 -21.5t-21 -75.5v-625q0 -54 21 -75.5t86 -21.5h82v-65h-573z" />
    <glyph glyph-name="icircumflex.sc" horiz-adv-x="831" 
d="M60 1111l253 322h205l253 -322h-66l-289 230l-290 -230h-66zM129 0v65h84q63 0 84 22.5t21 74.5v625q0 51 -21 74t-84 23h-84v64h573v-64h-82q-65 0 -86 -21.5t-21 -75.5v-625q0 -54 21 -75.5t86 -21.5h82v-65h-573z" />
    <glyph glyph-name="idieresis.sc" horiz-adv-x="831" 
d="M222 1203q-43 0 -74 31t-31 73q0 43 30.5 74t74.5 31t74.5 -30.5t30.5 -74.5t-31 -74t-74 -30zM605 1203q-43 0 -74 31t-31 73q0 44 30.5 74.5t74.5 30.5q43 0 74 -31t31 -74q0 -44 -31 -74t-74 -30zM129 0v65h84q63 0 84 22.5t21 74.5v625q0 51 -21 74t-84 23h-84v64
h573v-64h-82q-65 0 -86 -21.5t-21 -75.5v-625q0 -54 21 -75.5t86 -21.5h82v-65h-573z" />
    <glyph glyph-name="igrave.sc" horiz-adv-x="831" 
d="M416 1111l-412 318v4h270l208 -322h-66zM129 0v65h84q63 0 84 22.5t21 74.5v625q0 51 -21 74t-84 23h-84v64h573v-64h-82q-65 0 -86 -21.5t-21 -75.5v-625q0 -54 21 -75.5t86 -21.5h82v-65h-573z" />
    <glyph glyph-name="j.sc" horiz-adv-x="827" 
d="M127 -342q-118 0 -199.5 45t-81.5 123q0 31 20 53.5t59 22.5q41 0 68 -19t27 -54q0 -11 -13 -28t-9 -28q25 -57 151 -57q114 0 161 72t47 221v776q0 23 -3 37t-12.5 29.5t-31.5 22.5t-57 7h-158v65h627v-65h-70q-59 0 -79.5 -22.5t-20.5 -73.5v-726q0 -35 -2.5 -65
t-12.5 -72.5t-26.5 -77t-49 -70.5t-76 -60.5t-110 -40t-148.5 -15.5z" />
    <glyph glyph-name="k.sc" horiz-adv-x="1570" 
d="M128 0v65h89q54 0 74.5 21t20.5 76v623q0 54 -21 75t-81 21h-82v65h569v-65h-89q-64 0 -83 -25t-19 -74v-332l432 319q61 35 61 75q0 37 -55 37h-81v65h513v-65h-86q-36 0 -74.5 -13.5t-57 -24.5t-62.5 -42.5t-51 -36.5l-187 -152l361 -427q65 -74 89 -92q38 -28 83 -28
h95v-65h-593v65h83q71 0 71 38q0 31 -67 102l-269 305l-205 -155v-193q0 -52 17.5 -74t64.5 -23l98 -1l3 -64h-561z" />
    <glyph glyph-name="l.sc" horiz-adv-x="1287" 
d="M128 0v65h90q57 0 78.5 19.5t21.5 77.5v623q0 52 -20.5 74t-81.5 22h-88v65h577v-65h-88q-63 0 -84 -21t-21 -75v-610q0 -57 19.5 -81.5t87.5 -24.5h250q24 0 44.5 1.5t55 10t58.5 23t42 44t18 70.5l14 96l69 1l-18 -315h-1024z" />
    <glyph glyph-name="lslash.sc" horiz-adv-x="1287" 
d="M1101 314l69 1l-18 -315h-1024v65h90q57 0 78.5 19.5t21.5 77.5v123l-150 -115v113l150 115v387q0 52 -20.5 74t-81.5 22h-88v65h577v-65h-88q-63 0 -84 -21t-21 -75v-238l298 229v-112l-298 -229v-260q0 -57 19.5 -81.5t87.5 -24.5h250q24 0 44.5 1.5t55 10t58.5 23
t42 44t18 70.5z" />
    <glyph glyph-name="m.sc" horiz-adv-x="1896" 
d="M1679 65h92v-65h-577v65h83q61 0 82 21t21 76v615h-19l-453 -777h-68l-450 777h-12v-575q0 -137 101 -137h69v-65h-411v65h69q34 0 55.5 14.5t29.5 41t10 42.5t2 40v580q0 49 -18.5 73.5t-79.5 24.5h-68v65h381l419 -720l425 720h406v-65h-89q-64 0 -84 -24.5t-20 -71.5
v-623q0 -47 19.5 -72t84.5 -25z" />
    <glyph glyph-name="n.sc" horiz-adv-x="1522" 
d="M997 946h415v-65h-69q-49 0 -71.5 -36t-22.5 -91v-770h-83l-781 775v-562q0 -132 108 -132h67v-65h-424v65h68q102 0 102 132v567q0 53 -27.5 85t-81.5 32h-65v65h343l695 -673v482q0 19 -3.5 37t-13 40t-32 35.5t-55.5 13.5h-69v65z" />
    <glyph glyph-name="ntilde.sc" horiz-adv-x="1522" 
d="M489 1098h-63q-3 123 49.5 194.5t151.5 71.5q13 0 26.5 -2t23.5 -3.5t24.5 -7t21 -8t23 -11t20.5 -10.5t23 -12.5t21 -11.5q6 -4 22 -14t21.5 -13.5t18.5 -10.5t21.5 -9t20.5 -4.5t25 -2.5q47 0 77.5 35t32.5 102h66q4 -76 -16.5 -138.5t-68 -102.5t-114.5 -40
q-36 0 -74.5 12.5t-57 23t-57.5 33.5q-79 53 -132 53q-50 0 -77 -35.5t-29 -88.5zM997 946h415v-65h-69q-49 0 -71.5 -36t-22.5 -91v-770h-83l-781 775v-562q0 -132 108 -132h67v-65h-424v65h68q102 0 102 132v567q0 53 -27.5 85t-81.5 32h-65v65h343l695 -673v482
q0 19 -3.5 37t-13 40t-32 35.5t-55.5 13.5h-69v65z" />
    <glyph glyph-name="o.sc" horiz-adv-x="1470" 
d="M736 -19q-272 0 -434.5 139.5t-162.5 356.5q0 89 38.5 174.5t110.5 156t187.5 114t256.5 43.5q119 0 219.5 -29.5t169.5 -78t117.5 -113t71 -133.5t22.5 -139q0 -94 -39 -180.5t-111.5 -156.5t-188 -112t-257.5 -42zM732 56q180 0 275.5 103t95.5 314q0 214 -97.5 315.5
t-272.5 101.5q-122 0 -206.5 -55t-123 -145t-38.5 -208q0 -59 11.5 -117t39.5 -114.5t68.5 -99t104.5 -69t143 -26.5z" />
    <glyph glyph-name="oacute.sc" horiz-adv-x="1470" 
d="M735 1111h-66l208 322h270v-4zM736 -19q-272 0 -434.5 139.5t-162.5 356.5q0 89 38.5 174.5t110.5 156t187.5 114t256.5 43.5q119 0 219.5 -29.5t169.5 -78t117.5 -113t71 -133.5t22.5 -139q0 -94 -39 -180.5t-111.5 -156.5t-188 -112t-257.5 -42zM732 56
q180 0 275.5 103t95.5 314q0 214 -97.5 315.5t-272.5 101.5q-122 0 -206.5 -55t-123 -145t-38.5 -208q0 -59 11.5 -117t39.5 -114.5t68.5 -99t104.5 -69t143 -26.5z" />
    <glyph glyph-name="ocircumflex.sc" horiz-adv-x="1470" 
d="M379 1111l253 322h205l253 -322h-66l-289 230l-290 -230h-66zM736 -19q-272 0 -434.5 139.5t-162.5 356.5q0 89 38.5 174.5t110.5 156t187.5 114t256.5 43.5q119 0 219.5 -29.5t169.5 -78t117.5 -113t71 -133.5t22.5 -139q0 -94 -39 -180.5t-111.5 -156.5t-188 -112
t-257.5 -42zM732 56q180 0 275.5 103t95.5 314q0 214 -97.5 315.5t-272.5 101.5q-122 0 -206.5 -55t-123 -145t-38.5 -208q0 -59 11.5 -117t39.5 -114.5t68.5 -99t104.5 -69t143 -26.5z" />
    <glyph glyph-name="odieresis.sc" horiz-adv-x="1470" 
d="M541 1203q-43 0 -74 31t-31 73q0 43 31 74t74 31q44 0 74.5 -30.5t30.5 -74.5t-31 -74t-74 -30zM924 1203q-43 0 -74 31t-31 73q0 44 30.5 74.5t74.5 30.5t74.5 -31t30.5 -74q0 -44 -31 -74t-74 -30zM736 -19q-272 0 -434.5 139.5t-162.5 356.5q0 89 38.5 174.5
t110.5 156t187.5 114t256.5 43.5q119 0 219.5 -29.5t169.5 -78t117.5 -113t71 -133.5t22.5 -139q0 -94 -39 -180.5t-111.5 -156.5t-188 -112t-257.5 -42zM732 56q180 0 275.5 103t95.5 314q0 214 -97.5 315.5t-272.5 101.5q-122 0 -206.5 -55t-123 -145t-38.5 -208
q0 -59 11.5 -117t39.5 -114.5t68.5 -99t104.5 -69t143 -26.5z" />
    <glyph glyph-name="ograve.sc" horiz-adv-x="1470" 
d="M735 1111l-412 318v4h270l208 -322h-66zM736 -19q-272 0 -434.5 139.5t-162.5 356.5q0 89 38.5 174.5t110.5 156t187.5 114t256.5 43.5q119 0 219.5 -29.5t169.5 -78t117.5 -113t71 -133.5t22.5 -139q0 -94 -39 -180.5t-111.5 -156.5t-188 -112t-257.5 -42zM732 56
q180 0 275.5 103t95.5 314q0 214 -97.5 315.5t-272.5 101.5q-122 0 -206.5 -55t-123 -145t-38.5 -208q0 -59 11.5 -117t39.5 -114.5t68.5 -99t104.5 -69t143 -26.5z" />
    <glyph glyph-name="oslash.sc" horiz-adv-x="1470" 
d="M1122 856q103 -71 156.5 -174t53.5 -210q0 -94 -39 -180.5t-111.5 -156.5t-188 -112t-257.5 -42q-179 0 -319 66l-64 -74l-60 52l54 61q-100 67 -154 168t-54 223q0 89 38.5 174.5t110.5 156t187.5 114t256.5 43.5q184 0 322 -69l65 75l58 -52zM365 482q0 -167 80 -283
l535 613q-91 78 -247 78q-122 0 -206.5 -55t-123 -145t-38.5 -208zM732 56q180 0 275.5 103t95.5 314q0 177 -70 281l-535 -615q93 -83 234 -83z" />
    <glyph glyph-name="oslashacute.sc" horiz-adv-x="1470" 
d="M1147 1429l-412 -318h-66l208 322h270v-4zM1122 856q103 -71 156.5 -174t53.5 -210q0 -94 -39 -180.5t-111.5 -156.5t-188 -112t-257.5 -42q-179 0 -319 66l-64 -74l-60 52l54 61q-100 67 -154 168t-54 223q0 89 38.5 174.5t110.5 156t187.5 114t256.5 43.5
q184 0 322 -69l65 75l58 -52zM365 482q0 -167 80 -283l535 613q-91 78 -247 78q-122 0 -206.5 -55t-123 -145t-38.5 -208zM732 56q180 0 275.5 103t95.5 314q0 177 -70 281l-535 -615q93 -83 234 -83z" />
    <glyph glyph-name="otilde.sc" horiz-adv-x="1470" 
d="M390 1098q-3 123 49.5 194.5t151.5 71.5q13 0 26.5 -2t23.5 -3.5t24.5 -7t21 -8t23 -11t20.5 -10.5t23 -12.5t21 -11.5q6 -4 22 -14t21.5 -13.5t18.5 -10.5t21.5 -9t20.5 -4.5t25 -2.5q47 0 77.5 35t32.5 102h66q4 -76 -16.5 -138.5t-68 -102.5t-114.5 -40
q-36 0 -74.5 12.5t-57 23t-57.5 33.5q-79 53 -132 53q-50 0 -77 -35.5t-29 -88.5h-63zM736 -19q-272 0 -434.5 139.5t-162.5 356.5q0 89 38.5 174.5t110.5 156t187.5 114t256.5 43.5q119 0 219.5 -29.5t169.5 -78t117.5 -113t71 -133.5t22.5 -139q0 -94 -39 -180.5
t-111.5 -156.5t-188 -112t-257.5 -42zM732 56q180 0 275.5 103t95.5 314q0 214 -97.5 315.5t-272.5 101.5q-122 0 -206.5 -55t-123 -145t-38.5 -208q0 -59 11.5 -117t39.5 -114.5t68.5 -99t104.5 -69t143 -26.5z" />
    <glyph glyph-name="p.sc" horiz-adv-x="1249" 
d="M137 0v65h70q58 0 78.5 22t20.5 75v625q0 22 -3 36.5t-12.5 30t-32 23t-56.5 7.5h-70v62h512q73 0 130 -3.5t116.5 -13t102 -28t77 -46t52 -69.5t17.5 -96q0 -263 -444 -263h-193v-265q0 -48 19.5 -72.5t85.5 -24.5h69v-65h-539zM502 496h176q56 0 97.5 7.5t78.5 27.5
t56 59t19 97q0 108 -63.5 153t-185.5 45h-178v-389z" />
    <glyph glyph-name="q.sc" horiz-adv-x="1382" 
d="M691 -19q-272 0 -435 139t-163 357q0 89 38.5 174.5t110.5 156t187.5 114t256.5 43.5q119 0 220 -29.5t170 -78t117 -113t70.5 -133.5t22.5 -139q0 -94 -38.5 -180.5t-111 -156.5t-188 -112t-257.5 -42zM686 56q181 0 276.5 103t95.5 314q0 214 -98 315.5t-273 101.5
q-122 0 -206.5 -55t-123 -145t-38.5 -208q0 -59 11.5 -117t39.5 -114.5t69 -99t105 -69t142 -26.5zM863 -106q65 -10 174.5 -61t182.5 -51q114 0 187 49l73 -87q-103 -91 -289 -91q-58 0 -106 9.5t-91.5 33t-65 37.5t-65.5 48q-116 86 -205 86q-52 0 -105 -25t-130 -78
l-42 40q145 101 246 115q105 20 236 -25z" />
    <glyph glyph-name="r.sc" horiz-adv-x="1436" 
d="M134 0v65h68q61 0 82.5 21t21.5 76v625q0 51 -20.5 72.5t-77.5 21.5h-74v65h604q418 0 418 -258q0 -96 -70.5 -157.5t-183.5 -68.5q15 -10 28.5 -20.5t28.5 -26t23.5 -24.5t29 -32t30.5 -34l168 -192q65 -68 111 -68h45v-65h-272l-240 305q-57 73 -98 97t-104 24h-150
v-264q0 -53 20.5 -75t81.5 -22h67v-65h-537zM502 496h176q63 0 109 8.5t85 29t59.5 60t20.5 96.5q0 100 -68 144t-198 44h-184v-382z" />
    <glyph glyph-name="s.sc" horiz-adv-x="1159" 
d="M637 -19q-108 0 -200.5 33.5t-148.5 102.5l-18 -102h-75v326h75q7 -53 32.5 -102t69 -91t112 -67t152.5 -25q81 0 140.5 34.5t59.5 106.5q0 66 -53 102t-179 79q-191 74 -248 106q-114 62 -140 146q-10 32 -10 69q0 114 100 190t237 76q81 0 157 -26.5t127 -77.5l18 87
h73v-278h-73q-18 108 -101 167t-186 59q-94 0 -147 -41t-53 -88q0 -20 6.5 -37t15 -30t28.5 -26.5t36 -23t50.5 -23t58 -22t71.5 -25.5q8 -3 12.5 -4.5t11.5 -4t13 -4.5q63 -22 106 -40t91 -45t76.5 -56t47.5 -70t19 -89q0 -88 -58.5 -155.5t-140 -99t-165.5 -31.5z" />
    <glyph glyph-name="scaron.sc" horiz-adv-x="1159" 
d="M483 1111l-253 322h66l289 -230l290 230h66l-253 -322h-205zM637 -19q-108 0 -200.5 33.5t-148.5 102.5l-18 -102h-75v326h75q7 -53 32.5 -102t69 -91t112 -67t152.5 -25q81 0 140.5 34.5t59.5 106.5q0 66 -53 102t-179 79q-191 74 -248 106q-114 62 -140 146
q-10 32 -10 69q0 114 100 190t237 76q81 0 157 -26.5t127 -77.5l18 87h73v-278h-73q-18 108 -101 167t-186 59q-94 0 -147 -41t-53 -88q0 -20 6.5 -37t15 -30t28.5 -26.5t36 -23t50.5 -23t58 -22t71.5 -25.5q8 -3 12.5 -4.5t11.5 -4t13 -4.5q63 -22 106 -40t91 -45t76.5 -56
t47.5 -70t19 -89q0 -88 -58.5 -155.5t-140 -99t-165.5 -31.5z" />
    <glyph glyph-name="t.sc" horiz-adv-x="1342" 
d="M386 0v65h83q65 0 85.5 25t20.5 72v715h-230q-25 0 -41 -1t-40.5 -8.5t-39 -21t-27 -40.5t-14.5 -65l-4 -58h-72l8 263h1112l8 -263h-72l-3 60q-6 36 -18 61.5t-26 39.5t-35.5 21.5t-40 9.5t-45.5 2h-227v-715q0 -23 3 -37.5t13 -29.5t32.5 -22.5t57.5 -7.5h83v-65h-571z
" />
    <glyph glyph-name="u.sc" horiz-adv-x="1465" 
d="M739 -19q-236 0 -358 97.5t-122 288.5v418q0 51 -20.5 73.5t-82.5 22.5h-63v65h558v-65h-94q-61 0 -82 -21.5t-21 -74.5v-418q0 -148 79 -226.5t253 -78.5q187 0 268 83t81 242v376q0 53 -26.5 85.5t-84.5 32.5h-60v65h401v-65h-56q-49 0 -72.5 -32.5t-23.5 -83.5v-380
q0 -404 -474 -404z" />
    <glyph glyph-name="uacute.sc" horiz-adv-x="1465" 
d="M733 1112h-66l208 322h270v-4zM739 -19q-236 0 -358 97.5t-122 288.5v418q0 51 -20.5 73.5t-82.5 22.5h-63v65h558v-65h-94q-61 0 -82 -21.5t-21 -74.5v-418q0 -148 79 -226.5t253 -78.5q187 0 268 83t81 242v376q0 53 -26.5 85.5t-84.5 32.5h-60v65h401v-65h-56
q-49 0 -72.5 -32.5t-23.5 -83.5v-380q0 -404 -474 -404z" />
    <glyph glyph-name="ucircumflex.sc" horiz-adv-x="1465" 
d="M377 1112l253 322h205l253 -322h-66l-289 230l-290 -230h-66zM739 -19q-236 0 -358 97.5t-122 288.5v418q0 51 -20.5 73.5t-82.5 22.5h-63v65h558v-65h-94q-61 0 -82 -21.5t-21 -74.5v-418q0 -148 79 -226.5t253 -78.5q187 0 268 83t81 242v376q0 53 -26.5 85.5
t-84.5 32.5h-60v65h401v-65h-56q-49 0 -72.5 -32.5t-23.5 -83.5v-380q0 -404 -474 -404z" />
    <glyph glyph-name="udieresis.sc" horiz-adv-x="1465" 
d="M539 1204q-43 0 -74 31t-31 73q0 44 31 74.5t74 30.5q44 0 74.5 -30.5t30.5 -74.5t-31 -74t-74 -30zM922 1204q-43 0 -74 31t-31 73q0 44 30.5 74.5t74.5 30.5t74.5 -30.5t30.5 -74.5t-31 -74t-74 -30zM739 -19q-236 0 -358 97.5t-122 288.5v418q0 51 -20.5 73.5
t-82.5 22.5h-63v65h558v-65h-94q-61 0 -82 -21.5t-21 -74.5v-418q0 -148 79 -226.5t253 -78.5q187 0 268 83t81 242v376q0 53 -26.5 85.5t-84.5 32.5h-60v65h401v-65h-56q-49 0 -72.5 -32.5t-23.5 -83.5v-380q0 -404 -474 -404z" />
    <glyph glyph-name="ugrave.sc" horiz-adv-x="1465" 
d="M733 1112l-412 318v4h270l208 -322h-66zM739 -19q-236 0 -358 97.5t-122 288.5v418q0 51 -20.5 73.5t-82.5 22.5h-63v65h558v-65h-94q-61 0 -82 -21.5t-21 -74.5v-418q0 -148 79 -226.5t253 -78.5q187 0 268 83t81 242v376q0 53 -26.5 85.5t-84.5 32.5h-60v65h401v-65
h-56q-49 0 -72.5 -32.5t-23.5 -83.5v-380q0 -404 -474 -404z" />
    <glyph glyph-name="v.sc" horiz-adv-x="1389" 
d="M926 946h396v-65h-49q-44 0 -68.5 -28t-76.5 -124q-5 -8 -7 -12l-361 -737h-97l-403 772q-6 10 -19.5 35t-17.5 31.5t-14.5 22t-16.5 19t-17 11t-23 9t-27 1.5h-59v65h556v-65h-106q-120 0 -58 -103l315 -582l279 550q35 53 23.5 94t-75.5 41h-74v65z" />
    <glyph glyph-name="w.sc" horiz-adv-x="1840" 
d="M1394 946h374v-65h-38q-43 0 -66 -35t-57 -126l-256 -739h-119l-313 743l-278 -743h-121l-299 790q-25 67 -45.5 88.5t-63.5 21.5h-41v65h501v-65h-104q-96 0 -51 -104l225 -567l275 740h113l311 -734l181 505q13 32 18.5 59t3 50.5t-20.5 37t-50 13.5h-79v65z" />
    <glyph glyph-name="wacute.sc" horiz-adv-x="1840" 
d="M1331 1429l-412 -318h-66l208 322h270v-4zM1394 946h374v-65h-38q-43 0 -66 -35t-57 -126l-256 -739h-119l-313 743l-278 -743h-121l-299 790q-25 67 -45.5 88.5t-63.5 21.5h-41v65h501v-65h-104q-96 0 -51 -104l225 -567l275 740h113l311 -734l181 505q13 32 18.5 59
t3 50.5t-20.5 37t-50 13.5h-79v65z" />
    <glyph glyph-name="wcircumflex.sc" horiz-adv-x="1840" 
d="M919 1341l-290 -230h-66l253 322h205l253 -322h-66zM1394 946h374v-65h-38q-43 0 -66 -35t-57 -126l-256 -739h-119l-313 743l-278 -743h-121l-299 790q-25 67 -45.5 88.5t-63.5 21.5h-41v65h501v-65h-104q-96 0 -51 -104l225 -567l275 740h113l311 -734l181 505
q13 32 18.5 59t3 50.5t-20.5 37t-50 13.5h-79v65z" />
    <glyph glyph-name="wdieresis.sc" horiz-adv-x="1840" 
d="M725 1203q-43 0 -74 31t-31 73q0 43 31 74t74 31q44 0 74.5 -30.5t30.5 -74.5t-31 -74t-74 -30zM1108 1203q-43 0 -74 31t-31 73q0 44 30.5 74.5t74.5 30.5t74.5 -31t30.5 -74q0 -44 -31 -74t-74 -30zM1394 946h374v-65h-38q-43 0 -66 -35t-57 -126l-256 -739h-119
l-313 743l-278 -743h-121l-299 790q-25 67 -45.5 88.5t-63.5 21.5h-41v65h501v-65h-104q-96 0 -51 -104l225 -567l275 740h113l311 -734l181 505q13 32 18.5 59t3 50.5t-20.5 37t-50 13.5h-79v65z" />
    <glyph glyph-name="wgrave.sc" horiz-adv-x="1840" 
d="M985 1111h-66l-412 318v4h270zM1394 946h374v-65h-38q-43 0 -66 -35t-57 -126l-256 -739h-119l-313 743l-278 -743h-121l-299 790q-25 67 -45.5 88.5t-63.5 21.5h-41v65h501v-65h-104q-96 0 -51 -104l225 -567l275 740h113l311 -734l181 505q13 32 18.5 59t3 50.5
t-20.5 37t-50 13.5h-79v65z" />
    <glyph glyph-name="x.sc" horiz-adv-x="1582" 
d="M121 0v65h50q60 0 182 96l346 293l-331 310q-16 15 -44.5 42.5t-37.5 35t-27.5 20.5t-33 16t-34.5 3h-79v65h586v-65h-89q-48 0 -54.5 -23.5t33.5 -60.5l241 -222l251 215q48 39 39 65t-64 26h-92v65h460v-65h-53q-71 0 -198 -100l-293 -252l349 -334q13 -13 38.5 -39.5
t37.5 -38t32 -26.5t39 -20.5t41 -5.5h71v-65h-628v65h106q68 0 78.5 27t-41.5 76l-257 238l-276 -240q-48 -40 -36.5 -70.5t74.5 -30.5h104v-65h-490z" />
    <glyph glyph-name="y.sc" horiz-adv-x="1328" 
d="M377 0v65h102q61 0 80.5 23.5t19.5 72.5v205l-332 420q-51 63 -69 76q-25 19 -54 19h-58v65h535v-65h-102q-49 0 -54 -29.5t27 -62.5l273 -331l253 305q44 46 32 82t-71 36h-84v65h387v-65h-24q-35 0 -62.5 -22t-71.5 -75l-328 -406l-1 -216q-1 -51 19 -74t82 -23h100
v-65h-599z" />
    <glyph glyph-name="yacute.sc" horiz-adv-x="1328" 
d="M666 1111h-66l208 322h270v-4zM377 0v65h102q61 0 80.5 23.5t19.5 72.5v205l-332 420q-51 63 -69 76q-25 19 -54 19h-58v65h535v-65h-102q-49 0 -54 -29.5t27 -62.5l273 -331l253 305q44 46 32 82t-71 36h-84v65h387v-65h-24q-35 0 -62.5 -22t-71.5 -75l-328 -406
l-1 -216q-1 -51 19 -74t82 -23h100v-65h-599z" />
    <glyph glyph-name="ycircumflex.sc" horiz-adv-x="1328" 
d="M310 1111l253 322h205l253 -322h-66l-289 230l-290 -230h-66zM377 0v65h102q61 0 80.5 23.5t19.5 72.5v205l-332 420q-51 63 -69 76q-25 19 -54 19h-58v65h535v-65h-102q-49 0 -54 -29.5t27 -62.5l273 -331l253 305q44 46 32 82t-71 36h-84v65h387v-65h-24
q-35 0 -62.5 -22t-71.5 -75l-328 -406l-1 -216q-1 -51 19 -74t82 -23h100v-65h-599z" />
    <glyph glyph-name="ydieresis.sc" horiz-adv-x="1328" 
d="M472 1203q-43 0 -74 31t-31 73q0 43 30.5 74t74.5 31t74.5 -30.5t30.5 -74.5t-31 -74t-74 -30zM855 1203q-43 0 -74 31t-31 73q0 44 30.5 74.5t74.5 30.5q43 0 74 -31t31 -74q0 -44 -31 -74t-74 -30zM377 0v65h102q61 0 80.5 23.5t19.5 72.5v205l-332 420q-51 63 -69 76
q-25 19 -54 19h-58v65h535v-65h-102q-49 0 -54 -29.5t27 -62.5l273 -331l253 305q44 46 32 82t-71 36h-84v65h387v-65h-24q-35 0 -62.5 -22t-71.5 -75l-328 -406l-1 -216q-1 -51 19 -74t82 -23h100v-65h-599z" />
    <glyph glyph-name="ygrave.sc" horiz-adv-x="1328" 
d="M666 1111l-412 318v4h270l208 -322h-66zM377 0v65h102q61 0 80.5 23.5t19.5 72.5v205l-332 420q-51 63 -69 76q-25 19 -54 19h-58v65h535v-65h-102q-49 0 -54 -29.5t27 -62.5l273 -331l253 305q44 46 32 82t-71 36h-84v65h387v-65h-24q-35 0 -62.5 -22t-71.5 -75
l-328 -406l-1 -216q-1 -51 19 -74t82 -23h100v-65h-599z" />
    <glyph glyph-name="z.sc" horiz-adv-x="1339" 
d="M1120 291l73 -1l-28 -290h-1021v63l761 817h-437q-81 0 -125 -21t-76 -61l-34 -101h-70l25 252h965v-63l-770 -817h506q42 0 63.5 1.5t50.5 9.5t48.5 26t36.5 49z" />
    <glyph glyph-name="zcaron.sc" horiz-adv-x="1339" 
d="M768 1111h-205l-253 322h66l289 -230l290 230h66zM1120 291l73 -1l-28 -290h-1021v63l761 817h-437q-81 0 -125 -21t-76 -61l-34 -101h-70l25 252h965v-63l-770 -817h506q42 0 63.5 1.5t50.5 9.5t48.5 26t36.5 49z" />
    <glyph glyph-name="zero.sc" horiz-adv-x="1110" 
d="M555 -19q-62 0 -121 13t-120.5 48t-107 89t-74.5 144t-29 205q0 224 127 353.5t325 129.5q71 0 135.5 -17t123 -55t101 -93.5t68 -139t25.5 -185.5q0 -230 -124.5 -361t-328.5 -131zM559 51q129 0 186 93t57 303q0 238 -57 341.5t-192 103.5q-244 0 -244 -414
q0 -219 58 -323t192 -104z" />
    <glyph glyph-name="one.sc" horiz-adv-x="1110" 
d="M777 68h201v-68h-817v68h227q53 0 74 19t21 59v688q-61 -18 -127 -25t-195 -7v65q178 4 269 23t163 73h90v-814q0 -40 18.5 -60.5t75.5 -20.5z" />
    <glyph glyph-name="two.sc" horiz-adv-x="1110" 
d="M959 231h76l-121 -266h-79q9 18 1.5 26.5t-40.5 8.5h-666v63q97 51 209.5 137t208.5 181q75 70 123 153.5t48 163.5t-60 136t-166 56q-96 0 -160 -38.5t-64 -93.5q0 -49 41 -98l-118 -49q-54 65 -54 123q0 102 116.5 165.5t281.5 63.5q170 0 279 -70t109 -187
q0 -42 -15.5 -81.5t-51.5 -83t-68 -75.5t-92 -86q-34 -31 -63 -56.5t-58 -48t-47 -36t-47.5 -33t-42 -27t-48 -29t-48.5 -29.5h472q83 0 109 43z" />
    <glyph glyph-name="three.sc" horiz-adv-x="1110" 
d="M459 -19q-144 0 -239 42.5t-111 104.5q-4 36 19.5 57t56.5 21q8 0 15.5 -1.5t13 -3.5t11.5 -6t10 -7t8.5 -9t7 -9.5t6.5 -10t5.5 -9.5l5 -10l4.5 -9q59 -80 201 -80t221 67.5t79 174.5q0 188 -198 188q-47 0 -93 -22l-62 -36l-51 53l140 69q49 22 86 43t72 47.5
t53.5 57.5t18.5 64q0 69 -61.5 100.5t-153.5 31.5q-93 0 -158 -31t-65 -78q0 -36 42 -80l-129 -53q-49 45 -49 102q0 62 58 112t150.5 76t199.5 26q93 0 171.5 -17t133 -58.5t54.5 -100.5q0 -47 -33.5 -90t-83 -72t-94.5 -47.5t-81 -26.5q145 3 242.5 -55.5t97.5 -176.5
q0 -102 -75 -180.5t-192.5 -118t-253.5 -39.5z" />
    <glyph glyph-name="four.sc" horiz-adv-x="1110" 
d="M416 0v68h102q63 0 81 20.5t18 68.5v169h-525v97l598 536h126v-547h190v-86h-190v-171q0 -19 3 -32t12 -27t30.5 -21t55.5 -7h91v-68h-592zM187 412h430v383h-11l-419 -374v-9z" />
    <glyph glyph-name="five.sc" horiz-adv-x="1110" 
d="M561 638q76 0 146.5 -17.5t131.5 -53.5t98 -98t37 -143q0 -73 -29.5 -132.5t-78 -98t-112.5 -65t-130 -38t-134 -11.5q-131 0 -236.5 37.5t-131.5 104.5q-3 27 18.5 48t51.5 23q19 0 35 -7.5t25.5 -16t24.5 -25.5q88 -90 234 -90q112 0 185.5 73t73.5 187
q0 105 -67.5 174t-184.5 69q-127 0 -203 -80h-95l24 468h635l-53 -123h-508l-16 -263q42 38 113 58t146 20z" />
    <glyph glyph-name="six.sc" horiz-adv-x="1110" 
d="M575 -19q-70 0 -132.5 13.5t-119 44t-97.5 77t-65.5 117.5t-24.5 160q0 144 43 255.5t117.5 179t168.5 101.5t203 34q107 0 184 -31t100 -79q4 -26 -14 -48t-50 -23q-8 -1 -16.5 1t-19 8t-16 9.5t-20 14.5t-17.5 13q-76 61 -178 61q-64 0 -114 -25t-81.5 -63.5t-53 -93.5
t-31 -107.5t-13.5 -111.5q85 122 275 119q164 -3 273.5 -87t109.5 -219q0 -78 -34.5 -140t-92.5 -100.5t-131 -59t-153 -20.5zM573 51q105 0 156.5 58.5t51.5 161.5q0 260 -224 260q-56 0 -97 -18.5t-64.5 -53.5t-36.5 -74t-19 -89q23 -245 233 -245z" />
    <glyph glyph-name="seven.sc" horiz-adv-x="1110" 
d="M444 -18q-78 0 -84 52t51 118l445 647h-532q-84 0 -109 -43l-33 -66h-76l124 292h79q-9 -18 -2 -27t40 -9h651l-441 -860q-26 -58 -50 -81.5t-63 -22.5z" />
    <glyph glyph-name="eight.sc" horiz-adv-x="1109" 
d="M557 -19q-66 0 -126.5 7.5t-121 27t-104 49t-71 78t-27.5 110.5q0 55 21 98.5t51 69t75 44t81.5 26.5t81.5 13q-264 41 -264 216q0 66 34.5 115t93.5 76t127 39.5t146 12.5q109 0 196 -23t146 -79.5t59 -140.5q0 -54 -25 -95t-67 -65t-81 -36.5t-83 -19.5q47 -6 83 -14.5
t80 -26.5t73 -43.5t48.5 -68t19.5 -96.5q0 -72 -37 -126.5t-101 -85.5t-141.5 -46.5t-166.5 -15.5zM556 533q203 0 203 192q0 73 -50.5 121.5t-154.5 48.5q-106 0 -155 -49t-49 -118q0 -195 206 -195zM556 49q123 0 182 58.5t59 144.5q0 109 -58 161t-186 52
q-124 0 -182 -54.5t-58 -140.5q0 -102 57.5 -161.5t185.5 -59.5z" />
    <glyph glyph-name="nine.sc" horiz-adv-x="1110" 
d="M443 -19q-107 0 -183 31t-101 79q-4 26 14.5 48t49.5 23q7 0 15 -1.5t13.5 -3.5t15 -8t13 -9t14.5 -11.5t13 -10.5q76 -63 182 -63q64 0 115 23.5t83 62t53 91t29.5 106.5t8.5 113q-81 -115 -257 -115q-169 0 -283 84.5t-114 221.5q0 103 60 177.5t151.5 109t199.5 34.5
q89 0 164.5 -22t139 -69t99.5 -129t36 -193q0 -116 -28 -211t-77 -160.5t-117 -110.5t-145.5 -66t-163.5 -21zM555 413q55 0 96 18.5t64.5 53.5t36.5 74t19 89q-12 121 -68.5 182.5t-165.5 61.5q-104 0 -155.5 -58.5t-51.5 -160.5q0 -260 225 -260z" />
    <glyph glyph-name="uni0308.case" 
d="M-597 1501q-43 0 -74 31.5t-31 73.5q0 43 31 73.5t74 30.5q44 0 74.5 -30.5t30.5 -73.5q0 -45 -31 -75t-74 -30zM-214 1501q-43 0 -74 31.5t-31 73.5q0 43 30.5 73.5t74.5 30.5q43 0 74 -30.5t31 -73.5q0 -44 -31 -74.5t-74 -30.5z" />
    <glyph glyph-name="gravecomb.case" 
d="M-116 1438l-412 317v4h270l208 -321h-66z" />
    <glyph glyph-name="acutecomb.case" 
d="M-492 1438l208 321h270v-4l-412 -317h-66z" />
    <glyph glyph-name="uni0302.case" 
d="M-761 1470l242 322h227l242 -322h-66l-289 231l-290 -231h-66z" />
    <glyph glyph-name="uni030C.case" 
d="M-510 1456l-253 322h66l289 -230l290 230h66l-253 -322h-205z" />
    <glyph glyph-name="uni030A.case" 
d="M-281 1441q-77 0 -131.5 54.5t-54.5 132.5t54.5 132t131.5 54t132.5 -54.5t55.5 -131.5t-55.5 -132t-132.5 -55zM-281 1502q53 0 89.5 37t36.5 89t-36.5 89t-89.5 37q-52 0 -88 -36.5t-36 -89.5t36 -89.5t88 -36.5z" />
    <glyph glyph-name="tildecomb.case" 
d="M-792 1440q-3 123 49.5 194.5t151.5 71.5q10 0 21 -1t19.5 -2.5t20 -5t17.5 -5t18.5 -7.5t17 -8t18.5 -9.5t16.5 -8.5t18 -10t16.5 -10q5 -3 19 -12t19 -12t16 -9.5t17.5 -8.5t17 -5.5t20 -4.5t20.5 -1q47 0 77.5 35t32.5 102h66q4 -76 -16.5 -138.5t-68 -102.5
t-114.5 -40q-36 0 -74.5 12.5t-57 23t-57.5 33.5q-79 53 -132 53q-50 0 -77 -35.5t-29 -88.5h-63z" />
    <glyph glyph-name="uni0335.case" 
d="M-954 642v85h817v-85h-817z" />
    <glyph glyph-name="uni0337.case" 
d="M-811 330v124l808 620v-123z" />
    <glyph glyph-name="uni0338.case" 
d="M-1136 -1l-62 52l1177 1338l59 -54z" />
    </font>
</defs>
</svg>
