<?xml version="1.0" standalone="no"?>
<!DOCTYPE svg PUBLIC "-//W3C//DTD SVG 1.1//EN" "http://www.w3.org/Graphics/SVG/1.1/DTD/svg11.dtd" >
<svg xmlns="http://www.w3.org/2000/svg" xmlns:xlink="http://www.w3.org/1999/xlink" version="1.1">
<metadata>
Created by FontForge 20170731 at Wed Dec 13 17:12:55 2017
 By ,,,
Copyright (c)2017 HK CartaTM by Alfredo Marco Pradil
</metadata>
<defs>
<font id="HKCarta-MediumItalic" horiz-adv-x="0" >
  <font-face 
    font-family="HK Carta Medium Italic"
    font-weight="500"
    font-style="italic"
    font-stretch="normal"
    units-per-em="2048"
    panose-1="0 0 6 0 0 0 0 0 0 0"
    ascent="1393"
    descent="-655"
    x-height="865"
    cap-height="1354"
    bbox="-1013 -575 2330.72 1814"
    underline-thickness="50"
    underline-position="-200"
    slope="-12"
    unicode-range="U+0020-FB02"
  />
<missing-glyph horiz-adv-x="1166" 
d="M113 0l288 1352h755l-288 -1352h-755zM189 64h631l260 1224h-630z" />
    <glyph glyph-name="fi" unicode="fi" horiz-adv-x="1140" 
d="M816 1383q155 0 240 -62t62 -175q-10 -36 -37 -57.5t-66 -22.5q-23 0 -38 7.5t-21 23t-8 28.5t-2.5 33.5t-1.5 29.5q-2 114 -138 114q-209 0 -269 -257l-41 -180h567l-170 -736q-6 -26 11 -38t56 -12h67l-17 -79h-345l184 785h-372l-303 -1296h-195l303 1296h-197l19 80
h197l40 168q41 175 168 262.5t307 87.5z" />
    <glyph glyph-name="fl" unicode="fl" horiz-adv-x="1145" 
d="M-21 -511l303 1296h-198l20 80h197l39 168q21 89 66.5 157t107.5 109.5t134 62.5t151 21q140 0 206 -61l183 71l-293 -1264q-6 -26 11.5 -38t55.5 -12h67l-17 -79h-345l249 1062q16 76 16.5 129t-31 82t-99.5 29q-203 0 -265 -257l-42 -180h247l-20 -80h-245l-303 -1296
h-195z" />
    <glyph glyph-name="f_f" unicode="ff" horiz-adv-x="1219" 
d="M1357 1383q75 0 133.5 -24t91 -79t20.5 -134q-7 -33 -36.5 -56t-63.5 -24q-37 -1 -58.5 29.5t-16.5 77.5q5 129 -107 129q-79 0 -136 -70t-84 -187l-42 -180h247l-19 -80h-246l-303 -1296h-195l303 1296h-368l-303 -1296h-195l303 1296h-197l19 80h197l40 168
q40 173 165 261.5t288 88.5q82 0 146 -31t89 -91q126 122 328 122zM864 865l39 168q5 23 10 37q-26 10 -39 37.5t-9 65.5q5 129 -108 129q-79 0 -136 -70t-84 -187l-41 -180h368z" />
    <glyph glyph-name="f_f_i" unicode="ffi" horiz-adv-x="1703" 
d="M1368 1383q164 0 247 -58.5t65 -178.5q-7 -34 -35.5 -56.5t-64.5 -23.5q-20 0 -33.5 5.5t-21 12t-11.5 22.5t-5 24t-1.5 30.5t-0.5 28.5q-3 113 -143 113q-204 0 -264 -257l-42 -180h568l-169 -736q-7 -26 10 -38t56 -12h67l-17 -79h-345l184 785h-372l-303 -1296h-195
l303 1296h-368l-303 -1296h-195l303 1296h-197l19 80h197l40 168q40 173 165 261.5t288 88.5q82 0 146 -31t89 -91q131 122 339 122zM864 865l39 168q5 23 10 37q-26 10 -39 37.5t-9 65.5q5 129 -108 129q-79 0 -136 -70t-84 -187l-41 -180h368z" />
    <glyph glyph-name="f_f_l" unicode="ffl" horiz-adv-x="1708" 
d="M1459 129q-7 -26 10.5 -38t55.5 -12h67l-17 -79h-345l249 1062q16 76 16.5 129t-31 82t-99.5 29q-205 0 -265 -257l-42 -180h247l-19 -80h-246l-303 -1296h-195l303 1296h-368l-303 -1296h-195l303 1296h-197l19 80h197l40 168q27 117 98 198t160 116.5t189 35.5
q96 0 157.5 -32.5t84.5 -89.5q129 122 332 122q140 0 206 -61l183 71zM864 865l39 168q5 23 10 37q-29 11 -41 43t-8 60q4 56 -21.5 92.5t-85.5 36.5q-79 0 -136 -70t-84 -187l-41 -180h368z" />
    <glyph glyph-name=".notdef" horiz-adv-x="1166" 
d="M113 0l288 1352h755l-288 -1352h-755zM189 64h631l260 1224h-630z" />
    <glyph glyph-name=".null" 
 />
    <glyph glyph-name="nonmarkingreturn" horiz-adv-x="682" 
 />
    <glyph glyph-name="space" unicode=" " horiz-adv-x="501" 
 />
    <glyph glyph-name="exclam" unicode="!" horiz-adv-x="573" 
d="M252 446l99 696q21 140 24 156q3 15 7 25t14.5 24.5t32 22t52.5 7.5q106 0 79 -114q-4 -16 -37 -128l-193 -689h-78zM219 -33q-56 0 -95.5 40t-39.5 98q0 56 39.5 96t95.5 40q55 0 94.5 -40t39.5 -96q0 -57 -39.5 -97.5t-94.5 -40.5z" />
    <glyph glyph-name="quotedbl" unicode="&#x22;" horiz-adv-x="901" 
d="M276 714l37 450q7 77 18 134q7 36 35.5 57.5t65.5 21.5q43 0 64 -33t10 -79q-4 -18 -19 -63t-18 -55l-147 -433h-46zM703 714l37 450q5 71 17 134q7 36 35.5 57.5t65.5 21.5q44 0 64.5 -33t9.5 -79q-4 -18 -19 -63t-18 -55l-147 -433h-45z" />
    <glyph glyph-name="numbersign" unicode="#" horiz-adv-x="1411" 
d="M125 -38l173 410h-212l27 123h237l155 368h-314l26 124h339l172 407h125l-172 -407h418l172 407h126l-172 -407h203l-27 -124h-226l-154 -368h302l-26 -123h-328l-175 -410h-124l174 410h-421l-174 -410h-124zM475 495h421l153 368h-419z" />
    <glyph glyph-name="dollar" unicode="$" horiz-adv-x="1162" 
d="M932 1336q54 -27 95.5 -71t81.5 -109l-30 -152q-11 -48 -43 -48q-44 0 -42 69q-3 142 -101 217l-184 -447l22 -10q39 -16 70 -30.5t65.5 -33.5t59.5 -39t49 -45t38.5 -54.5t24 -63.5t9 -75.5t-10.5 -87.5q-16 -75 -54.5 -139t-89.5 -107.5t-111 -74.5t-118.5 -45.5
t-113.5 -14.5q-93 0 -168 24l-66 -161h-65l75 182q-139 67 -225 239l36 180q11 48 46 48q46 0 41 -69q-5 -104 29.5 -185.5t108.5 -124.5l210 508q-43 20 -75 36.5t-66.5 37t-57.5 40t-45.5 44t-35 51t-20 58.5t-6 69t10.5 80q32 149 164 247.5t286 98.5q85 0 151 -20
l47 115h64zM655 820l186 451q-48 21 -104 21q-114 0 -191.5 -67t-95.5 -155q-5 -24 -5.5 -45t4.5 -39.5t12.5 -33.5t23 -29.5t30.5 -26t39.5 -25.5t46 -25t54.5 -26zM637 586q-8 4 -12 5l-209 -507q52 -18 119 -18q103 0 196 71.5t118 188.5q10 48 0.5 86t-41 69t-70.5 54
t-101 51z" />
    <glyph glyph-name="percent" unicode="%" horiz-adv-x="1722" 
d="M436 671q-58 0 -101.5 18t-68 49t-40 68t-18.5 79.5t-0.5 79.5t9.5 71q35 160 128 250.5t226 90.5q71 0 120.5 -26t73.5 -65t33.5 -91t6.5 -98t-13 -93q-12 -54 -38 -108t-67.5 -106.5t-107 -85.5t-143.5 -33zM385 0l979 1352h105l-983 -1352h-101zM437 728q40 0 74 26.5
t57.5 71.5t39.5 91.5t27 99.5q28 121 23.5 188.5t-25 91t-61.5 23.5q-69 0 -118.5 -77t-83.5 -236q-12 -57 -16.5 -100t-1.5 -87t24.5 -68t60.5 -24zM1253 -25q-58 0 -101.5 18t-68.5 48.5t-40 68t-18.5 79.5t-1 79t9.5 71q34 160 127.5 250.5t225.5 90.5q71 0 120.5 -25.5
t73.5 -64.5t33.5 -91t6.5 -98.5t-13 -93.5q-12 -54 -37.5 -108t-67 -106.5t-106.5 -85t-143 -32.5zM1253 32q40 0 73.5 26.5t57 72t39.5 91.5t28 99q19 90 23.5 151.5t-6.5 93.5t-30 45t-50 13q-69 0 -118 -77t-83 -236q-13 -57 -18 -100.5t-2 -87.5t24.5 -67.5t61.5 -23.5z
" />
    <glyph glyph-name="ampersand" unicode="&#x26;" horiz-adv-x="1589" 
d="M382 -25q-171 0 -263.5 102.5t-61.5 251.5q27 129 139.5 224t335.5 206q-20 30 -30.5 47t-26 44.5t-22.5 48.5t-13.5 48.5t-5.5 55.5t7 59q25 117 122.5 183.5t232.5 66.5q136 0 202.5 -69.5t42.5 -181.5q-35 -168 -294 -302q79 -102 130.5 -190t92.5 -198
q200 216 269 369q23 47 -44 47h-75l17 78h411l-16 -78h-54q-42 0 -89 -42.5t-112 -121.5q-8 -11 -44.5 -60t-49 -65.5t-43.5 -57t-48.5 -61.5t-41.5 -48t-44 -47q47 -112 78 -150.5t95 -38.5q75 0 127 56.5t76 153.5l78 -18q-19 -87 -57 -150t-88 -97t-100.5 -49t-105.5 -15
q-32 0 -59 6.5t-46 13t-39 25t-30.5 28.5t-27 38t-22.5 38.5t-23 43.5q-93 -79 -219.5 -136.5t-260.5 -57.5zM700 840q206 118 236 263q13 59 -24.5 94t-116.5 35q-78 0 -132.5 -43t-66.5 -110q-16 -94 104 -239zM481 95q163 0 336 154q-46 125 -100.5 218t-142.5 210
q-59 -31 -93 -50.5t-74.5 -45t-63 -46t-45.5 -46.5t-36 -55t-20 -63q-10 -45 1 -93.5t39.5 -89t80.5 -67t118 -26.5z" />
    <glyph glyph-name="quotesingle" unicode="'" horiz-adv-x="475" 
d="M276 714l37 450q7 77 18 134q7 36 35.5 57.5t65.5 21.5q43 0 64 -33t10 -79q-4 -18 -19 -63t-18 -55l-147 -433h-46z" />
    <glyph glyph-name="parenleft" unicode="(" horiz-adv-x="509" 
d="M190 -484q-105 199 -130.5 438.5t30.5 499.5q21 101 58 210t95 233.5t146 252t194 233.5l110 -16q-174 -181 -307.5 -423t-193.5 -524q-54 -257 -29.5 -477t130.5 -443z" />
    <glyph glyph-name="parenright" unicode=")" horiz-adv-x="512" 
d="M-179 -484q202 225 323.5 450t177.5 489q41 186 36.5 359.5t-39.5 313t-97 255.5l101 -16q62 -106 96.5 -234t39.5 -254.5t-4 -239t-32 -220.5q-53 -249 -178.5 -485.5t-313.5 -433.5z" />
    <glyph glyph-name="asterisk" unicode="*" horiz-adv-x="1101" 
d="M421 448q-37 0 -68 28t-31 64q0 11 3 21.5t10.5 22t14 20t21.5 22t23.5 21.5t30 25.5t31.5 26.5q25 19 46 38.5t48.5 46.5t37.5 37q17 17 12 29t-25 18q-46 12 -142 24q-19 2 -79.5 5t-79.5 6q-45 2 -70.5 24t-25.5 62q0 37 24.5 67.5t59.5 30.5q52 0 172 -86
q69 -44 154 -85q21 -11 31 -1q11 11 8 28q-23 139 -33 177q-31 103 -32 163q-1 34 21.5 59.5t66.5 25.5q42 0 66 -23.5t23 -60.5q-1 -59 -27 -155q-20 -69 -36 -186q-2 -17 9 -29q8 -8 31 2q35 16 87.5 48.5t61.5 37.5q18 11 43.5 27t37 23t28 16t25.5 12.5t19.5 6.5t20.5 3
q40 0 64.5 -31t24.5 -69q0 -39 -27 -60.5t-62 -23.5q-20 -4 -81 -7.5t-79 -6.5q-98 -10 -147 -23q-22 -5 -26 -17q-5 -16 10 -31q127 -115 165 -144q66 -62 83 -87q18 -27 18 -50q0 -36 -31.5 -64t-68.5 -28q-64 0 -91 108q-37 86 -47 105q-33 71 -68 133q-10 20 -23 20
q-14 0 -25 -20q-41 -76 -66 -137q-7 -18 -54 -124q-7 -18 -10 -25t-13.5 -25t-26.5 -26.5t-37 -8.5z" />
    <glyph glyph-name="plus" unicode="+" horiz-adv-x="1263" 
d="M617 121v488h-488v134h488v488h134v-488h488v-134h-488v-488h-134z" />
    <glyph glyph-name="comma" unicode="," horiz-adv-x="619" 
d="M-3 -364l3 83q110 21 183.5 92t88.5 140q4 14 -2 19.5t-19 3.5q-11 0 -28.5 -4.5t-30.5 -4.5q-46 0 -76.5 41.5t-17.5 105.5q10 48 52.5 85t105.5 37q82 0 116 -66.5t11 -174.5q-16 -77 -57 -142t-95.5 -108t-114 -70t-119.5 -37z" />
    <glyph glyph-name="hyphen" unicode="-" horiz-adv-x="876" 
d="M119 323l36 168h592l-36 -168h-592z" />
    <glyph glyph-name="period" unicode="." horiz-adv-x="601" 
d="M231 -33q-56 0 -95.5 40t-39.5 98q0 56 39.5 96t95.5 40q55 0 94.5 -40t39.5 -96q0 -57 -39.5 -97.5t-94.5 -40.5z" />
    <glyph glyph-name="slash" unicode="/" horiz-adv-x="837" 
d="M-131 -33l1012 1387h182l-1010 -1387h-184z" />
    <glyph glyph-name="zero" unicode="0" horiz-adv-x="1038" 
d="M427 -25q-54 0 -103.5 19.5t-95 71t-71.5 130.5t-26 209t35 295q36 169 95 300t131.5 211.5t153 121.5t166.5 41q53 0 98.5 -17t85.5 -51.5t67 -93t40.5 -135.5t7 -184t-33.5 -235q-73 -340 -219 -511.5t-331 -171.5zM436 57q111 0 193.5 149t148.5 463q71 324 55.5 474
t-126.5 150q-215 0 -348 -630q-67 -302 -51 -454t128 -152z" />
    <glyph glyph-name="one" unicode="1" horiz-adv-x="1038" 
d="M594 169q-14 -41 -0.5 -65.5t68.5 -24.5h157l-17 -79h-700l17 79h165q95 0 118 105l216 1021q-64 -36 -124 -50t-166 -14l11 77q188 5 296 64v2l2 -1q63 36 124 97l88 -6z" />
    <glyph glyph-name="two" unicode="2" horiz-adv-x="1038" 
d="M981 994q-21 -105 -98.5 -212.5t-220.5 -256.5q-169 -158 -250 -230t-192 -163h467q84 0 118 70l51 94h76l-181 -344l-77 9q13 29 9 34q-7 5 -34 5h-649l18 93q340 271 500 471q220 237 268 457q25 118 -14 193.5t-140 75.5q-96 0 -174 -68t-99 -167q-12 -57 11 -133
l-121 -39q-16 49 -20 83.5t6 100.5q19 90 86.5 161t161.5 108.5t196 37.5q166 0 252 -105t50 -275z" />
    <glyph glyph-name="three" unicode="3" horiz-adv-x="1038" 
d="M330 -25q-140 0 -220.5 68t-74.5 162q3 36 27 52t55 17q19 1 31 -3.5t18.5 -16t9 -20t4.5 -27.5t4 -26q18 -54 54 -89t112 -35q138 0 239.5 108t136.5 275q13 73 8 120.5t-29 76t-51 40t-59 11.5q-47 0 -99 -28l-70 -40l-37 64l153 98q255 147 294 326q19 91 -30 136
t-133 45q-103 0 -176.5 -60t-85.5 -153q-6 -50 13 -102l-130 -42q-37 75 -21 153q18 81 85.5 148t165 104t203.5 37q89 0 162 -29.5t113 -93t21 -148.5q-39 -179 -354 -330q138 5 215 -84.5t41 -258.5q-29 -134 -123 -239.5t-218 -160.5t-254 -55z" />
    <glyph glyph-name="four" unicode="4" horiz-adv-x="1038" 
d="M288 0l18 79h95q60 0 85.5 28.5t37.5 87.5l59 276h-506l22 117l746 783h124l-171 -805h184l-20 -95h-184l-63 -296q-5 -28 -6 -49.5t18 -34t63 -12.5h90l-18 -79h-574zM189 566h415l123 582h-9l-525 -566z" />
    <glyph glyph-name="five" unicode="5" horiz-adv-x="1038" 
d="M950 1218h-492l-102 -416q50 48 120 71.5t142 23.5q74 0 138.5 -26.5t113.5 -82t65 -140.5t-6 -202q-21 -100 -69.5 -182.5t-109 -134.5t-132.5 -88t-139 -51t-130 -15q-74 0 -140 22t-112 70.5t-47 113.5q1 25 23.5 43.5t50.5 21.5q19 1 32 -3t20 -15t10.5 -20
t7.5 -26.5t6 -25.5q45 -98 174 -98q124 0 221.5 120.5t135.5 302.5q14 66 15 120.5t-13.5 103t-55.5 76t-106 27.5q-135 0 -229 -133l-93 8l167 669h614z" />
    <glyph glyph-name="six" unicode="6" horiz-adv-x="1038" 
d="M449 -25q-85 0 -153 35t-115.5 108.5t-57 188t21.5 272.5q43 199 117 354t165 249.5t192 143t205 48.5q106 0 172 -47.5t73 -123.5q-2 -22 -22.5 -42t-49.5 -23q-25 -2 -42 15t-29 58q-51 78 -154 78q-62 0 -119 -39.5t-98 -99t-78 -144t-60.5 -159t-44.5 -159.5
q96 165 270 165q70 0 129.5 -24.5t107.5 -77.5t62 -138t-8 -206q-22 -102 -73 -185.5t-117.5 -136.5t-142 -81.5t-151.5 -28.5zM451 57q103 0 174.5 94.5t106.5 259.5q23 112 22 192t-39.5 124.5t-114.5 44.5q-106 0 -175 -96t-118 -266q-27 -178 7 -265.5t137 -87.5z" />
    <glyph glyph-name="seven" unicode="7" horiz-adv-x="1038" 
d="M322 -21q-145 1 -12 194l659 1021h-509q-68 0 -117 -70l-52 -94h-77l193 366h76q-13 -28 -10 -36t35 -8h634l-698 -1272q-31 -60 -57.5 -81.5t-64.5 -19.5z" />
    <glyph glyph-name="eight" unicode="8" horiz-adv-x="1038" 
d="M430 -25q-63 0 -120.5 14t-110 44t-85.5 77.5t-46.5 114t5.5 152.5q58 270 374 345q-21 7 -40.5 16t-43 24t-41 33.5t-35 44t-25 56t-10 69.5t8.5 84q18 85 65 149.5t110.5 101.5t133 55.5t142.5 18.5q77 0 142 -22t112.5 -66.5t65 -112.5t-0.5 -160q-14 -67 -49.5 -121
t-83.5 -88t-90.5 -54.5t-89.5 -34.5q32 -8 61 -20.5t60 -33t52 -48.5t37.5 -67.5t16.5 -88.5t-11 -113q-20 -93 -70.5 -165.5t-120.5 -116t-149 -65.5t-164 -22zM582 754q103 0 169 77.5t95 220.5q23 111 -8.5 177t-130.5 66q-105 0 -170.5 -76.5t-91.5 -198.5
q-27 -129 3 -197.5t134 -68.5zM433 54q83 0 148 45.5t102.5 115.5t57.5 161q31 151 -7.5 225t-159.5 74q-123 0 -198 -86.5t-105 -229.5q-65 -305 162 -305z" />
    <glyph glyph-name="nine" unicode="9" horiz-adv-x="1038" 
d="M316 -25q-106 0 -171 47.5t-72 123.5q0 23 20 43t50 22q18 1 31 -6t18 -15t13 -25.5t12 -24.5q43 -80 151 -80q52 0 100 26.5t86.5 74.5t71 105t59.5 128.5t46.5 134.5t36.5 132q-97 -165 -270 -165q-70 0 -130 24.5t-107.5 78t-61.5 138.5t8 206q44 200 184 315.5
t300 115.5q85 0 153 -35t115 -108.5t57 -188t-21 -272.5q-43 -199 -117 -354t-165 -249.5t-192 -143t-205 -48.5zM540 578q56 0 102 27t81 78.5t61 113t49 143.5q26 178 -8 265.5t-136 87.5q-104 0 -175 -95t-106 -260q-23 -112 -21.5 -192t39.5 -124t114 -44z" />
    <glyph glyph-name="colon" unicode=":" horiz-adv-x="596" 
d="M366 617q-55 0 -95 40t-40 97t39.5 97t95.5 40t95 -40t39 -97t-39 -97t-95 -40zM226 -33q-55 0 -95 40.5t-40 97.5q0 56 39.5 96t95.5 40q55 0 94.5 -40t39.5 -96q0 -58 -39 -98t-95 -40z" />
    <glyph glyph-name="semicolon" unicode=";" horiz-adv-x="610" 
d="M366 617q-55 0 -95 40t-40 97t39.5 97t95.5 40t95 -40t39 -97t-39 -97t-95 -40zM-6 -364l3 83q110 21 183.5 92t88.5 140q4 14 -2 19.5t-19 3.5q-11 0 -28 -4.5t-30 -4.5q-47 0 -77.5 41.5t-17.5 105.5q10 48 52.5 85t105.5 37q83 0 116.5 -66.5t10.5 -174.5
q-21 -102 -85.5 -181t-141.5 -121t-159 -55z" />
    <glyph glyph-name="less" unicode="&#x3c;" horiz-adv-x="1239" 
d="M1123 1175v-146l-831 -355l831 -355v-145l-985 429v143z" />
    <glyph glyph-name="equal" unicode="=" horiz-adv-x="1483" 
d="M199 846v134h1110v-134h-1110zM199 371v134h1110v-134h-1110z" />
    <glyph glyph-name="greater" unicode="&#x3e;" horiz-adv-x="1239" 
d="M218 1175l986 -429v-143l-986 -429v145l832 355l-832 355v146z" />
    <glyph glyph-name="question" unicode="?" horiz-adv-x="872" 
d="M600 1377q122 0 204 -56.5t110.5 -148t5.5 -200.5q-17 -80 -58.5 -145.5t-95.5 -106t-114.5 -62.5t-119.5 -22q-56 0 -113 22l-45 -210h-87l66 307l65 -7q21 -19 72 -19q48 0 91 26.5t72.5 68t49 85.5t28.5 86q7 35 8.5 73.5t-6.5 79.5t-25 73.5t-50 53.5t-78 21
q-65 0 -128 -42t-99 -120q-1 -1 -4 -6.5t-4.5 -7.5t-5.5 -7.5t-6 -8t-7 -7t-8.5 -6.5t-9.5 -5.5t-11.5 -4.5t-13 -2t-15.5 -1q-27 1 -45.5 25.5t-8.5 61.5q35 86 141.5 149t244.5 63zM257 241q56 0 95.5 -40t39.5 -96q0 -58 -39.5 -98t-95.5 -40q-55 0 -95 40.5t-40 97.5
q0 56 39.5 96t95.5 40z" />
    <glyph glyph-name="at" unicode="@" horiz-adv-x="1938" 
d="M811 -449q-148 0 -276 41.5t-220.5 118t-153 185t-74.5 242t16 289.5q42 198 146.5 371.5t252 302t341 202.5t404.5 74q116 0 212.5 -23.5t165.5 -66.5t119.5 -104t74 -136t28 -162t-17.5 -182q-22 -103 -69.5 -206.5t-116.5 -194.5t-151 -161.5t-179 -111.5t-194 -41
q-65 0 -104 18.5t-51.5 54.5t-5 83t33.5 109q-209 -266 -370 -266q-73 0 -110.5 52t-36.5 133t34 176q35 119 107.5 233t156 193.5t171 128t154.5 48.5q47 0 79 -19.5t45 -51t17 -71.5t-4 -81l92 192l159 6l-348 -695q-21 -44 -30.5 -76t-7 -57.5t22.5 -38.5t58 -13
q72 0 164.5 54.5t179.5 144.5t159.5 219.5t101.5 265.5q37 173 -12 307t-181.5 210.5t-330.5 76.5q-199 0 -383.5 -75.5t-326 -204.5t-242.5 -303t-143 -369q-37 -175 -3 -317.5t120.5 -243.5t222.5 -156t302 -55q120 0 247.5 35.5t251.5 103.5t237.5 176t194.5 244l51 -17
q-84 -139 -193 -247t-212 -171t-214 -104t-197 -55t-164 -14zM717 107q63 0 154.5 80.5t174.5 206.5t121 247q29 77 32.5 134.5t-18 87.5t-64.5 30q-46 0 -102 -40.5t-107.5 -104t-100 -139t-83.5 -146.5t-55 -126q-39 -103 -24.5 -166.5t72.5 -63.5z" />
    <glyph glyph-name="A" unicode="A" horiz-adv-x="1295" 
d="M1162 79h54l-17 -79h-531l17 79h94q36 0 56.5 20t16.5 54l-32 270h-473l-154 -272q-16 -27 -10 -43t21 -22.5t37 -6.5h98l-17 -79h-407l15 79h40q37 0 88 53t78 99l675 1146h99l149 -1163q4 -27 7 -42t10 -35.5t17 -31t27.5 -18.5t41.5 -8zM394 505h416l-67 560h-32z" />
    <glyph glyph-name="B" unicode="B" horiz-adv-x="1288" 
d="M1269 1012q-16 -67 -56 -120.5t-93 -87t-100 -53.5t-97 -32q33 -7 65 -20t67.5 -34.5t61 -51t46 -70t23 -90t-9.5 -112.5q-19 -82 -67 -145t-106.5 -99t-132.5 -58.5t-135 -30t-123 -7.5h-643l18 79h82q89 0 117 128l213 952q14 49 3.5 79t-53.5 30h-96l17 84l690 -2
q181 -1 263.5 -94t45.5 -245zM1044 1032q30 121 -24 182.5t-181 61.5h-204l-114 -512h194q130 0 211.5 61t117.5 207zM957 399q11 49 11.5 88.5t-8 68t-27 50t-42 35.5t-55 22t-64.5 11.5t-73 3.5h-197l-109 -490q-3 -23 -5.5 -45.5t11 -39.5t43.5 -17h166q139 0 226.5 87.5
t122.5 225.5z" />
    <glyph glyph-name="C" unicode="C" horiz-adv-x="1431" 
d="M609 -25q-97 0 -178 27.5t-138.5 76.5t-97.5 116.5t-59 146.5t-18.5 167.5t20.5 179.5q29 131 98.5 254t168.5 220t231.5 155.5t274.5 58.5q127 0 228 -69.5t158 -202.5l76 220h77l-100 -478l-73 9q2 58 -8 116.5t-36.5 115.5t-65.5 100.5t-100 70.5t-135 27
q-89 0 -169.5 -37t-142 -99t-112.5 -147t-85.5 -176.5t-57.5 -192.5q-57 -260 17.5 -414t271.5 -154q156 0 311 122.5t246 333.5l77 -9l-108 -487h-77l18 213q-77 -110 -214.5 -187t-297.5 -77z" />
    <glyph glyph-name="D" unicode="D" horiz-adv-x="1488" 
d="M-37 0l17 79h97q88 0 116 129l214 956q15 52 2.5 81t-62.5 29h-99l16 78h556q138 0 249.5 -24.5t199.5 -77t138 -134t65 -196t-20 -263.5q-33 -148 -100 -263t-153.5 -188.5t-198.5 -120.5t-227 -66t-246 -19h-564zM492 85h177q130 0 244 82t191.5 218.5t115.5 308.5
q32 158 19.5 269t-68.5 181t-134 102t-178 32h-216l-239 -1067q-7 -38 -9 -66t20.5 -44t76.5 -16z" />
    <glyph glyph-name="E" unicode="E" horiz-adv-x="1315" 
d="M1271 1002l-76 -1l10 172q-7 63 -33.5 78.5t-92.5 15.5h-440l-116 -517h271q45 0 82 21t47 67l22 95h78l-101 -460h-79l24 111q10 52 -10.5 66.5t-72.5 14.5h-280l-102 -455q-9 -41 -9.5 -68.5t19 -42t64.5 -14.5h349q88 0 132.5 29t78.5 93l99 239l78 -2l-120 -444
h-1133l18 79h85q103 0 129 129l213 954q7 36 6.5 60.5t-21.5 37t-68 12.5h-78l17 80h1069z" />
    <glyph glyph-name="F" unicode="F" horiz-adv-x="1180" 
d="M-37 0l17 79h72q61 0 93.5 31.5t46.5 97.5l213 954q13 65 -2 87.5t-83 22.5h-76l17 80h1060l-65 -354l-79 -2l16 162q-2 31 -11.5 53t-20.5 33t-30.5 16.5t-31 6t-32.5 0.5h-3.5h-3.5h-421l-115 -514h258q104 0 129 108l17 73h77l-103 -463h-77l22 96q12 55 -4.5 78
t-73.5 23h-262l-108 -478q-13 -61 3 -86t85 -25h91l-18 -79h-597z" />
    <glyph glyph-name="G" unicode="G" horiz-adv-x="1487" 
d="M632 -25q-102 0 -187 27t-145 75t-102 114.5t-62 145.5t-20 167t21 180q30 137 104 263.5t175.5 221.5t231 151.5t262.5 56.5q80 0 147.5 -22.5t114.5 -61t79 -85t48 -99.5l78 232h74l-96 -464l-74 9q0 55 -10.5 108t-36 105.5t-63 91.5t-97.5 63.5t-134 24.5
q-93 0 -176 -38t-145.5 -100.5t-113.5 -147t-85 -173.5t-55 -184q-20 -90 -24.5 -170t10 -154.5t49.5 -128t100 -85.5t155 -32q148 0 258.5 83.5t166.5 250.5q14 59 -9 80t-83 21h-254l19 80h710l-17 -80h-53q-79 0 -108 -133l-89 -393h-82l-31 184q-109 -104 -215 -144
t-236 -40z" />
    <glyph glyph-name="H" unicode="H" horiz-adv-x="1611" 
d="M-37 0l17 79h96q59 0 91 31.5t47 97.5l213 954q16 56 0.5 83t-78.5 27h-103l18 80h616l-18 -80h-94q-61 0 -90.5 -33t-42.5 -95l-88 -385h656l92 403q16 55 0.5 82.5t-76.5 27.5h-102l17 80h617l-17 -80h-95q-60 0 -91.5 -31.5t-45.5 -96.5l-214 -954q-13 -61 2 -86
t76 -25h102l-18 -79h-617l18 79h104q99 0 126 129l104 462h-657l-107 -480q-16 -53 -2.5 -82t69.5 -29h108l-17 -79h-616z" />
    <glyph glyph-name="I" unicode="I" horiz-adv-x="745" 
d="M-37 0l17 79h90q64 0 97.5 31.5t47.5 97.5l213 956q13 62 -2 86t-84 24h-94l16 80h623l-17 -80h-88q-67 0 -99.5 -30t-46.5 -98l-214 -956q-14 -65 1.5 -88t85.5 -23h94l-17 -79h-623z" />
    <glyph glyph-name="J" unicode="J" horiz-adv-x="735" 
d="M-148 -492q-138 0 -224 68.5t-59 193.5q8 36 44.5 61t83.5 25q46 0 71 -29.5t15 -78.5q-2 -9 -21.5 -37t-19.5 -45q6 -79 137 -79q129 0 206.5 106t125.5 326l255 1143q6 33 7 57t-21 38.5t-71 14.5h-179l17 80h684l-18 -80h-73q-63 0 -94.5 -32.5t-44.5 -95.5
l-243 -1088q-13 -59 -25 -102t-36 -104t-51.5 -104.5t-72 -91.5t-98 -77.5t-129.5 -49t-166 -19.5z" />
    <glyph glyph-name="K" unicode="K" horiz-adv-x="1547" 
d="M-39 0l17 79h95q55 0 87.5 31t46.5 98l213 954q13 65 -2 87.5t-80 22.5h-94l17 80h618l-17 -80h-94q-67 0 -98 -34.5t-44 -96.5l-122 -536l593 524q42 36 62.5 60.5t26.5 50.5q4 17 -10.5 24.5t-40.5 7.5h-92l18 80h559l-18 -80h-91q-26 0 -54 -7.5t-48.5 -16
t-50.5 -27.5t-44.5 -30t-48.5 -37t-45 -34l-280 -240l261 -664q30 -73 60.5 -105t88.5 -32h107l-18 -79h-645l17 79h87q34 0 61.5 19t34.5 50q1 6 -1 15t-7 22t-9.5 23.5t-12.5 27.5t-12 26l-190 478l-281 -252l-68 -298q-14 -62 -1.5 -85t63.5 -24l111 -2l-16 -79h-609z
" />
    <glyph glyph-name="L" unicode="L" horiz-adv-x="1247" 
d="M-38 0l17 79h96q59 0 92 29.5t48 99.5l213 954q17 56 1 83t-83 27h-101l17 80h628l-17 -80h-93q-63 0 -96.5 -29.5t-47.5 -98.5l-211 -938q-8 -40 -9.5 -67t20.5 -40.5t74 -13.5h275q188 0 274 185l62 180l74 -2l-119 -448h-1114z" />
    <glyph glyph-name="M" unicode="M" horiz-adv-x="1898" 
d="M1599 1352h442l-17 -80h-94q-68 0 -100.5 -34.5t-44.5 -93.5l-213 -954q-6 -33 -7 -57.5t21 -39t71 -14.5h103l-17 -79h-627l17 79h88q62 0 95.5 29.5t47.5 99.5l214 951h-20l-753 -1159h-74l-231 1159h-14l-208 -925q-7 -40 -8.5 -74.5t18.5 -57.5t63 -23h79l-17 -79
h-449l17 79h73q36 0 64.5 19t44.5 50t24 55t13 50l203 907q7 34 8 59t-19.5 39t-66.5 14h-78l18 80h413l214 -1080z" />
    <glyph glyph-name="N" unicode="N" horiz-adv-x="1490" 
d="M1201 1352h452l-18 -80h-70q-53 0 -90.5 -47t-51.5 -114l-252 -1134h-90l-594 1151l-202 -900q-7 -30 -8.5 -52t3.5 -46.5t26.5 -37.5t58.5 -13h76l-17 -79h-461l17 79h72q39 0 69 20t46.5 52.5t24 53t11.5 41.5l200 893q27 133 -86 133h-74l17 80h372l527 -1035l184 813
q30 142 -78 142h-81z" />
    <glyph glyph-name="O" unicode="O" horiz-adv-x="1469" 
d="M638 -25q-149 0 -261 54.5t-173 151t-80 229t18 288.5q23 104 70.5 202t119.5 184.5t161 151.5t202 103t236 38q109 0 198 -28.5t149 -79t100.5 -118t58 -148.5t15.5 -169t-22 -179q-30 -135 -98.5 -256t-168 -216.5t-236 -151.5t-289.5 -56zM639 66q198 0 342 161.5
t211 465.5q65 297 -8 445t-258 148q-101 0 -190.5 -46.5t-157.5 -130.5t-118.5 -195.5t-80.5 -245.5q-26 -115 -27.5 -217.5t23 -191.5t92 -141t172.5 -52z" />
    <glyph glyph-name="P" unicode="P" horiz-adv-x="1205" 
d="M-37 0l17 79h75q61 0 93 31.5t46 97.5l213 956q6 33 7 57t-21 38.5t-71 14.5h-79l16 78h555q54 0 101 -3.5t95.5 -12.5t86.5 -23t73.5 -35.5t57.5 -50t38 -66.5t15 -85.5t-11 -105.5q-21 -98 -75.5 -169t-132.5 -110t-164 -56.5t-186 -17.5h-215l-96 -427
q-6 -33 -7 -57.5t21.5 -39t72.5 -14.5h79l-18 -79h-586zM516 703h190q278 0 344 299q32 149 -25 211.5t-182 62.5h-200z" />
    <glyph glyph-name="Q" unicode="Q" horiz-adv-x="1469" 
d="M638 -25q-149 0 -261 54.5t-173 151t-80 229t18 288.5q23 104 70.5 202t119.5 184.5t161 151.5t202 103t236 38q110 0 198.5 -28.5t148.5 -79t101 -119t57.5 -149t15 -168t-21.5 -177.5q-24 -107 -71.5 -207t-120 -186t-161.5 -150.5t-202.5 -101t-236.5 -36.5zM639 66
q198 0 342 161.5t211 465.5q65 294 -7.5 443.5t-258.5 149.5q-82 0 -156 -30.5t-134 -85.5t-110 -132.5t-86.5 -170t-60.5 -199.5q-26 -115 -27.5 -217.5t23 -191.5t92 -141t172.5 -52zM1086 -470q-50 0 -92.5 12t-77.5 36t-58.5 45t-53.5 55q-6 7 -24 27.5t-25.5 28
l-24.5 24.5t-27 24.5t-27.5 18.5t-32 16t-34 9t-39.5 4q-56 0 -122.5 -37.5t-168.5 -116.5l-38 65q112 88 195.5 129t166.5 41q122 0 269 -112q47 -35 77.5 -54.5t80.5 -36.5t102 -17q125 0 232 82l60 -111q-136 -132 -338 -132z" />
    <glyph glyph-name="R" unicode="R" horiz-adv-x="1421" 
d="M-41 0l18 79h71q63 0 97 30t48 99l213 956q16 54 1.5 81t-79.5 27h-85l17 80h653q208 0 312 -96t62 -287q-27 -124 -115.5 -201t-232.5 -123q32 -26 54 -65t53 -115l120 -307q17 -41 52 -60t72 -19h52l-18 -79h-317l-162 455q-33 95 -69.5 128t-111.5 33h-168l-96 -426
q-13 -63 2.5 -87t80.5 -24h78l-18 -79h-584zM515 703h190q137 0 236 72.5t134 230.5q58 262 -229 262h-206z" />
    <glyph glyph-name="S" unicode="S" horiz-adv-x="1107" 
d="M519 -25q-116 0 -206.5 57.5t-128.5 165.5l-60 -176h-82l103 465l80 -9q-16 -113 6.5 -204t93 -149.5t182.5 -58.5q98 0 186.5 71.5t115.5 190.5q20 91 -28.5 148t-163.5 108q-167 82 -226 125q-111 82 -122 195q-6 57 10 128q21 99 89.5 179t160.5 123.5t187 43.5
q87 0 161 -48t110 -130l57 154h80l-88 -398l-76 9q15 154 -55 240.5t-180 86.5q-107 0 -180.5 -67t-93.5 -156q-6 -24 -6 -45.5t2 -38.5t13.5 -34.5t19.5 -29t30 -27t35.5 -24.5t45.5 -25.5t49.5 -24.5t58.5 -27q9 -4 13 -6q38 -17 66.5 -32t61 -34.5t55.5 -39.5t46 -45
t36 -54t21.5 -63t7 -74.5t-11.5 -86.5q-20 -94 -73 -169.5t-121.5 -121t-141 -69t-139.5 -23.5z" />
    <glyph glyph-name="T" unicode="T" horiz-adv-x="1320" 
d="M248 0l18 79h87q67 0 100 34t46 95l237 1059h-249q-30 0 -53.5 -5t-55 -20t-58.5 -52t-46 -94l-33 -115l-77 2l91 369h1209l-72 -369l-78 -2l20 135q1 53 -7 84.5t-29.5 45.5t-42 17.5t-58.5 3.5h-250l-241 -1077q-5 -32 -7 -56.5t20.5 -39.5t73.5 -15h95l-18 -79h-622z
" />
    <glyph glyph-name="U" unicode="U" horiz-adv-x="1445" 
d="M629 -25q-257 0 -362 140.5t-46 405.5l143 641q7 35 7.5 59.5t-21 37.5t-69.5 13h-74l18 80h606l-18 -80h-98q-64 0 -97 -31.5t-47 -96.5l-144 -641q-47 -215 12.5 -323.5t248.5 -108.5q108 0 192.5 34.5t142 100t94.5 147.5t61 188l135 597q29 134 -87 134h-70l17 80
h437l-18 -80h-57q-53 0 -90.5 -43.5t-50.5 -105.5l-135 -602q-60 -273 -214 -409.5t-416 -136.5z" />
    <glyph glyph-name="V" unicode="V" horiz-adv-x="1376" 
d="M1136 1352h432l-17 -80h-50q-49 0 -89 -41.5t-114 -160.5l-649 -1097h-102l-188 1154q-18 91 -35.5 118t-71.5 27h-68l17 80h604l-17 -80h-112q-66 0 -91.5 -37.5t-12.5 -103.5l147 -893l508 876q18 30 28.5 50t17 42t2 35.5t-21.5 22t-48 8.5h-86z" />
    <glyph glyph-name="W" unicode="W" horiz-adv-x="1863" 
d="M1644 1352h408l-19 -80h-38q-47 0 -86.5 -48.5t-88.5 -149.5l-530 -1099h-128l-92 1111l-552 -1111h-131l-66 1173q-6 74 -21 99t-65 25h-50l17 80h546l-46 -80h-111q-10 0 -26 -17t-29 -51.5t-10 -72.5l52 -883l547 1113h122l91 -1109l395 836q14 30 22 49t16 43t8 38.5
t-4.5 28t-19.5 19.5t-39 6h-89z" />
    <glyph glyph-name="X" unicode="X" horiz-adv-x="1553" 
d="M-52 0l17 79h53q82 0 219 126l484 451l-256 480q-41 82 -69.5 109t-83.5 27h-91l17 80h637l-18 -80h-91q-53 0 -72 -35t10 -88l190 -341l359 345q122 119 -1 119h-105l17 80h501l-17 -80h-63q-14 0 -27 -2t-27.5 -7.5t-24 -9t-25.5 -15t-23.5 -16t-25.5 -20.5t-24 -21
t-27.5 -25t-26.5 -25l-418 -390l271 -514q39 -79 73 -113.5t92 -34.5h81l-18 -79h-684l19 79h114q71 0 94.5 39.5t-11.5 106.5l-204 363l-396 -380q-60 -58 -56.5 -93.5t70.5 -35.5h118l-17 -79h-534z" />
    <glyph glyph-name="Y" unicode="Y" horiz-adv-x="1310" 
d="M239 0l17 79h108q64 0 94.5 31.5t45.5 95.5l67 297l-219 660q-21 60 -41.5 84.5t-61.5 24.5h-66l17 80h556l-17 -80h-82q-53 0 -70.5 -41t2.5 -88l182 -531l401 515q33 44 46 75t0 50.5t-58 19.5h-72l18 80h396l-18 -80h-31q-60 0 -161 -127l-506 -630l-74 -325
q-17 -55 -1.5 -83t83.5 -28h113l-17 -79h-651z" />
    <glyph glyph-name="Z" unicode="Z" horiz-adv-x="1304" 
d="M1382 1360l-19 -90l-1115 -1185h561q40 0 67.5 4t61.5 17.5t65.5 45t61.5 80.5l74 192l78 -2l-123 -422h-1112l19 92l1106 1183h-487q-45 0 -77.5 -4.5t-69.5 -17t-66.5 -41t-51.5 -72.5l-54 -141l-77 1l108 360h1050z" />
    <glyph glyph-name="bracketleft" unicode="[" horiz-adv-x="683" 
d="M-11 -475l388 1827h486l-16 -78h-205q-60 0 -86.5 -27.5t-36.5 -75.5l-317 -1492q-9 -42 5.5 -59.5t78.5 -17.5h205l-16 -77h-486z" />
    <glyph glyph-name="backslash" unicode="\" horiz-adv-x="808" 
d="M586 -33l-420 1387h153l422 -1387h-155z" />
    <glyph glyph-name="bracketright" unicode="]" horiz-adv-x="682" 
d="M-178 -475l16 77h199q62 0 89.5 25t38.5 70l316 1492q10 46 -3 65.5t-73 19.5h-211l16 78h486l-388 -1827h-486z" />
    <glyph glyph-name="asciicircum" unicode="^" horiz-adv-x="1045" 
d="M1015 636h-155l-181 527l-411 -527h-153l557 718h92z" />
    <glyph glyph-name="underscore" unicode="_" horiz-adv-x="1327" 
d="M6 -200l25 120h1048l-25 -120h-1048z" />
    <glyph glyph-name="grave" unicode="`" horiz-adv-x="788" 
d="M820 1030l-412 318v4h270l208 -322h-66z" />
    <glyph glyph-name="a" unicode="a" horiz-adv-x="1116" 
d="M354 -24q-85 0 -149 36.5t-98.5 99.5t-44.5 148.5t13 183.5q22 100 67.5 180.5t98.5 129t114 81.5t111.5 45.5t93.5 12.5q65 0 137 -32t116 -96l24 100h195l-154 -693q-12 -40 -3.5 -64.5t51.5 -24.5h69l-18 -83h-309l16 106q-84 -62 -161.5 -96t-168.5 -34zM431 79
q60 0 133.5 38.5t129.5 109.5l106 456q-56 107 -188 107q-121 0 -211 -106.5t-124 -261.5q-34 -151 7 -247t147 -96z" />
    <glyph glyph-name="b" unicode="b" horiz-adv-x="1089" 
d="M526 -24q-85 0 -157.5 40.5t-119.5 110.5l-132 -139h-64l262 1174q14 51 2.5 74t-61.5 18l-76 -17l11 79l368 72l-137 -607q136 112 298 112q166 0 254.5 -134t43.5 -341q-29 -131 -108.5 -234t-180 -155.5t-203.5 -52.5zM482 74q64 0 122.5 36t100.5 93t71.5 121.5
t43.5 127.5q17 90 10 166t-52 126t-120 50q-72 0 -139.5 -39.5t-118.5 -94.5l-105 -460q23 -55 71 -90.5t116 -35.5z" />
    <glyph glyph-name="c" unicode="c" horiz-adv-x="924" 
d="M405 -28q-192 0 -287.5 130.5t-49.5 338.5q45 200 201 326t349 126q53 0 103 -13t92 -38t65.5 -68t20.5 -98q-4 -34 -25.5 -55.5t-56.5 -22.5q-23 -1 -38.5 10t-21.5 31t-8 35t-3 36q-25 103 -140 103q-66 0 -124.5 -35.5t-98.5 -92t-67.5 -118t-41.5 -123.5
q-41 -185 6 -282t169 -97q54 0 104.5 19t89 51t66.5 65t49 70l64 -51q-36 -55 -74 -96.5t-88.5 -77t-115 -54.5t-139.5 -19z" />
    <glyph glyph-name="d" unicode="d" horiz-adv-x="1117" 
d="M354 -24q-85 0 -149 36.5t-98.5 99.5t-44.5 148.5t13 183.5q22 100 67.5 180.5t98.5 129t114 81.5t111.5 45.5t93.5 12.5q65 0 137 -32t116 -96l92 395q15 47 1 72t-66 21l-72 -16l12 76l369 75l-271 -1216q-12 -40 -3.5 -64.5t51.5 -24.5h69l-18 -83h-309l16 106
q-84 -62 -161.5 -96t-168.5 -34zM431 79q60 0 133.5 38.5t129.5 109.5l106 456q-56 107 -188 107q-121 0 -211 -106.5t-124 -261.5q-34 -151 7 -247t147 -96z" />
    <glyph glyph-name="e" unicode="e" horiz-adv-x="919" 
d="M396 -28q-184 0 -276 135t-46 346q44 198 187.5 319t317.5 121q126 0 214 -65t88 -168q0 -256 -606 -263q-67 -336 177 -336q78 0 155 50t135 132l60 -54q-74 -101 -181 -159t-225 -58zM288 472q432 17 432 196q0 65 -39 104t-105 39q-99 0 -178 -97t-110 -242z" />
    <glyph glyph-name="f" unicode="f" horiz-adv-x="624" 
d="M-17 -511l292 1296h-189l16 80h189l39 168q39 172 160 261t279 89q73 0 130 -24t89 -79t20 -134q-7 -34 -35 -56.5t-63 -23.5q-38 -1 -59 27.5t-18 76.5q1 65 -21.5 98.5t-78.5 33.5q-80 0 -133.5 -69t-79.5 -188l-41 -180h240l-17 -80h-239l-292 -1296h-188z" />
    <glyph glyph-name="g" unicode="g" horiz-adv-x="1029" 
d="M265 -519q-51 0 -99.5 5.5t-103 22.5t-91.5 44.5t-55 75.5t-4 111q17 78 76.5 124.5t161.5 71.5q-139 36 -124 147q8 80 77.5 148.5t180.5 97.5q-45 15 -77 41.5t-47.5 56.5t-21.5 65.5t-4.5 64.5t7.5 57q27 124 144.5 201t284.5 77q83 0 153 -28t113 -82
q110 108 187 108q40 0 61 -28t17 -75q-3 -43 -45 -45q-21 -1 -31 27q-14 34 -41 34q-24 0 -55.5 -24t-62.5 -65q25 -51 6 -138q-17 -76 -63 -133t-108.5 -88.5t-128.5 -47t-135 -17.5q-108 -2 -179 -36t-82 -84q-8 -35 14 -53.5t79 -25.5q62 -6 262 -6q176 0 250 -63.5
t40 -219.5q-32 -141 -176.5 -231t-379.5 -90zM452 375q87 0 153 65t91 178q9 27 4 60.5t-16.5 63.5t-43.5 50t-78 20q-91 0 -156.5 -73.5t-84.5 -156.5q-9 -31 -4.5 -67t16.5 -67t43.5 -52t75.5 -21zM279 -440q161 0 278 57.5t139 155.5q18 78 -39.5 111t-226.5 33
q-360 0 -403 -188q-11 -50 3.5 -84.5t52.5 -52.5t84.5 -25t111.5 -7z" />
    <glyph glyph-name="h" unicode="h" horiz-adv-x="1106" 
d="M57 0l257 1158q14 46 2.5 71t-61.5 19l-75 -16l11 78l369 78l-164 -724q84 102 180.5 165.5t185.5 63.5q136 0 189 -86t18 -241l-88 -391q-11 -50 2 -73t57 -23h68l-17 -79h-343l129 580q13 61 13 105t-26.5 68.5t-80.5 24.5q-78 0 -164 -81.5t-154 -189.5l-113 -507
h-195z" />
    <glyph glyph-name="i" unicode="i" horiz-adv-x="566" 
d="M473 1152q-51 0 -88 38t-37 90t36.5 89t88.5 37t88.5 -37t36.5 -89q0 -55 -36.5 -91.5t-88.5 -36.5zM92 0l150 669q14 56 1 77t-67 15l-79 -16l13 78l378 74l-167 -746q-9 -40 7 -56t58 -16h67l-17 -79h-344z" />
    <glyph glyph-name="j" unicode="j" horiz-adv-x="538" 
d="M473 1152q-51 0 -88 38t-37 90t36.5 89t88.5 37t88.5 -37t36.5 -89q0 -55 -36.5 -91.5t-88.5 -36.5zM-191 -524q-105 0 -163 56t-45 156q4 29 27.5 47t54.5 19t47.5 -22t17.5 -62q-4 -111 99 -111q78 0 131 78t82 209l183 822q7 32 6.5 54t-19.5 32t-62 6l-75 -17l13 79
l383 75l-218 -979q-50 -231 -155 -336.5t-307 -105.5z" />
    <glyph glyph-name="k" unicode="k" horiz-adv-x="1134" 
d="M56 0l258 1161q14 51 1.5 74.5t-63.5 17.5l-76 -17l13 79l370 73l-221 -988l613 465h187l-16 -80h-49q-68 0 -174 -75l-189 -133l191 -392q24 -53 44.5 -79.5t49.5 -26.5h50l-18 -79h-250l-229 471l-229 -169l-68 -302h-195z" />
    <glyph glyph-name="l" unicode="l" horiz-adv-x="527" 
d="M56 0l258 1161q14 51 1.5 74.5t-63.5 17.5l-76 -17l13 79l370 73l-270 -1213q-12 -41 -3.5 -68.5t43.5 -27.5h83l-18 -79h-338z" />
    <glyph glyph-name="m" unicode="m" horiz-adv-x="1827" 
d="M119 0l148 659q14 46 2.5 71.5t-61.5 19.5l-76 -17l13 79l367 78l-52 -227q92 100 200.5 165t199.5 65q111 0 165.5 -61.5t44.5 -179.5q92 106 205 173.5t207 67.5q135 0 189 -85t18 -242l-87 -391q-11 -51 1 -73.5t58 -22.5h67l-18 -79h-343l128 580q25 93 5 145.5
t-98 52.5q-84 0 -180.5 -78.5t-163.5 -177.5l-118 -522h-195l129 580q13 61 13 105t-26 68.5t-81 24.5q-87 0 -187.5 -84.5t-163.5 -186.5l-114 -507h-196z" />
    <glyph glyph-name="n" unicode="n" horiz-adv-x="1140" 
d="M89 0l147 659q7 31 7.5 52.5t-15 32t-50.5 6.5l-76 -17l12 79l368 78l-52 -226q82 101 178.5 165t186.5 64q133 0 188 -83.5t19 -243.5l-88 -391q-11 -50 2 -73t57 -23h68l-17 -79h-341l127 580q25 91 5 144.5t-100 53.5q-78 0 -164.5 -82t-151.5 -189l-114 -507h-196z
" />
    <glyph glyph-name="o" unicode="o" horiz-adv-x="1013" 
d="M411 -28q-23 0 -48.5 3t-56.5 11.5t-60 21t-58 33t-53 46.5t-42 62.5t-27.5 80t-7.5 100.5t16 122q21 93 64.5 169.5t98 126t119 83t125.5 48t120 14.5q55 0 109.5 -15.5t108 -50t86.5 -89.5t46.5 -134.5t-11.5 -185.5q-22 -100 -68.5 -180t-102 -128.5t-121.5 -80.5
t-124 -44.5t-113 -12.5zM416 53q102 0 193.5 108.5t132.5 288.5q22 105 17 185.5t-46.5 128t-114.5 47.5q-113 0 -200 -110.5t-126 -279.5q-38 -172 4.5 -270t139.5 -98z" />
    <glyph glyph-name="p" unicode="p" horiz-adv-x="1124" 
d="M-22 -511l263 1183q15 49 1 71.5t-73 18.5l-66 -15l12 77l355 73l-21 -139q72 64 155.5 99.5t162.5 35.5q160 0 245.5 -133.5t40.5 -341.5q-29 -129 -106.5 -232.5t-178 -158.5t-202.5 -55q-161 0 -253 132l-139 -615h-196zM512 75q67 0 127.5 37t102.5 94.5t70.5 119
t41.5 120.5q17 91 10.5 167t-51.5 126.5t-121 50.5q-65 0 -136.5 -43.5t-125.5 -109.5l-102 -449q29 -56 80 -84.5t104 -28.5z" />
    <glyph glyph-name="q" unicode="q" horiz-adv-x="1086" 
d="M534 -511l133 598q-139 -115 -300 -115q-171 0 -255.5 133t-39.5 338q46 207 189.5 328t302.5 121q173 0 274 -147l134 138h62l-307 -1394h-193zM430 71q50 0 120 33.5t138 100.5l107 464q-60 127 -189 127q-110 0 -202.5 -102.5t-132.5 -278.5q-16 -59 -13 -120
t17.5 -110.5t54.5 -81.5t100 -32z" />
    <glyph glyph-name="r" unicode="r" horiz-adv-x="840" 
d="M91 0l146 662q13 51 2.5 74t-54.5 18l-83 -16l12 78l344 81l-38 -244q159 240 342 240q75 0 109 -47.5t31 -113.5q-3 -32 -24.5 -57t-61.5 -26q-12 -1 -21 1.5t-15.5 10.5t-9 11.5t-8.5 17t-7 15.5q-23 54 -93 54q-54 0 -104.5 -38.5t-87.5 -99.5t-63 -126.5t-40 -128.5
l-81 -366h-195z" />
    <glyph glyph-name="s" unicode="s" horiz-adv-x="959" 
d="M521 820q-94 0 -159 -35t-74 -96q-6 -48 26.5 -76.5t68.5 -37t119 -20.5q13 -2 19 -3q58 -9 98 -18t87.5 -29.5t75 -47.5t44 -72t10.5 -104q-13 -144 -126 -226.5t-285 -82.5q-100 0 -172 26.5t-108 67.5l-62 -94h-63l58 275l67 -1q27 -93 111 -147.5t192 -54.5
q95 0 161 42t76 118q4 25 -2 46t-14.5 35t-30.5 26.5t-37 19t-49 14t-50.5 10t-56.5 8.5t-66.5 11t-62.5 15t-59 21.5t-47.5 30t-37.5 41.5t-20 55.5t-3 71.5q10 134 117 209t269 75q173 0 260 -92l55 92h59l-54 -261l-55 1q-15 90 -91 138.5t-188 48.5z" />
    <glyph glyph-name="t" unicode="t" horiz-adv-x="723" 
d="M335 -28q-120 0 -172 79t-18 230l113 504h-164l17 80h91q80 0 147.5 55.5t86.5 140.5l26 113h74l-68 -309h286l-16 -80h-286l-111 -493q-27 -110 -13 -166.5t78 -56.5q46 0 90.5 35.5t65.5 99.5l61 -18q-17 -61 -51.5 -105.5t-77 -67t-81.5 -32t-78 -9.5z" />
    <glyph glyph-name="u" unicode="u" horiz-adv-x="1141" 
d="M345 -28q-136 0 -188.5 84.5t-17.5 241.5l87 391q11 52 -2 74t-56 22h-68l16 80h342l-128 -581q-13 -61 -13 -105t26.5 -68.5t81.5 -24.5q78 0 163.5 81.5t152.5 189.5l76 332q22 96 -42 96h-76l16 80h336l-153 -689q-14 -47 -2.5 -71t61.5 -19l77 17l-14 -79l-363 -49
l52 225q-81 -100 -177.5 -164t-186.5 -64z" />
    <glyph glyph-name="v" unicode="v" horiz-adv-x="954" 
d="M744 865h305l-597 -883h-123l-139 701q-14 64 -29.5 83t-50.5 19h-48l16 80h266l143 -704l336 515q17 27 26.5 45.5t12 33.5t-6 22.5t-27.5 7.5h-101z" />
    <glyph glyph-name="w" unicode="w" horiz-adv-x="1455" 
d="M1220 865h317l-519 -884h-129l-109 692l-380 -692h-110l-91 714q-9 55 -23.5 72.5t-49.5 17.5h-62l16 80h284l84 -652l368 662h124l112 -698l275 489q38 66 35 92.5t-55 26.5h-104z" />
    <glyph glyph-name="x" unicode="x" horiz-adv-x="1040" 
d="M-58 0l497 420l-204 309q-35 56 -83 56h-60l18 80h267l206 -339l194 177q22 21 29.5 40t-1.5 30.5t-33 11.5h-88l16 80h386l-468 -393l208 -319q26 -42 46.5 -58t47.5 -16h34l-18 -79h-248l-216 358l-218 -195q-21 -18 -31 -37t-2.5 -33t36.5 -14h102l-18 -79h-399z" />
    <glyph glyph-name="y" unicode="y" horiz-adv-x="941" 
d="M-14 -497q-39 -1 -60.5 20.5t-21.5 57.5q0 43 25.5 62t72.5 30q87 19 160.5 70t147.5 158l82 121l-197 677q-14 45 -30.5 65.5t-45.5 20.5h-59l17 80h276l175 -644l277 440q19 31 28.5 52t12.5 38t-6.5 25.5t-31.5 8.5h-113l16 80h323l-674 -1038q-108 -166 -189 -239.5
t-185 -84.5z" />
    <glyph glyph-name="z" unicode="z" horiz-adv-x="948" 
d="M947 865l-19 -90l-693 -696h336q70 0 134 102l48 106l76 -2l-88 -285h-763l18 86l692 699h-322q-30 0 -53.5 -19.5t-57.5 -76.5l-42 -94l-77 3l85 267h726z" />
    <glyph glyph-name="braceleft" unicode="{" horiz-adv-x="581" 
d="M358 -519q-66 -2 -121 11t-92.5 37.5t-66 58.5t-40.5 73.5t-16.5 82.5t6.5 87q14 66 71.5 186t70.5 180q37 177 -135 193l10 80q187 24 232 231q10 50 4 168.5t11 190.5q7 33 24.5 70t54 81.5t85.5 80t127 60t170 25.5l-2 -46q-128 -9 -211 -77t-107 -177
q-14 -62 -10 -182t-8 -182q-23 -105 -106 -184t-230 -98l-10 -4q123 -23 184.5 -104t34.5 -214q-10 -45 -65 -160t-71 -198q-12 -59 0.5 -104t44 -70.5t72.5 -38t90 -13.5z" />
    <glyph glyph-name="bar" unicode="|" horiz-adv-x="618" 
d="M32 -483l391 1835h164l-390 -1835h-165z" />
    <glyph glyph-name="braceright" unicode="}" horiz-adv-x="582" 
d="M-173 -519l3 47q67 1 129.5 26.5t116 86t71.5 146.5q16 69 10.5 183t7.5 174q25 120 115 191.5t222 93.5l9 4q-141 20 -191.5 108.5t-24.5 207.5q10 48 65 168.5t70 194.5q19 96 -33.5 154t-175.5 67l2 44q67 -1 120.5 -15t89 -36.5t61 -53t38.5 -62.5t18.5 -66.5
t4.5 -63.5t-6 -55q-12 -62 -68 -179t-69 -180q-37 -174 133 -198l-11 -80q-33 -3 -64.5 -15.5t-65.5 -37t-60.5 -69.5t-38.5 -104q-10 -47 -4.5 -167.5t-11.5 -199.5q-13 -60 -50 -116t-93.5 -102t-139.5 -72.5t-179 -23.5z" />
    <glyph glyph-name="asciitilde" unicode="~" horiz-adv-x="1318" 
d="M218 521q1 38 7.5 76.5t24.5 85.5t46 81.5t76.5 58.5t111.5 24q58 0 118.5 -22t183.5 -85q76 -45 111 -60t79 -15q74 0 119 48.5t50 136.5h63q1 -89 -27.5 -161.5t-91.5 -119t-152 -46.5q-52 0 -103.5 15.5t-84 32t-120.5 64.5q-62 38 -100 53.5t-81 15.5
q-76 0 -118.5 -47.5t-48.5 -135.5h-63z" />
    <glyph glyph-name="uni00A0" unicode="&#xa0;" horiz-adv-x="543" 
 />
    <glyph glyph-name="exclamdown" unicode="&#xa1;" horiz-adv-x="572" 
d="M353 898q56 0 95.5 -40t39.5 -98q0 -56 -39.5 -96t-95.5 -40q-55 0 -94.5 40t-39.5 96q0 57 39.5 97.5t94.5 40.5zM320 419l-99 -696q-21 -140 -24 -156q-3 -15 -7 -25t-14.5 -24.5t-32 -22t-52.5 -7.5q-106 0 -79 114q3 16 37 128l193 689h78z" />
    <glyph glyph-name="cent" unicode="&#xa2;" horiz-adv-x="1026" 
d="M819 1084q84 -22 135 -73.5t49 -130.5q-4 -32 -25.5 -54t-56.5 -24q-72 0 -72 112q-20 60 -65 84l-299 -723q29 -6 60 -6q107 0 189.5 62t131.5 144l64 -51q-35 -54 -74.5 -96t-91.5 -78t-119 -55t-144 -19q-28 0 -55 3l-149 -361h-64l153 371q-148 36 -215.5 158.5
t-29.5 297.5q28 132 112.5 236.5t202.5 160.5t248 56q28 0 55 -3l147 357h65zM430 296l296 720q-20 2 -34 2q-69 0 -130 -35.5t-102.5 -92.5t-69.5 -118.5t-41 -122.5q-29 -138 -7.5 -226.5t88.5 -126.5z" />
    <glyph glyph-name="sterling" unicode="&#xa3;" horiz-adv-x="1479" 
d="M83 -37q-32 0 -53 36q-20 29 -10 60q20 36 64.5 75.5t98 79.5t65.5 51q118 143 223 358l-321 -1l49 104l314 1q15 31 47 98t55.5 114t47.5 90q60 102 125 171t135 106.5t138.5 52.5t152.5 15q123 0 192 -57t67 -150q-4 -27 -27 -45t-51 -20q-35 -1 -52.5 23.5t-23.5 61.5
q-36 102 -149 102q-50 0 -94 -16.5t-77 -42.5t-65.5 -70.5t-56.5 -86t-54 -103.5q-23 -40 -65.5 -125t-61.5 -120l348 1l-47 -104l-363 -1q-104 -181 -206 -291q60 39 136 39q25 0 47 -4.5t42 -16t33.5 -20.5t32 -29.5t26 -29.5t27 -34.5t24.5 -32.5q24 -31 39.5 -47.5
t40.5 -37t55.5 -30t67.5 -9.5q61 0 103.5 26.5t62.5 73t27.5 98t4.5 113.5q-1 29 19 46.5t52 19.5q36 1 54.5 -21t20.5 -61q3 -73 -41 -149q-52 -107 -164 -181.5t-227 -74.5q-72 0 -130.5 30t-82 56.5t-63.5 81.5q-5 6 -7 9q-26 35 -43 54t-46 35t-63 16q-76 0 -163 -86
q-28 -29 -67 -75t-59 -68t-48.5 -40t-55.5 -18z" />
    <glyph glyph-name="currency" unicode="&#xa4;" horiz-adv-x="1255" 
d="M305 287l-61 62l131 129q-85 126 -85 245q0 122 87 248l-133 132l61 62l135 -131q126 88 247 88q125 0 250 -88l135 131l60 -62l-131 -131q86 -129 86 -249q0 -115 -85 -245l130 -129l-60 -62l-135 131q-125 -88 -250 -88t-248 87zM687 417q128 0 220 90.5t92 216.5
q0 129 -93.5 220t-218.5 91q-126 0 -216.5 -91.5t-90.5 -219.5q0 -127 90 -217t217 -90z" />
    <glyph glyph-name="yen" unicode="&#xa5;" horiz-adv-x="1497" 
d="M339 0l17 79h124q58 0 88.5 33t44.5 96l29 134h-452l15 74h452l20 87l-29 75h-409l16 73h367l-186 514q-21 61 -41.5 85t-60.5 24h-70l16 80h550l-16 -80h-87q-54 0 -73 -38t-1 -91l208 -533l419 526q31 41 41 70.5t-4 47.5t-54 18h-88l17 80h405l-17 -80h-25
q-65 0 -160 -125l-408 -498h375l-16 -73h-414l-56 -67l-22 -95h458l-15 -74h-458l-33 -152q-15 -57 -0.5 -84t71.5 -27h134l-18 -79h-654z" />
    <glyph glyph-name="brokenbar" unicode="&#xa6;" horiz-adv-x="620" 
d="M489 888l-24 -114l-167 -788h-165l167 788h1l24 114h164z" />
    <glyph glyph-name="section" unicode="&#xa7;" horiz-adv-x="1095" 
d="M340 -499q-150 0 -233 74t-60 194q7 37 33 53t54 16q27 0 46.5 -22t19.5 -74q-2 -82 37.5 -121t132.5 -39q96 0 164.5 53t87.5 146q9 40 1 72.5t-35 62t-59 55t-84 62.5q-58 40 -89 64q-146 96 -207 190t-34 220q22 99 101 175.5t225 97.5q-153 120 -115 295
q31 143 150.5 221t281.5 78q155 0 234.5 -75t60.5 -189q-6 -33 -33 -50.5t-58 -17.5q-38 0 -51 26.5t-14 75.5q2 74 -38 112.5t-134 38.5q-102 0 -169.5 -54.5t-86.5 -146.5q-11 -50 15 -95.5t58.5 -72.5t112.5 -82q33 -24 51 -36q39 -24 67.5 -43t60 -43t53 -46t42.5 -48.5
t33 -54t19.5 -59t6.5 -68t-9 -76.5q-52 -243 -320 -279q68 -55 97 -131t11 -165q-20 -95 -86 -163t-153.5 -99.5t-187.5 -31.5zM591 172q99 -11 168 39t86 135q14 64 -35 137t-131 131.5t-175 92.5q-102 10 -170 -39.5t-87 -135.5q-13 -62 33.5 -134.5t130 -132t180.5 -93.5
z" />
    <glyph glyph-name="dieresis" unicode="&#xa8;" horiz-adv-x="812" 
d="M383 1122q-44 0 -74.5 31t-30.5 73q0 44 31 74.5t74 30.5q44 0 74 -30.5t30 -74.5t-30.5 -74t-73.5 -30zM766 1122q-44 0 -74.5 31t-30.5 73q0 44 30.5 74.5t74.5 30.5q43 0 73.5 -31t30.5 -74q0 -44 -30.5 -74t-73.5 -30z" />
    <glyph glyph-name="copyright" unicode="&#xa9;" horiz-adv-x="1653" 
d="M876 -30q-143 0 -272.5 55.5t-224 150t-150 225t-55.5 273.5q0 191 95 353t256.5 256t350.5 94q143 0 273.5 -55.5t225 -149.5t150.5 -224.5t56 -273.5q0 -191 -94.5 -353t-257 -256.5t-353.5 -94.5zM876 37q173 0 319.5 85.5t232 232t85.5 319.5q0 130 -50.5 247.5
t-136 202.5t-203.5 135.5t-247 50.5q-171 0 -317 -84.5t-231.5 -231.5t-85.5 -320q0 -130 50 -248t135 -203t202.5 -135.5t246.5 -50.5zM878 249q-84 0 -159 29t-132.5 81t-91 132.5t-33.5 176.5q0 191 122.5 313t303.5 122q50 0 104 -13t73 -21t64 -28q28 -10 41 2t14 36
h40v-216h-40q-17 54 -49.5 94t-71.5 60.5t-76.5 30t-74.5 9.5q-64 0 -116.5 -23t-87 -60t-58.5 -86.5t-34.5 -101t-10.5 -104.5q0 -173 81 -277.5t223 -104.5q104 0 180.5 52.5t111.5 123.5l17 -47q-55 -86 -144.5 -133t-195.5 -47z" />
    <glyph glyph-name="guillemotleft" unicode="&#xab;" horiz-adv-x="1030" 
d="M278 0l-249 440l434 441h86l-337 -441l149 -440h-83zM782 0l-251 440l434 441h87l-337 -441l148 -440h-81z" />
    <glyph glyph-name="logicalnot" unicode="&#xac;" horiz-adv-x="1447" 
d="M1135 334v512h-939v134h1073v-646h-134z" />
    <glyph glyph-name="uni00AD" unicode="&#xad;" horiz-adv-x="876" 
d="M119 323l36 168h592l-36 -168h-592z" />
    <glyph glyph-name="registered" unicode="&#xae;" horiz-adv-x="1652" 
d="M876 1379q143 0 273.5 -55.5t225 -149.5t150.5 -224t56 -273t-56 -273.5t-150.5 -225t-225 -150t-273.5 -55.5t-272.5 55.5t-224 149.5t-150 224.5t-55.5 274.5q0 191 95 353t256.5 255.5t350.5 93.5zM876 40q173 0 319.5 85.5t232 232t85.5 319.5q0 172 -85.5 318.5
t-232.5 231.5t-319 85q-171 0 -317 -84.5t-231.5 -231t-85.5 -319.5q0 -130 50 -248t135 -203t202.5 -135.5t246.5 -50.5zM1221 381q27 -39 58 -39h40v-47h-156l-168 262q-35 53 -62 72t-67 19h-122v-251q0 -30 11 -42.5t42 -12.5h61v-47h-332v47h60q33 0 43.5 12t10.5 43
v570q0 31 -10.5 44t-40.5 13h-63v45h392q118 0 190 -52.5t72 -156.5q0 -147 -165 -193q38 -30 77 -92zM889 695q184 0 184 162q0 81 -47.5 120t-131.5 39h-150v-321h145z" />
    <glyph glyph-name="macron" unicode="&#xaf;" horiz-adv-x="870" 
d="M267 1093l59 144h587l-57 -144h-589z" />
    <glyph glyph-name="degree" unicode="&#xb0;" horiz-adv-x="1011" 
d="M629 657q-149 0 -255 106t-106 255t106 255t255 106t255 -106t106 -255t-106 -255t-255 -106zM629 761q107 0 182 75t75 182t-75 182t-182 75q-106 0 -181 -75t-75 -182t74.5 -182t181.5 -75z" />
    <glyph glyph-name="plusminus" unicode="&#xb1;" horiz-adv-x="1425" 
d="M661 358v488h-488v134h488v488h134v-488h488v-134h-488v-488h-134zM173 0v134h1110v-134h-1110z" />
    <glyph glyph-name="acute" unicode="&#xb4;" horiz-adv-x="358" 
d="M122 1030h-66l208 322h270v-4z" />
    <glyph glyph-name="uni00B5" unicode="&#xb5;" horiz-adv-x="1314" 
d="M68 -424l238 1113q11 52 -2.5 74t-59.5 22h-73l16 80h352l-123 -581q-22 -102 1 -150t106 -48q85 0 175 82t156 189l73 332q19 96 -45 96h-84l16 80h347l-146 -689q-14 -46 -1 -71t64 -19l82 17l-13 -79l-374 -49l50 225q-65 -83 -140 -140.5t-147 -67.5
q-109 -16 -174 28l-97 -444h-197z" />
    <glyph glyph-name="paragraph" unicode="&#xb6;" horiz-adv-x="1153" 
d="M334 -510l228 1064q-82 4 -147 20.5t-118 48.5t-83 81.5t-40 118t11 158.5q20 93 61.5 160t97 108.5t138 65.5t170 32.5t206.5 8.5h443l-9 -42h-42q-101 0 -148.5 -55t-70.5 -160l-342 -1609h-73l383 1806h-209l-382 -1806h-74z" />
    <glyph glyph-name="periodcentered" unicode="&#xb7;" horiz-adv-x="604" 
d="M353 538q-56 0 -96.5 40t-40.5 99q0 56 39.5 95t97.5 39q56 0 96 -39t40 -95q0 -59 -39.5 -99t-96.5 -40z" />
    <glyph glyph-name="cedilla" unicode="&#xb8;" horiz-adv-x="603" 
d="M81 -487q-104 0 -200 24l16 80q73 -17 159 -17q110 0 166.5 32t56.5 78q0 25 -20 40.5t-57.5 21.5t-67 8t-72.5 2h-20l46 246l89 -7l-31 -146q111 -1 180 -39t69 -119q0 -82 -81 -143t-233 -61z" />
    <glyph glyph-name="guillemotright" unicode="&#xbb;" horiz-adv-x="1029" 
d="M-18 0l336 440l-146 441h81l249 -441l-436 -440h-84zM484 0l338 440l-147 441h80l249 -441l-435 -440h-85z" />
    <glyph glyph-name="questiondown" unicode="&#xbf;" horiz-adv-x="873" 
d="M615 898q55 0 95 -40.5t40 -97.5q0 -56 -39.5 -96t-95.5 -40t-95.5 40t-39.5 96q0 58 39.5 98t95.5 40zM604 -213q27 -1 45.5 -25.5t8.5 -61.5q-35 -86 -141.5 -149t-244.5 -63q-122 0 -204 56.5t-110.5 148t-5.5 200.5q17 80 58.5 145.5t95.5 106t114.5 62.5t119.5 22
q56 0 113 -22l45 210h87l-66 -307l-65 7q-21 19 -72 19q-48 0 -91 -26.5t-72.5 -68t-49 -85.5t-28.5 -86q-7 -35 -8.5 -73.5t6.5 -79.5t25 -73.5t50 -53.5t78 -21q65 0 128 42t99 120q1 1 4 6.5t4.5 7.5t5.5 7.5t6 8t7 7t8.5 6.5t9.5 5.5t11.5 4.5t13 2t15.5 1z" />
    <glyph glyph-name="Agrave" unicode="&#xc0;" horiz-adv-x="1295" 
d="M894 1438h-66l-412 317v4h270zM1162 79h54l-17 -79h-531l17 79h94q36 0 56.5 20t16.5 54l-32 270h-473l-154 -272q-16 -27 -10 -43t21 -22.5t37 -6.5h98l-17 -79h-407l15 79h40q37 0 88 53t78 99l675 1146h99l149 -1163q4 -27 7 -42t10 -35.5t17 -31t27.5 -18.5t41.5 -8z
M394 505h416l-67 560h-32z" />
    <glyph glyph-name="Aacute" unicode="&#xc1;" horiz-adv-x="1295" 
d="M1035 1759h271v-4l-412 -317h-66zM1059 214q4 -27 7 -42t10 -35.5t17 -31t27.5 -18.5t41.5 -8h54l-17 -79h-531l17 79h94q36 0 56.5 20t16.5 54l-32 270h-473l-154 -272q-16 -27 -10 -43t21 -22.5t37 -6.5h98l-17 -79h-407l15 79h40q37 0 88 53t78 99l675 1146h99z
M394 505h416l-67 560h-32z" />
    <glyph glyph-name="Acircumflex" unicode="&#xc2;" horiz-adv-x="1295" 
d="M937 1701l-310 -231h-61l285 322h206l148 -322h-56zM1162 79h54l-17 -79h-531l17 79h94q36 0 56.5 20t16.5 54l-32 270h-473l-154 -272q-16 -27 -10 -43t21 -22.5t37 -6.5h98l-17 -79h-407l15 79h40q37 0 88 53t78 99l675 1146h99l149 -1163q4 -27 7 -42t10 -35.5t17 -31
t27.5 -18.5t41.5 -8zM394 505h416l-67 560h-32z" />
    <glyph glyph-name="Atilde" unicode="&#xc3;" horiz-adv-x="1295" 
d="M753 1564q-47 0 -80.5 -39.5t-46.5 -93.5l-55 18q23 122 83 189.5t148 67.5q9 0 18 -1t16.5 -2.5t16 -5.5t14 -5.5t14.5 -7.5t12.5 -8t13 -9t11.5 -9t12 -10t11 -9q27 -26 51.5 -39.5t59.5 -13.5q48 0 85 38t56 108l55 -18q-20 -117 -82 -194.5t-151 -77.5q-17 0 -33 3.5
t-26 7t-25.5 14t-20 13.5t-21.5 17.5t-19 15.5q-55 51 -117 51zM1059 214q4 -27 7 -42t10 -35.5t17 -31t27.5 -18.5t41.5 -8h54l-17 -79h-531l17 79h94q36 0 56.5 20t16.5 54l-32 270h-473l-154 -272q-16 -27 -10 -43t21 -22.5t37 -6.5h98l-17 -79h-407l15 79h40q37 0 88 53
t78 99l675 1146h99zM394 505h416l-67 560h-32z" />
    <glyph glyph-name="Adieresis" unicode="&#xc4;" horiz-adv-x="1295" 
d="M669 1501q-43 0 -73.5 31.5t-30.5 73.5q0 43 30.5 73.5t73.5 30.5q44 0 74.5 -30.5t30.5 -73.5q0 -45 -31 -75t-74 -30zM1052 1501q-43 0 -73.5 31.5t-30.5 73.5q0 43 30.5 73.5t73.5 30.5t74 -30.5t31 -73.5q0 -44 -31 -74.5t-74 -30.5zM1162 79h54l-17 -79h-531l17 79
h94q36 0 56.5 20t16.5 54l-32 270h-473l-154 -272q-16 -27 -10 -43t21 -22.5t37 -6.5h98l-17 -79h-407l15 79h40q37 0 88 53t78 99l675 1146h99l149 -1163q4 -27 7 -42t10 -35.5t17 -31t27.5 -18.5t41.5 -8zM394 505h416l-67 560h-32z" />
    <glyph glyph-name="Aring" unicode="&#xc5;" horiz-adv-x="1295" 
d="M902 1441q-78 0 -132.5 54.5t-54.5 132.5t54.5 132t132.5 54q77 0 132 -54.5t55 -131.5t-55 -132t-132 -55zM902 1754q-52 0 -88.5 -36.5t-36.5 -89.5t36.5 -89.5t88.5 -36.5t89 37t37 89t-37 89t-89 37zM1162 79h54l-17 -79h-531l17 79h94q36 0 56.5 20t16.5 54l-32 270
h-473l-154 -272q-16 -27 -10 -43t21 -22.5t37 -6.5h98l-17 -79h-407l15 79h40q37 0 88 53t78 99l675 1146h99l149 -1163q4 -27 7 -42t10 -35.5t17 -31t27.5 -18.5t41.5 -8zM394 505h416l-67 560h-32z" />
    <glyph glyph-name="AE" unicode="&#xc6;" horiz-adv-x="1885" 
d="M1834 1002l-76 -1l7 172q-8 63 -35.5 78.5t-93.5 15.5h-441l-103 -517h270q46 0 82 21.5t46 66.5l19 95h79l-93 -460h-79l22 111q10 52 -11.5 66.5t-73.5 14.5h-279l-92 -455q-8 -40 -8.5 -67.5t19 -42.5t65.5 -15h349q88 0 132.5 29t76.5 93l92 239l78 -2l-111 -444
h-1132l16 79h85q101 0 128 129l42 215h-440l-182 -272q-14 -19 -14.5 -33.5t9.5 -22t23 -11t30 -3.5l98 -2l-16 -79h-407l15 79l39 10q43 18 77.5 45t50.5 47t35 50l765 1121h989zM830 505l152 762h-45l-509 -762h402z" />
    <glyph glyph-name="Ccedilla" unicode="&#xc7;" horiz-adv-x="1431" 
d="M1350 847l-73 9q2 58 -8 116.5t-36.5 115.5t-65.5 100.5t-100 70.5t-135 27q-89 0 -169.5 -37t-142 -99t-112.5 -147t-85.5 -176.5t-57.5 -192.5q-57 -260 17.5 -414t271.5 -154q156 0 311 122.5t246 333.5l77 -9l-108 -487h-77l18 213q-75 -106 -206.5 -182t-285.5 -82
l-21 -100q111 -1 180 -39t69 -119q0 -82 -81 -143t-233 -61q-104 0 -200 24l16 80q73 -17 159 -17q110 0 166.5 32t56.5 78q0 25 -20 40.5t-57.5 21.5t-67 8t-72.5 2h-20l37 197q-101 11 -182 55.5t-131.5 112.5t-80.5 155.5t-29.5 185t20.5 201.5q29 131 98.5 254
t168.5 220t231.5 155.5t274.5 58.5q127 0 228 -69.5t158 -202.5l76 220h77z" />
    <glyph glyph-name="Egrave" unicode="&#xc8;" horiz-adv-x="1315" 
d="M893 1438h-66l-412 317v4h270zM1271 1002l-76 -1l10 172q-7 63 -33.5 78.5t-92.5 15.5h-440l-116 -517h271q45 0 82 21t47 67l22 95h78l-101 -460h-79l24 111q10 52 -10.5 66.5t-72.5 14.5h-280l-102 -455q-9 -41 -9.5 -68.5t19 -42t64.5 -14.5h349q88 0 132.5 29
t78.5 93l99 239l78 -2l-120 -444h-1133l18 79h85q103 0 129 129l213 954q7 36 6.5 60.5t-21.5 37t-68 12.5h-78l17 80h1069z" />
    <glyph glyph-name="Eacute" unicode="&#xc9;" horiz-adv-x="1315" 
d="M1305 1755l-412 -317h-66l207 321h271v-4zM1271 1002l-76 -1l10 172q-7 63 -33.5 78.5t-92.5 15.5h-440l-116 -517h271q45 0 82 21t47 67l22 95h78l-101 -460h-79l24 111q10 52 -10.5 66.5t-72.5 14.5h-280l-102 -455q-9 -41 -9.5 -68.5t19 -42t64.5 -14.5h349
q88 0 132.5 29t78.5 93l99 239l78 -2l-120 -444h-1133l18 79h85q103 0 129 129l213 954q7 36 6.5 60.5t-21.5 37t-68 12.5h-78l17 80h1069z" />
    <glyph glyph-name="Ecircumflex" unicode="&#xca;" horiz-adv-x="1315" 
d="M936 1701l-310 -231h-61l285 322h206l148 -322h-56zM1271 1002l-76 -1l10 172q-7 63 -33.5 78.5t-92.5 15.5h-440l-116 -517h271q45 0 82 21t47 67l22 95h78l-101 -460h-79l24 111q10 52 -10.5 66.5t-72.5 14.5h-280l-102 -455q-9 -41 -9.5 -68.5t19 -42t64.5 -14.5h349
q88 0 132.5 29t78.5 93l99 239l78 -2l-120 -444h-1133l18 79h85q103 0 129 129l213 954q7 36 6.5 60.5t-21.5 37t-68 12.5h-78l17 80h1069z" />
    <glyph glyph-name="Edieresis" unicode="&#xcb;" horiz-adv-x="1315" 
d="M668 1501q-43 0 -73.5 31.5t-30.5 73.5q0 43 30.5 73.5t73.5 30.5q44 0 74.5 -30.5t30.5 -73.5q0 -45 -31 -75t-74 -30zM1051 1501q-43 0 -73.5 31.5t-30.5 73.5q0 43 30.5 73.5t73.5 30.5t74 -30.5t31 -73.5q0 -44 -31 -74.5t-74 -30.5zM1271 1002l-76 -1l10 172
q-7 63 -33.5 78.5t-92.5 15.5h-440l-116 -517h271q45 0 82 21t47 67l22 95h78l-101 -460h-79l24 111q10 52 -10.5 66.5t-72.5 14.5h-280l-102 -455q-9 -41 -9.5 -68.5t19 -42t64.5 -14.5h349q88 0 132.5 29t78.5 93l99 239l78 -2l-120 -444h-1133l18 79h85q103 0 129 129
l213 954q7 36 6.5 60.5t-21.5 37t-68 12.5h-78l17 80h1069z" />
    <glyph glyph-name="Igrave" unicode="&#xcc;" horiz-adv-x="745" 
d="M543 1438l-412 317v4h270l208 -321h-66zM-37 0l17 79h90q64 0 97.5 31.5t47.5 97.5l213 956q13 62 -2 86t-84 24h-94l16 80h623l-17 -80h-88q-67 0 -99.5 -30t-46.5 -98l-214 -956q-14 -65 1.5 -88t85.5 -23h94l-17 -79h-623z" />
    <glyph glyph-name="Iacute" unicode="&#xcd;" horiz-adv-x="745" 
d="M543 1438l207 321h271v-4l-412 -317h-66zM-37 0l17 79h90q64 0 97.5 31.5t47.5 97.5l213 956q13 62 -2 86t-84 24h-94l16 80h623l-17 -80h-88q-67 0 -99.5 -30t-46.5 -98l-214 -956q-14 -65 1.5 -88t85.5 -23h94l-17 -79h-623z" />
    <glyph glyph-name="Icircumflex" unicode="&#xce;" horiz-adv-x="745" 
d="M281 1470l285 322h206l148 -322h-56l-212 231l-310 -231h-61zM-37 0l17 79h90q64 0 97.5 31.5t47.5 97.5l213 956q13 62 -2 86t-84 24h-94l16 80h623l-17 -80h-88q-67 0 -99.5 -30t-46.5 -98l-214 -956q-14 -65 1.5 -88t85.5 -23h94l-17 -79h-623z" />
    <glyph glyph-name="Idieresis" unicode="&#xcf;" horiz-adv-x="745" 
d="M384 1501q-43 0 -73.5 31.5t-30.5 73.5q0 43 30.5 73.5t73.5 30.5q44 0 74.5 -30.5t30.5 -73.5q0 -45 -31 -75t-74 -30zM767 1501q-43 0 -73.5 31.5t-30.5 73.5q0 43 30.5 73.5t73.5 30.5t74 -30.5t31 -73.5q0 -44 -31 -74.5t-74 -30.5zM-37 0l17 79h90q64 0 97.5 31.5
t47.5 97.5l213 956q13 62 -2 86t-84 24h-94l16 80h623l-17 -80h-88q-67 0 -99.5 -30t-46.5 -98l-214 -956q-14 -65 1.5 -88t85.5 -23h94l-17 -79h-623z" />
    <glyph glyph-name="Eth" unicode="&#xd0;" horiz-adv-x="1488" 
d="M820 1352q138 0 249.5 -24.5t199.5 -77t138 -134t65 -196t-20 -263.5q-33 -148 -100 -263t-153.5 -188.5t-198.5 -120.5t-227 -66t-246 -19h-564l17 79h97q88 0 116 129l95 425h-158l18 85h159l100 446q15 52 2.5 81t-62.5 29h-99l16 78h556zM1220 694q32 158 19.5 269
t-68.5 181t-134 102t-178 32h-216l-125 -560h366l-18 -85h-367l-95 -422q-7 -38 -9 -66t20.5 -44t76.5 -16h177q130 0 244 82t191.5 218.5t115.5 308.5z" />
    <glyph glyph-name="Ntilde" unicode="&#xd1;" horiz-adv-x="1490" 
d="M848 1564q-47 0 -80.5 -39.5t-46.5 -93.5l-55 18q23 122 83 189.5t148 67.5q9 0 18 -1t16.5 -2.5t16 -5.5t14 -5.5t14.5 -7.5t12.5 -8t13 -9t11.5 -9t12 -10t11 -9q27 -26 51.5 -39.5t59.5 -13.5q48 0 85 38t56 108l55 -18q-20 -117 -82 -194.5t-151 -77.5q-17 0 -33 3.5
t-26 7t-25.5 14t-20 13.5t-21.5 17.5t-19 15.5q-55 51 -117 51zM1201 1352h452l-18 -80h-70q-53 0 -90.5 -47t-51.5 -114l-252 -1134h-90l-594 1151l-202 -900q-7 -30 -8.5 -52t3.5 -46.5t26.5 -37.5t58.5 -13h76l-17 -79h-461l17 79h72q39 0 69 20t46.5 52.5t24 53
t11.5 41.5l200 893q27 133 -86 133h-74l17 80h372l527 -1035l184 813q30 142 -78 142h-81z" />
    <glyph glyph-name="Ograve" unicode="&#xd2;" horiz-adv-x="1469" 
d="M903 1438l-412 317v4h270l208 -321h-66zM638 -25q-149 0 -261 54.5t-173 151t-80 229t18 288.5q23 104 70.5 202t119.5 184.5t161 151.5t202 103t236 38q109 0 198 -28.5t149 -79t100.5 -118t58 -148.5t15.5 -169t-22 -179q-30 -135 -98.5 -256t-168 -216.5t-236 -151.5
t-289.5 -56zM639 66q198 0 342 161.5t211 465.5q65 297 -8 445t-258 148q-101 0 -190.5 -46.5t-157.5 -130.5t-118.5 -195.5t-80.5 -245.5q-26 -115 -27.5 -217.5t23 -191.5t92 -141t172.5 -52z" />
    <glyph glyph-name="Oacute" unicode="&#xd3;" horiz-adv-x="1469" 
d="M903 1438l207 321h271v-4l-412 -317h-66zM638 -25q-149 0 -261 54.5t-173 151t-80 229t18 288.5q23 104 70.5 202t119.5 184.5t161 151.5t202 103t236 38q109 0 198 -28.5t149 -79t100.5 -118t58 -148.5t15.5 -169t-22 -179q-30 -135 -98.5 -256t-168 -216.5t-236 -151.5
t-289.5 -56zM639 66q198 0 342 161.5t211 465.5q65 297 -8 445t-258 148q-101 0 -190.5 -46.5t-157.5 -130.5t-118.5 -195.5t-80.5 -245.5q-26 -115 -27.5 -217.5t23 -191.5t92 -141t172.5 -52z" />
    <glyph glyph-name="Ocircumflex" unicode="&#xd4;" horiz-adv-x="1469" 
d="M641 1470l285 322h206l148 -322h-56l-212 231l-310 -231h-61zM638 -25q-149 0 -261 54.5t-173 151t-80 229t18 288.5q23 104 70.5 202t119.5 184.5t161 151.5t202 103t236 38q109 0 198 -28.5t149 -79t100.5 -118t58 -148.5t15.5 -169t-22 -179q-30 -135 -98.5 -256
t-168 -216.5t-236 -151.5t-289.5 -56zM639 66q198 0 342 161.5t211 465.5q65 297 -8 445t-258 148q-101 0 -190.5 -46.5t-157.5 -130.5t-118.5 -195.5t-80.5 -245.5q-26 -115 -27.5 -217.5t23 -191.5t92 -141t172.5 -52z" />
    <glyph glyph-name="Otilde" unicode="&#xd5;" horiz-adv-x="1469" 
d="M701 1431l-55 18q23 122 83 189.5t148 67.5q9 0 18 -1t16.5 -2.5t16 -5.5t14 -5.5t14.5 -7.5t12.5 -8t13 -9t11.5 -9t12 -10t11 -9q27 -26 51.5 -39.5t59.5 -13.5q48 0 85 38t56 108l55 -18q-20 -117 -82 -194.5t-151 -77.5q-17 0 -33 3.5t-26 7t-25.5 14t-20 13.5
t-21.5 17.5t-19 15.5q-55 51 -117 51q-47 0 -80.5 -39.5t-46.5 -93.5zM638 -25q-149 0 -261 54.5t-173 151t-80 229t18 288.5q23 104 70.5 202t119.5 184.5t161 151.5t202 103t236 38q109 0 198 -28.5t149 -79t100.5 -118t58 -148.5t15.5 -169t-22 -179q-30 -135 -98.5 -256
t-168 -216.5t-236 -151.5t-289.5 -56zM639 66q198 0 342 161.5t211 465.5q65 297 -8 445t-258 148q-101 0 -190.5 -46.5t-157.5 -130.5t-118.5 -195.5t-80.5 -245.5q-26 -115 -27.5 -217.5t23 -191.5t92 -141t172.5 -52z" />
    <glyph glyph-name="Odieresis" unicode="&#xd6;" horiz-adv-x="1469" 
d="M744 1501q-43 0 -73.5 31.5t-30.5 73.5q0 43 30.5 73.5t73.5 30.5q44 0 74.5 -30.5t30.5 -73.5q0 -45 -31 -75t-74 -30zM1127 1501q-43 0 -73.5 31.5t-30.5 73.5q0 43 30.5 73.5t73.5 30.5t74 -30.5t31 -73.5q0 -44 -31 -74.5t-74 -30.5zM638 -25q-149 0 -261 54.5
t-173 151t-80 229t18 288.5q23 104 70.5 202t119.5 184.5t161 151.5t202 103t236 38q109 0 198 -28.5t149 -79t100.5 -118t58 -148.5t15.5 -169t-22 -179q-30 -135 -98.5 -256t-168 -216.5t-236 -151.5t-289.5 -56zM639 66q198 0 342 161.5t211 465.5q65 297 -8 445
t-258 148q-101 0 -190.5 -46.5t-157.5 -130.5t-118.5 -195.5t-80.5 -245.5q-26 -115 -27.5 -217.5t23 -191.5t92 -141t172.5 -52z" />
    <glyph glyph-name="multiply" unicode="&#xd7;" horiz-adv-x="1147" 
d="M274 218l-94 96l345 344l-345 346l94 94l346 -345l344 345l95 -94l-344 -346l344 -344l-95 -96l-344 345z" />
    <glyph glyph-name="Oslash" unicode="&#xd8;" horiz-adv-x="1469" 
d="M1325 1226q92 -101 118 -256.5t-13 -314.5q-30 -135 -98.5 -256t-168 -216.5t-236 -151.5t-289.5 -56q-198 0 -329 95l-78 -89l-63 52l80 91q-90 98 -117.5 246t11.5 328q23 104 70.5 202t119.5 184.5t161 151.5t202 103t236 38q206 0 334 -98l81 92l59 -54zM379 668
q-54 -241 -7 -403l795 903q-74 118 -241 118q-101 0 -190.5 -46.5t-157.5 -130.5t-118.5 -195.5t-80.5 -245.5zM1192 693q54 247 11 394l-794 -904q73 -117 230 -117q198 0 342 161.5t211 465.5z" />
    <glyph glyph-name="Ugrave" unicode="&#xd9;" horiz-adv-x="1445" 
d="M885 1438l-412 317v4h270l208 -321h-66zM629 -25q-257 0 -362 140.5t-46 405.5l143 641q7 35 7.5 59.5t-21 37.5t-69.5 13h-74l18 80h606l-18 -80h-98q-64 0 -97 -31.5t-47 -96.5l-144 -641q-47 -215 12.5 -323.5t248.5 -108.5q108 0 192.5 34.5t142 100t94.5 147.5
t61 188l135 597q29 134 -87 134h-70l17 80h437l-18 -80h-57q-53 0 -90.5 -43.5t-50.5 -105.5l-135 -602q-60 -273 -214 -409.5t-416 -136.5z" />
    <glyph glyph-name="Uacute" unicode="&#xda;" horiz-adv-x="1445" 
d="M885 1438l207 321h271v-4l-412 -317h-66zM629 -25q-257 0 -362 140.5t-46 405.5l143 641q7 35 7.5 59.5t-21 37.5t-69.5 13h-74l18 80h606l-18 -80h-98q-64 0 -97 -31.5t-47 -96.5l-144 -641q-47 -215 12.5 -323.5t248.5 -108.5q108 0 192.5 34.5t142 100t94.5 147.5
t61 188l135 597q29 134 -87 134h-70l17 80h437l-18 -80h-57q-53 0 -90.5 -43.5t-50.5 -105.5l-135 -602q-60 -273 -214 -409.5t-416 -136.5z" />
    <glyph glyph-name="Ucircumflex" unicode="&#xdb;" horiz-adv-x="1445" 
d="M623 1470l285 322h206l148 -322h-56l-212 231l-310 -231h-61zM629 -25q-257 0 -362 140.5t-46 405.5l143 641q7 35 7.5 59.5t-21 37.5t-69.5 13h-74l18 80h606l-18 -80h-98q-64 0 -97 -31.5t-47 -96.5l-144 -641q-47 -215 12.5 -323.5t248.5 -108.5q108 0 192.5 34.5
t142 100t94.5 147.5t61 188l135 597q29 134 -87 134h-70l17 80h437l-18 -80h-57q-53 0 -90.5 -43.5t-50.5 -105.5l-135 -602q-60 -273 -214 -409.5t-416 -136.5z" />
    <glyph glyph-name="Udieresis" unicode="&#xdc;" horiz-adv-x="1445" 
d="M726 1501q-43 0 -73.5 31.5t-30.5 73.5q0 43 30.5 73.5t73.5 30.5q44 0 74.5 -30.5t30.5 -73.5q0 -45 -31 -75t-74 -30zM1109 1501q-43 0 -73.5 31.5t-30.5 73.5q0 43 30.5 73.5t73.5 30.5t74 -30.5t31 -73.5q0 -44 -31 -74.5t-74 -30.5zM629 -25q-257 0 -362 140.5
t-46 405.5l143 641q7 35 7.5 59.5t-21 37.5t-69.5 13h-74l18 80h606l-18 -80h-98q-64 0 -97 -31.5t-47 -96.5l-144 -641q-47 -215 12.5 -323.5t248.5 -108.5q108 0 192.5 34.5t142 100t94.5 147.5t61 188l135 597q29 134 -87 134h-70l17 80h437l-18 -80h-57
q-53 0 -90.5 -43.5t-50.5 -105.5l-135 -602q-60 -273 -214 -409.5t-416 -136.5z" />
    <glyph glyph-name="Yacute" unicode="&#xdd;" horiz-adv-x="1310" 
d="M819 1438l207 321h271v-4l-412 -317h-66zM239 0l17 79h108q64 0 94.5 31.5t45.5 95.5l67 297l-219 660q-21 60 -41.5 84.5t-61.5 24.5h-66l17 80h556l-17 -80h-82q-53 0 -70.5 -41t2.5 -88l182 -531l401 515q33 44 46 75t0 50.5t-58 19.5h-72l18 80h396l-18 -80h-31
q-60 0 -161 -127l-506 -630l-74 -325q-17 -55 -1.5 -83t83.5 -28h113l-17 -79h-651z" />
    <glyph glyph-name="Thorn" unicode="&#xde;" horiz-adv-x="1187" 
d="M-78 0l18 79h66q68 0 99 32.5t44 96.5l203 956q13 62 -2 86t-84 24h-71l16 80h574l-16 -80h-64q-57 0 -93 -23.5t-44 -64.5l-12 -55h189q111 0 195.5 -20t146.5 -63t85 -118.5t1 -179.5q-25 -122 -104 -202.5t-191 -115.5t-259 -35h-215l-44 -207q-6 -33 -7 -57.5t22 -39
t73 -14.5h78l-18 -79h-586zM421 482h191q124 0 215.5 71t125.5 229q57 273 -211 273h-199z" />
    <glyph glyph-name="germandbls" unicode="&#xdf;" horiz-adv-x="1217" 
d="M737 -20q-44 0 -76.5 10.5t-50.5 26.5t-28.5 38.5t-13 42.5t-0.5 42q3 51 34 51t28 -50q-11 -87 84 -87q147 0 216 317q32 153 -32.5 231t-246.5 76l11 81q45 1 81 7t77.5 24.5t72 48.5t58 83t42.5 124q26 123 -15.5 192.5t-162.5 69.5q-139 0 -214.5 -91.5
t-111.5 -261.5l-165 -792q-11 -40 -2.5 -62t46.5 -22h77l-17 -79h-487l17 79h62q52 0 77 29.5t36 83.5l145 692q12 60 26 109t37 103t51.5 95t69.5 80t91.5 64t118.5 40t149 15q219 0 305.5 -101.5t50.5 -270.5q-14 -66 -50 -120.5t-83 -89t-91 -55t-88 -32.5
q158 -14 229 -108t35 -265q-36 -169 -144 -268.5t-248 -99.5z" />
    <glyph glyph-name="agrave" unicode="&#xe0;" horiz-adv-x="1116" 
d="M655 1030l-412 318v4h270l208 -322h-66zM354 -24q-85 0 -149 36.5t-98.5 99.5t-44.5 148.5t13 183.5q22 100 67.5 180.5t98.5 129t114 81.5t111.5 45.5t93.5 12.5q65 0 137 -32t116 -96l24 100h195l-154 -693q-12 -40 -3.5 -64.5t51.5 -24.5h69l-18 -83h-309l16 106
q-84 -62 -161.5 -96t-168.5 -34zM431 79q60 0 133.5 38.5t129.5 109.5l106 456q-56 107 -188 107q-121 0 -211 -106.5t-124 -261.5q-34 -151 7 -247t147 -96z" />
    <glyph glyph-name="aacute" unicode="&#xe1;" horiz-adv-x="1116" 
d="M655 1030h-66l208 322h270v-4zM354 -24q-85 0 -149 36.5t-98.5 99.5t-44.5 148.5t13 183.5q22 100 67.5 180.5t98.5 129t114 81.5t111.5 45.5t93.5 12.5q65 0 137 -32t116 -96l24 100h195l-154 -693q-12 -40 -3.5 -64.5t51.5 -24.5h69l-18 -83h-309l16 106
q-84 -62 -161.5 -96t-168.5 -34zM431 79q60 0 133.5 38.5t129.5 109.5l106 456q-56 107 -188 107q-121 0 -211 -106.5t-124 -261.5q-34 -151 7 -247t147 -96z" />
    <glyph glyph-name="acircumflex" unicode="&#xe2;" horiz-adv-x="1116" 
d="M369 1030l297 322h185l159 -322h-58l-211 230l-310 -230h-62zM354 -24q-85 0 -149 36.5t-98.5 99.5t-44.5 148.5t13 183.5q22 100 67.5 180.5t98.5 129t114 81.5t111.5 45.5t93.5 12.5q65 0 137 -32t116 -96l24 100h195l-154 -693q-12 -40 -3.5 -64.5t51.5 -24.5h69
l-18 -83h-309l16 106q-84 -62 -161.5 -96t-168.5 -34zM431 79q60 0 133.5 38.5t129.5 109.5l106 456q-56 107 -188 107q-121 0 -211 -106.5t-124 -261.5q-34 -151 7 -247t147 -96z" />
    <glyph glyph-name="atilde" unicode="&#xe3;" horiz-adv-x="1116" 
d="M432 1008l-55 18q25 123 84.5 190t145.5 67q16 0 31.5 -3.5t25.5 -6.5t26.5 -13.5t20.5 -13t22.5 -16.5t19.5 -15q26 -26 49 -39t56 -13q49 0 86 38t54 108l56 -17q-21 -118 -82.5 -195.5t-149.5 -77.5q-12 0 -24 2t-20.5 4t-19.5 8t-16 8t-16.5 11.5t-13.5 10.5t-14 13
l-13 11q-21 18 -35 27.5t-38 18t-51 8.5q-47 0 -82 -40t-47 -93zM354 -24q-85 0 -149 36.5t-98.5 99.5t-44.5 148.5t13 183.5q22 100 67.5 180.5t98.5 129t114 81.5t111.5 45.5t93.5 12.5q65 0 137 -32t116 -96l24 100h195l-154 -693q-12 -40 -3.5 -64.5t51.5 -24.5h69
l-18 -83h-309l16 106q-84 -62 -161.5 -96t-168.5 -34zM431 79q60 0 133.5 38.5t129.5 109.5l106 456q-56 107 -188 107q-121 0 -211 -106.5t-124 -261.5q-34 -151 7 -247t147 -96z" />
    <glyph glyph-name="adieresis" unicode="&#xe4;" horiz-adv-x="1116" 
d="M461 1122q-44 0 -74.5 31t-30.5 73q0 44 31 74.5t74 30.5q44 0 74 -30.5t30 -74.5t-30.5 -74t-73.5 -30zM844 1122q-44 0 -74.5 31t-30.5 73q0 44 30.5 74.5t74.5 30.5q43 0 73.5 -31t30.5 -74q0 -44 -30.5 -74t-73.5 -30zM354 -24q-85 0 -149 36.5t-98.5 99.5
t-44.5 148.5t13 183.5q22 100 67.5 180.5t98.5 129t114 81.5t111.5 45.5t93.5 12.5q65 0 137 -32t116 -96l24 100h195l-154 -693q-12 -40 -3.5 -64.5t51.5 -24.5h69l-18 -83h-309l16 106q-84 -62 -161.5 -96t-168.5 -34zM431 79q60 0 133.5 38.5t129.5 109.5l106 456
q-56 107 -188 107q-121 0 -211 -106.5t-124 -261.5q-34 -151 7 -247t147 -96z" />
    <glyph glyph-name="aring" unicode="&#xe5;" horiz-adv-x="1116" 
d="M655 971q-78 0 -133 54.5t-55 133.5t55 133.5t133 54.5t133 -55t55 -133t-55 -133t-133 -55zM655 1032q53 0 90 37t37 90t-37 90t-90 37t-89 -37t-36 -90t36 -90t89 -37zM354 -24q-85 0 -149 36.5t-98.5 99.5t-44.5 148.5t13 183.5q22 100 67.5 180.5t98.5 129t114 81.5
t111.5 45.5t93.5 12.5q65 0 137 -32t116 -96l24 100h195l-154 -693q-12 -40 -3.5 -64.5t51.5 -24.5h69l-18 -83h-309l16 106q-84 -62 -161.5 -96t-168.5 -34zM431 79q60 0 133.5 38.5t129.5 109.5l106 456q-56 107 -188 107q-121 0 -211 -106.5t-124 -261.5q-34 -151 7 -247
t147 -96z" />
    <glyph glyph-name="ae" unicode="&#xe6;" horiz-adv-x="1501" 
d="M1441 438h-609q-14 -68 -14 -130t16 -120t62 -92.5t119 -34.5q78 0 153.5 49.5t132.5 132.5l60 -54q-72 -101 -178 -159t-224 -58t-202 58.5t-118 162.5q-149 -124 -238 -168.5t-193 -44.5q-59 0 -99 18t-56.5 47.5t-21.5 67.5t6 77q18 89 92.5 149t215.5 124l306 147
q23 124 -3 163t-121 39q-52 0 -92.5 -14t-67 -39.5t-42.5 -50t-30 -57.5q-27 -61 -91 -57q-40 1 -55 28.5t-5 66.5q28 83 137 143.5t292 60.5q210 0 262 -102q133 102 291 102q72 0 136 -27t114 -83t67.5 -141.5t-2.5 -203.5zM1124 811q-52 0 -99 -27.5t-81 -72.5t-58 -95
t-38 -102l426 17q8 50 2.5 100t-19.5 90t-48.5 65t-84.5 25zM302 81q57 0 130 46.5t148 130.5l54 259l-265 -148q-124 -66 -146 -178q-11 -53 9.5 -81.5t69.5 -28.5z" />
    <glyph glyph-name="ccedilla" unicode="&#xe7;" horiz-adv-x="924" 
d="M618 893q53 0 103 -13t92 -38t65.5 -68t20.5 -98q-4 -34 -25.5 -55.5t-56.5 -22.5q-23 -1 -38.5 10t-21.5 31t-8 35t-3 36q-25 103 -140 103q-66 0 -124.5 -35.5t-98.5 -92t-67.5 -118t-41.5 -123.5q-41 -185 6 -282t169 -97q54 0 104.5 19t89 51t66.5 65t49 70l64 -51
q-36 -55 -74 -96.5t-88.5 -77t-115 -54.5t-139.5 -19h-16l-21 -97q111 -1 180 -39t69 -119q0 -82 -81 -143t-233 -61q-104 0 -200 24l16 80q73 -17 159 -17q110 0 166.5 32t56.5 78q0 25 -20 40.5t-57.5 21.5t-67 8t-72.5 2h-20l38 202q-144 34 -208.5 157t-25.5 300
q45 200 201 326t349 126z" />
    <glyph glyph-name="egrave" unicode="&#xe8;" horiz-adv-x="919" 
d="M569 1030l-412 318v4h270l208 -322h-66zM396 -28q-184 0 -276 135t-46 346q44 198 187.5 319t317.5 121q126 0 214 -65t88 -168q0 -256 -606 -263q-67 -336 177 -336q78 0 155 50t135 132l60 -54q-74 -101 -181 -159t-225 -58zM288 472q432 17 432 196q0 65 -39 104
t-105 39q-99 0 -178 -97t-110 -242z" />
    <glyph glyph-name="eacute" unicode="&#xe9;" horiz-adv-x="919" 
d="M569 1030h-66l208 322h270v-4zM396 -28q-184 0 -276 135t-46 346q44 198 187.5 319t317.5 121q126 0 214 -65t88 -168q0 -256 -606 -263q-67 -336 177 -336q78 0 155 50t135 132l60 -54q-74 -101 -181 -159t-225 -58zM288 472q432 17 432 196q0 65 -39 104t-105 39
q-99 0 -178 -97t-110 -242z" />
    <glyph glyph-name="ecircumflex" unicode="&#xea;" horiz-adv-x="919" 
d="M283 1030l297 322h185l159 -322h-58l-211 230l-310 -230h-62zM396 -28q-184 0 -276 135t-46 346q44 198 187.5 319t317.5 121q126 0 214 -65t88 -168q0 -256 -606 -263q-67 -336 177 -336q78 0 155 50t135 132l60 -54q-74 -101 -181 -159t-225 -58zM288 472
q432 17 432 196q0 65 -39 104t-105 39q-99 0 -178 -97t-110 -242z" />
    <glyph glyph-name="edieresis" unicode="&#xeb;" horiz-adv-x="919" 
d="M375 1122q-44 0 -74.5 31t-30.5 73q0 44 31 74.5t74 30.5q44 0 74 -30.5t30 -74.5t-30.5 -74t-73.5 -30zM758 1122q-44 0 -74.5 31t-30.5 73q0 44 30.5 74.5t74.5 30.5q43 0 73.5 -31t30.5 -74q0 -44 -30.5 -74t-73.5 -30zM396 -28q-184 0 -276 135t-46 346
q44 198 187.5 319t317.5 121q126 0 214 -65t88 -168q0 -256 -606 -263q-67 -336 177 -336q78 0 155 50t135 132l60 -54q-74 -101 -181 -159t-225 -58zM288 472q432 17 432 196q0 65 -39 104t-105 39q-99 0 -178 -97t-110 -242z" />
    <glyph glyph-name="igrave" unicode="&#xec;" horiz-adv-x="566" 
d="M377 1030l-412 318v4h270l208 -322h-66zM92 0l150 669q14 56 1 77t-67 15l-79 -16l13 78l378 74l-167 -746q-9 -40 7 -56t58 -16h67l-17 -79h-344z" />
    <glyph glyph-name="iacute" unicode="&#xed;" horiz-adv-x="566" 
d="M377 1030h-66l208 322h270v-4zM92 0l150 669q14 56 1 77t-67 15l-79 -16l13 78l378 74l-167 -746q-9 -40 7 -56t58 -16h67l-17 -79h-344z" />
    <glyph glyph-name="icircumflex" unicode="&#xee;" horiz-adv-x="566" 
d="M91 1030l297 322h185l159 -322h-58l-211 230l-310 -230h-62zM92 0l150 669q14 56 1 77t-67 15l-79 -16l13 78l378 74l-167 -746q-9 -40 7 -56t58 -16h67l-17 -79h-344z" />
    <glyph glyph-name="idieresis" unicode="&#xef;" horiz-adv-x="566" 
d="M183 1122q-44 0 -74.5 31t-30.5 73q0 44 31 74.5t74 30.5q44 0 74 -30.5t30 -74.5t-30.5 -74t-73.5 -30zM566 1122q-44 0 -74.5 31t-30.5 73q0 44 30.5 74.5t74.5 30.5q43 0 73.5 -31t30.5 -74q0 -44 -30.5 -74t-73.5 -30zM92 0l150 669q14 56 1 77t-67 15l-79 -16l13 78
l378 74l-167 -746q-9 -40 7 -56t58 -16h67l-17 -79h-344z" />
    <glyph glyph-name="eth" unicode="&#xf0;" horiz-adv-x="1022" 
d="M1107 1180l-170 -49q93 -208 12 -587q-31 -147 -91 -259t-136 -178t-159.5 -99t-171.5 -33q-82 0 -151 31t-116 90.5t-63.5 146.5t7.5 199q19 88 57 159.5t86 117.5t106 77t115 44t114 13q95 0 151 -41.5t75 -112.5q51 257 19 389l-297 -86l-6 78l276 81
q-72 133 -274 128l-1 84q288 0 409 -173l203 59zM727 445q11 70 9 129.5t-15.5 103.5t-49 69t-91.5 25q-239 0 -324 -396q-32 -150 1.5 -234.5t138.5 -84.5q223 0 331 388z" />
    <glyph glyph-name="ntilde" unicode="&#xf1;" horiz-adv-x="1140" 
d="M428 1008l-55 18q25 123 84.5 190t145.5 67q16 0 31.5 -3.5t25.5 -6.5t26.5 -13.5t20.5 -13t22.5 -16.5t19.5 -15q26 -26 49 -39t56 -13q49 0 86 38t54 108l56 -17q-21 -118 -82.5 -195.5t-149.5 -77.5q-12 0 -24 2t-20.5 4t-19.5 8t-16 8t-16.5 11.5t-13.5 10.5t-14 13
l-13 11q-21 18 -35 27.5t-38 18t-51 8.5q-47 0 -82 -40t-47 -93zM89 0l147 659q7 31 7.5 52.5t-15 32t-50.5 6.5l-76 -17l12 79l368 78l-52 -226q82 101 178.5 165t186.5 64q133 0 188 -83.5t19 -243.5l-88 -391q-11 -50 2 -73t57 -23h68l-17 -79h-341l127 580
q25 91 5 144.5t-100 53.5q-78 0 -164.5 -82t-151.5 -189l-114 -507h-196z" />
    <glyph glyph-name="ograve" unicode="&#xf2;" horiz-adv-x="1013" 
d="M603 1030l-412 318v4h270l208 -322h-66zM411 -28q-23 0 -48.5 3t-56.5 11.5t-60 21t-58 33t-53 46.5t-42 62.5t-27.5 80t-7.5 100.5t16 122q21 93 64.5 169.5t98 126t119 83t125.5 48t120 14.5q55 0 109.5 -15.5t108 -50t86.5 -89.5t46.5 -134.5t-11.5 -185.5
q-22 -100 -68.5 -180t-102 -128.5t-121.5 -80.5t-124 -44.5t-113 -12.5zM416 53q102 0 193.5 108.5t132.5 288.5q22 105 17 185.5t-46.5 128t-114.5 47.5q-113 0 -200 -110.5t-126 -279.5q-38 -172 4.5 -270t139.5 -98z" />
    <glyph glyph-name="oacute" unicode="&#xf3;" horiz-adv-x="1013" 
d="M603 1030h-66l208 322h270v-4zM411 -28q-23 0 -48.5 3t-56.5 11.5t-60 21t-58 33t-53 46.5t-42 62.5t-27.5 80t-7.5 100.5t16 122q21 93 64.5 169.5t98 126t119 83t125.5 48t120 14.5q55 0 109.5 -15.5t108 -50t86.5 -89.5t46.5 -134.5t-11.5 -185.5q-22 -100 -68.5 -180
t-102 -128.5t-121.5 -80.5t-124 -44.5t-113 -12.5zM416 53q102 0 193.5 108.5t132.5 288.5q22 105 17 185.5t-46.5 128t-114.5 47.5q-113 0 -200 -110.5t-126 -279.5q-38 -172 4.5 -270t139.5 -98z" />
    <glyph glyph-name="ocircumflex" unicode="&#xf4;" horiz-adv-x="1013" 
d="M317 1030l297 322h185l159 -322h-58l-211 230l-310 -230h-62zM411 -28q-23 0 -48.5 3t-56.5 11.5t-60 21t-58 33t-53 46.5t-42 62.5t-27.5 80t-7.5 100.5t16 122q21 93 64.5 169.5t98 126t119 83t125.5 48t120 14.5q55 0 109.5 -15.5t108 -50t86.5 -89.5t46.5 -134.5
t-11.5 -185.5q-22 -100 -68.5 -180t-102 -128.5t-121.5 -80.5t-124 -44.5t-113 -12.5zM416 53q102 0 193.5 108.5t132.5 288.5q22 105 17 185.5t-46.5 128t-114.5 47.5q-113 0 -200 -110.5t-126 -279.5q-38 -172 4.5 -270t139.5 -98z" />
    <glyph glyph-name="otilde" unicode="&#xf5;" horiz-adv-x="1013" 
d="M380 1008l-55 18q25 123 84.5 190t145.5 67q16 0 31.5 -3.5t25.5 -6.5t26.5 -13.5t20.5 -13t22.5 -16.5t19.5 -15q26 -26 49 -39t56 -13q49 0 86 38t54 108l56 -17q-21 -118 -82.5 -195.5t-149.5 -77.5q-12 0 -24 2t-20.5 4t-19.5 8t-16 8t-16.5 11.5t-13.5 10.5t-14 13
l-13 11q-21 18 -35 27.5t-38 18t-51 8.5q-47 0 -82 -40t-47 -93zM411 -28q-23 0 -48.5 3t-56.5 11.5t-60 21t-58 33t-53 46.5t-42 62.5t-27.5 80t-7.5 100.5t16 122q21 93 64.5 169.5t98 126t119 83t125.5 48t120 14.5q55 0 109.5 -15.5t108 -50t86.5 -89.5t46.5 -134.5
t-11.5 -185.5q-22 -100 -68.5 -180t-102 -128.5t-121.5 -80.5t-124 -44.5t-113 -12.5zM416 53q102 0 193.5 108.5t132.5 288.5q22 105 17 185.5t-46.5 128t-114.5 47.5q-113 0 -200 -110.5t-126 -279.5q-38 -172 4.5 -270t139.5 -98z" />
    <glyph glyph-name="odieresis" unicode="&#xf6;" horiz-adv-x="1013" 
d="M409 1122q-44 0 -74.5 31t-30.5 73q0 44 31 74.5t74 30.5q44 0 74 -30.5t30 -74.5t-30.5 -74t-73.5 -30zM792 1122q-44 0 -74.5 31t-30.5 73q0 44 30.5 74.5t74.5 30.5q43 0 73.5 -31t30.5 -74q0 -44 -30.5 -74t-73.5 -30zM411 -28q-23 0 -48.5 3t-56.5 11.5t-60 21
t-58 33t-53 46.5t-42 62.5t-27.5 80t-7.5 100.5t16 122q21 93 64.5 169.5t98 126t119 83t125.5 48t120 14.5q55 0 109.5 -15.5t108 -50t86.5 -89.5t46.5 -134.5t-11.5 -185.5q-22 -100 -68.5 -180t-102 -128.5t-121.5 -80.5t-124 -44.5t-113 -12.5zM416 53
q102 0 193.5 108.5t132.5 288.5q22 105 17 185.5t-46.5 128t-114.5 47.5q-113 0 -200 -110.5t-126 -279.5q-38 -172 4.5 -270t139.5 -98z" />
    <glyph glyph-name="divide" unicode="&#xf7;" horiz-adv-x="1281" 
d="M689 991q-44 0 -74.5 30.5t-30.5 74.5q0 42 30.5 73t74.5 31q42 0 73.5 -31t31.5 -73q0 -44 -31 -74.5t-74 -30.5zM134 609v134h1110v-134h-1110zM689 151q-44 0 -74.5 30.5t-30.5 74.5q0 43 30.5 74t74.5 31q42 0 73.5 -31t31.5 -74q0 -44 -31 -74.5t-74 -30.5z" />
    <glyph glyph-name="oslash" unicode="&#xf8;" horiz-adv-x="1013" 
d="M868 785q125 -130 72 -367q-22 -100 -68.5 -180t-102 -128.5t-121.5 -80.5t-124 -44.5t-113 -12.5q-111 0 -204 55l-83 -95l-60 52l81 92q-125 129 -71 376q21 93 64.5 169.5t98 126t119 83t125.5 48t120 14.5q115 0 206 -58l83 95l59 -52zM272 421q-28 -124 -12 -213
l467 536q-41 67 -129 67q-113 0 -200 -110.5t-126 -279.5zM742 450q27 120 15 207l-466 -534q43 -70 125 -70q102 0 193.5 108.5t132.5 288.5z" />
    <glyph glyph-name="ugrave" unicode="&#xf9;" horiz-adv-x="1141" 
d="M665 1030l-412 318v4h270l208 -322h-66zM345 -28q-136 0 -188.5 84.5t-17.5 241.5l87 391q11 52 -2 74t-56 22h-68l16 80h342l-128 -581q-13 -61 -13 -105t26.5 -68.5t81.5 -24.5q78 0 163.5 81.5t152.5 189.5l76 332q22 96 -42 96h-76l16 80h336l-153 -689
q-14 -47 -2.5 -71t61.5 -19l77 17l-14 -79l-363 -49l52 225q-81 -100 -177.5 -164t-186.5 -64z" />
    <glyph glyph-name="uacute" unicode="&#xfa;" horiz-adv-x="1141" 
d="M665 1030h-66l208 322h270v-4zM345 -28q-136 0 -188.5 84.5t-17.5 241.5l87 391q11 52 -2 74t-56 22h-68l16 80h342l-128 -581q-13 -61 -13 -105t26.5 -68.5t81.5 -24.5q78 0 163.5 81.5t152.5 189.5l76 332q22 96 -42 96h-76l16 80h336l-153 -689q-14 -47 -2.5 -71
t61.5 -19l77 17l-14 -79l-363 -49l52 225q-81 -100 -177.5 -164t-186.5 -64z" />
    <glyph glyph-name="ucircumflex" unicode="&#xfb;" horiz-adv-x="1141" 
d="M379 1030l297 322h185l159 -322h-58l-211 230l-310 -230h-62zM345 -28q-136 0 -188.5 84.5t-17.5 241.5l87 391q11 52 -2 74t-56 22h-68l16 80h342l-128 -581q-13 -61 -13 -105t26.5 -68.5t81.5 -24.5q78 0 163.5 81.5t152.5 189.5l76 332q22 96 -42 96h-76l16 80h336
l-153 -689q-14 -47 -2.5 -71t61.5 -19l77 17l-14 -79l-363 -49l52 225q-81 -100 -177.5 -164t-186.5 -64z" />
    <glyph glyph-name="udieresis" unicode="&#xfc;" horiz-adv-x="1141" 
d="M471 1122q-44 0 -74.5 31t-30.5 73q0 44 31 74.5t74 30.5q44 0 74 -30.5t30 -74.5t-30.5 -74t-73.5 -30zM854 1122q-44 0 -74.5 31t-30.5 73q0 44 30.5 74.5t74.5 30.5q43 0 73.5 -31t30.5 -74q0 -44 -30.5 -74t-73.5 -30zM345 -28q-136 0 -188.5 84.5t-17.5 241.5
l87 391q11 52 -2 74t-56 22h-68l16 80h342l-128 -581q-13 -61 -13 -105t26.5 -68.5t81.5 -24.5q78 0 163.5 81.5t152.5 189.5l76 332q22 96 -42 96h-76l16 80h336l-153 -689q-14 -47 -2.5 -71t61.5 -19l77 17l-14 -79l-363 -49l52 225q-81 -100 -177.5 -164t-186.5 -64z" />
    <glyph glyph-name="yacute" unicode="&#xfd;" horiz-adv-x="941" 
d="M568 1030h-66l208 322h270v-4zM-14 -497q-39 -1 -60.5 20.5t-21.5 57.5q0 43 25.5 62t72.5 30q87 19 160.5 70t147.5 158l82 121l-197 677q-14 45 -30.5 65.5t-45.5 20.5h-59l17 80h276l175 -644l277 440q19 31 28.5 52t12.5 38t-6.5 25.5t-31.5 8.5h-113l16 80h323
l-674 -1038q-108 -166 -189 -239.5t-185 -84.5z" />
    <glyph glyph-name="thorn" unicode="&#xfe;" horiz-adv-x="1121" 
d="M-210 -511l17 80h75q49 0 74.5 29.5t37.5 83.5l313 1474q11 54 -3 74.5t-74 16.5l-69 -15l11 77l376 73l-134 -624q154 135 330 135q80 0 147 -34t110 -96.5t59 -149.5t-7 -193q-42 -196 -189.5 -322t-312.5 -126t-268 132l-96 -439q-7 -31 -7 -52.5t19 -32.5t62 -11h88
l-17 -80h-542zM496 75q70 0 133 36.5t107 94t73.5 119.5t42.5 122q16 65 10 126.5t-25.5 109.5t-63.5 77.5t-104 29.5q-70 0 -144 -43.5t-131 -109.5l-97 -449q32 -56 86.5 -84.5t112.5 -28.5z" />
    <glyph glyph-name="ydieresis" unicode="&#xff;" horiz-adv-x="941" 
d="M374 1122q-44 0 -74.5 31t-30.5 73q0 44 30.5 74.5t74.5 30.5t74 -30.5t30 -74.5t-30.5 -74t-73.5 -30zM757 1122q-44 0 -74.5 31t-30.5 73q0 44 30.5 74.5t74.5 30.5q43 0 73.5 -31t30.5 -74q0 -44 -30.5 -74t-73.5 -30zM-14 -497q-39 -1 -60.5 20.5t-21.5 57.5
q0 43 25.5 62t72.5 30q87 19 160.5 70t147.5 158l82 121l-197 677q-14 45 -30.5 65.5t-45.5 20.5h-59l17 80h276l175 -644l277 440q19 31 28.5 52t12.5 38t-6.5 25.5t-31.5 8.5h-113l16 80h323l-674 -1038q-108 -166 -189 -239.5t-185 -84.5z" />
    <glyph glyph-name="dotlessi" unicode="&#x131;" horiz-adv-x="566" 
d="M92 0l150 669q14 56 1 77t-67 15l-79 -16l13 78l378 74l-167 -746q-9 -40 7 -56t58 -16h67l-17 -79h-344z" />
    <glyph glyph-name="Lslash" unicode="&#x141;" horiz-adv-x="1247" 
d="M1121 450l74 -2l-119 -448h-1114l17 79h96q59 0 92 29.5t48 99.5l51 227l-183 -132l25 124l186 134l134 601q17 56 1 83t-83 27h-101l17 80h628l-17 -80h-93q-63 0 -96.5 -29.5t-47.5 -98.5l-90 -401l421 304l-24 -123l-426 -307l-92 -411q-8 -40 -9.5 -67t20.5 -40.5
t74 -13.5h275q188 0 274 185z" />
    <glyph glyph-name="lslash" unicode="&#x142;" horiz-adv-x="527" 
d="M411 725l-122 -550q-12 -41 -3.5 -68.5t43.5 -27.5h83l-18 -79h-338l124 557l-226 -163l23 113l228 165l109 489q14 51 1.5 74.5t-63.5 17.5l-76 -17l13 79l370 73l-122 -549l222 161l-22 -112z" />
    <glyph glyph-name="OE" unicode="&#x152;" horiz-adv-x="2103" 
d="M732 0q-168 0 -293 41.5t-205.5 127t-104.5 215.5t10 307q34 165 110 290t188 204.5t252.5 120.5t309.5 45l1105 1l-52 -350l-75 -1l6 172q-8 63 -35.5 78.5t-92.5 15.5l-387 -5q-58 -19 -79 -116l-79 -396h271q46 0 82 21.5t46 66.5l18 95h79l-93 -460h-78l21 111
q11 52 -11 66.5t-74 14.5h-278l-92 -456q-8 -39 -8.5 -66.5t19 -42.5t64.5 -15h349q89 0 133.5 29t75.5 93l93 239l77 -2l-111 -444h-1161zM689 85h200q75 0 102 132l191 945q13 58 4.5 84t-43.5 26h-181q-69 0 -138 -21t-139.5 -68.5t-129.5 -117t-108 -175t-75 -233.5
q-19 -97 -19.5 -182.5t20 -157t61 -123t105.5 -80.5t150 -29z" />
    <glyph glyph-name="oe" unicode="&#x153;" horiz-adv-x="1632" 
d="M1572 438h-610q-11 -53 -13.5 -103t5.5 -101t29 -88.5t62.5 -61t99.5 -23.5q78 0 154 49.5t133 132.5l60 -54q-73 -101 -179 -159t-223 -58q-99 0 -174.5 41.5t-118.5 117.5q-80 -82 -182 -120.5t-196 -38.5q-31 0 -64.5 5.5t-75 19.5t-76.5 37.5t-68.5 60t-50.5 87
t-23.5 117.5t13.5 153q19 93 61.5 169.5t96 126t117 83t124.5 48t120 14.5q88 0 173.5 -39.5t135.5 -119.5q72 76 164.5 117.5t190.5 41.5q72 0 136 -27t114 -83t67.5 -141.5t-2.5 -203.5zM424 53q103 0 192.5 108.5t125.5 289.5q33 161 -5 260.5t-147 99.5
q-113 0 -198.5 -110.5t-119.5 -278.5q-33 -172 10.5 -270.5t141.5 -98.5zM1255 811q-69 0 -128.5 -48.5t-94 -112.5t-54.5 -136l426 17q8 50 3 100t-19.5 90t-48.5 65t-84 25z" />
    <glyph glyph-name="Scaron" unicode="&#x160;" horiz-adv-x="1107" 
d="M693 1456l-160 322h58l211 -230l310 230h61l-296 -322h-184zM519 -25q-116 0 -206.5 57.5t-128.5 165.5l-60 -176h-82l103 465l80 -9q-16 -113 6.5 -204t93 -149.5t182.5 -58.5q98 0 186.5 71.5t115.5 190.5q20 91 -28.5 148t-163.5 108q-167 82 -226 125
q-111 82 -122 195q-6 57 10 128q21 99 89.5 179t160.5 123.5t187 43.5q87 0 161 -48t110 -130l57 154h80l-88 -398l-76 9q15 154 -55 240.5t-180 86.5q-107 0 -180.5 -67t-93.5 -156q-6 -24 -6 -45.5t2 -38.5t13.5 -34.5t19.5 -29t30 -27t35.5 -24.5t45.5 -25.5t49.5 -24.5
t58.5 -27q9 -4 13 -6q38 -17 66.5 -32t61 -34.5t55.5 -39.5t46 -45t36 -54t21.5 -63t7 -74.5t-11.5 -86.5q-20 -94 -73 -169.5t-121.5 -121t-141 -69t-139.5 -23.5z" />
    <glyph glyph-name="scaron" unicode="&#x161;" horiz-adv-x="959" 
d="M703 1030h-184l-160 322h57l211 -230l311 230h60zM795 801l55 92h59l-54 -261l-55 1q-15 90 -91 138.5t-188 48.5q-94 0 -159 -35t-74 -96q-6 -48 26.5 -76.5t68.5 -37t119 -20.5q13 -2 19 -3q58 -9 98 -18t87.5 -29.5t75 -47.5t44 -72t10.5 -104q-13 -144 -126 -226.5
t-285 -82.5q-100 0 -172 26.5t-108 67.5l-62 -94h-63l58 275l67 -1q27 -93 111 -147.5t192 -54.5q95 0 161 42t76 118q4 25 -2 46t-14.5 35t-30.5 26.5t-37 19t-49 14t-50.5 10t-56.5 8.5t-66.5 11t-62.5 15t-59 21.5t-47.5 30t-37.5 41.5t-20 55.5t-3 71.5q10 134 117 209
t269 75q173 0 260 -92z" />
    <glyph glyph-name="Wcircumflex" unicode="&#x174;" horiz-adv-x="1863" 
d="M1202 1701l-310 -231h-61l285 322h206l148 -322h-56zM1644 1352h408l-19 -80h-38q-47 0 -86.5 -48.5t-88.5 -149.5l-530 -1099h-128l-92 1111l-552 -1111h-131l-66 1173q-6 74 -21 99t-65 25h-50l17 80h546l-46 -80h-111q-10 0 -26 -17t-29 -51.5t-10 -72.5l52 -883
l547 1113h122l91 -1109l395 836q14 30 22 49t16 43t8 38.5t-4.5 28t-19.5 19.5t-39 6h-89z" />
    <glyph glyph-name="wcircumflex" unicode="&#x175;" horiz-adv-x="1455" 
d="M939 1260l-310 -230h-62l297 322h185l159 -322h-58zM1220 865h317l-519 -884h-129l-109 692l-380 -692h-110l-91 714q-9 55 -23.5 72.5t-49.5 17.5h-62l16 80h284l84 -652l368 662h124l112 -698l275 489q38 66 35 92.5t-55 26.5h-104z" />
    <glyph glyph-name="Ycircumflex" unicode="&#x176;" horiz-adv-x="1310" 
d="M557 1470l285 322h206l148 -322h-56l-212 231l-310 -231h-61zM239 0l17 79h108q64 0 94.5 31.5t45.5 95.5l67 297l-219 660q-21 60 -41.5 84.5t-61.5 24.5h-66l17 80h556l-17 -80h-82q-53 0 -70.5 -41t2.5 -88l182 -531l401 515q33 44 46 75t0 50.5t-58 19.5h-72l18 80
h396l-18 -80h-31q-60 0 -161 -127l-506 -630l-74 -325q-17 -55 -1.5 -83t83.5 -28h113l-17 -79h-651z" />
    <glyph glyph-name="ycircumflex" unicode="&#x177;" horiz-adv-x="941" 
d="M282 1030l297 322h185l159 -322h-58l-211 230l-310 -230h-62zM-14 -497q-39 -1 -60.5 20.5t-21.5 57.5q0 43 25.5 62t72.5 30q87 19 160.5 70t147.5 158l82 121l-197 677q-14 45 -30.5 65.5t-45.5 20.5h-59l17 80h276l175 -644l277 440q19 31 28.5 52t12.5 38t-6.5 25.5
t-31.5 8.5h-113l16 80h323l-674 -1038q-108 -166 -189 -239.5t-185 -84.5z" />
    <glyph glyph-name="Ydieresis" unicode="&#x178;" horiz-adv-x="1310" 
d="M660 1501q-43 0 -73.5 31.5t-30.5 73.5q0 43 30.5 73.5t73.5 30.5q44 0 74.5 -30.5t30.5 -73.5q0 -45 -31 -75t-74 -30zM1043 1501q-43 0 -73.5 31.5t-30.5 73.5q0 43 30.5 73.5t73.5 30.5t74 -30.5t31 -73.5q0 -44 -31 -74.5t-74 -30.5zM239 0l17 79h108q64 0 94.5 31.5
t45.5 95.5l67 297l-219 660q-21 60 -41.5 84.5t-61.5 24.5h-66l17 80h556l-17 -80h-82q-53 0 -70.5 -41t2.5 -88l182 -531l401 515q33 44 46 75t0 50.5t-58 19.5h-72l18 80h396l-18 -80h-31q-60 0 -161 -127l-506 -630l-74 -325q-17 -55 -1.5 -83t83.5 -28h113l-17 -79h-651
z" />
    <glyph glyph-name="Zcaron" unicode="&#x17d;" horiz-adv-x="1304" 
d="M964 1456h-184l-160 322h58l211 -230l310 230h61zM1382 1360l-19 -90l-1115 -1185h561q40 0 67.5 4t61.5 17.5t65.5 45t61.5 80.5l74 192l78 -2l-123 -422h-1112l19 92l1106 1183h-487q-45 0 -77.5 -4.5t-69.5 -17t-66.5 -41t-51.5 -72.5l-54 -141l-77 1l108 360h1050z
" />
    <glyph glyph-name="zcaron" unicode="&#x17e;" horiz-adv-x="948" 
d="M700 1030h-184l-160 322h57l211 -230l311 230h60zM136 598l85 267h726l-19 -90l-693 -696h336q70 0 134 102l48 106l76 -2l-88 -285h-763l18 86l692 699h-322q-30 0 -53.5 -19.5t-57.5 -76.5l-42 -94z" />
    <glyph glyph-name="florin" unicode="&#x192;" horiz-adv-x="1093" 
d="M17 -454q-68 0 -100 38t-24 95q5 28 25.5 47t48.5 18q22 -1 38.5 -26t8.5 -62q-7 -36 -3 -46.5t35 -10.5q19 0 35.5 6.5t30 23t23.5 31.5t21.5 44.5t18.5 49t20 58t20 59.5q13 41 34 94t62 150.5t65 156.5l210 510h-177l33 85h72q76 0 121 44t98 153q35 70 68.5 121
t75.5 96.5t91 69t104 23.5q58 0 96 -33.5t32 -93.5q-2 -32 -22.5 -53.5t-49.5 -21.5q-55 0 -50 87q0 11 7 32t3 29.5t-27 8.5q-40 0 -81.5 -35.5t-67.5 -101.5q-10 -17 -21.5 -47.5t-19 -54.5t-20 -65.5t-17.5 -57.5q-14 -52 -38 -109l215 9l-33 -85h-215l-208 -512
q-167 -402 -280 -565q-42 -66 -109 -112.5t-149 -46.5z" />
    <glyph glyph-name="oslashacute" unicode="&#x1ff;" horiz-adv-x="1013" 
d="M745 1352h270v-4l-412 -318h-66zM949 878l-81 -93q125 -130 72 -367q-22 -100 -68.5 -180t-102 -128.5t-121.5 -80.5t-124 -44.5t-113 -12.5q-111 0 -204 55l-83 -95l-60 52l81 92q-125 129 -71 376q21 93 64.5 169.5t98 126t119 83t125.5 48t120 14.5q115 0 206 -58
l83 95zM272 421q-28 -124 -12 -213l467 536q-41 67 -129 67q-113 0 -200 -110.5t-126 -279.5zM742 450q27 120 15 207l-466 -534q43 -70 125 -70q102 0 193.5 108.5t132.5 288.5z" />
    <glyph glyph-name="uni0237" unicode="&#x237;" horiz-adv-x="544" 
d="M-190 -524q-111 0 -172.5 56t-50.5 156q4 29 28 47t54 19q31 1 49 -21.5t17 -62.5q5 -111 112 -111q84 0 139 78t83 209l174 822q12 55 -2 77t-77 15l-80 -17l12 79l394 75l-209 -979q-49 -231 -156.5 -336.5t-314.5 -105.5z" />
    <glyph glyph-name="circumflex" unicode="&#x2c6;" horiz-adv-x="716" 
d="M164 1030l297 322h185l159 -322h-58l-211 230l-310 -230h-62z" />
    <glyph glyph-name="caron" unicode="&#x2c7;" horiz-adv-x="718" 
d="M395 1030l-160 322h57l211 -230l311 230h60l-295 -322h-184z" />
    <glyph glyph-name="breve" unicode="&#x2d8;" horiz-adv-x="752" 
d="M533 995q-126 0 -204.5 83t-95.5 194h59q55 -160 244 -160q49 0 89 13t63.5 29.5t42.5 42t26 40.5t14 35h55q-3 -45 -21.5 -91t-52 -89t-90.5 -70t-129 -27z" />
    <glyph glyph-name="dotaccent" unicode="&#x2d9;" horiz-adv-x="591" 
d="M535 1080q-44 0 -74.5 31t-30.5 73q0 44 31 74.5t74 30.5q44 0 75 -30.5t31 -74.5t-31.5 -74t-74.5 -30z" />
    <glyph glyph-name="ring" unicode="&#x2da;" horiz-adv-x="577" 
d="M447 981q-82 0 -139.5 57.5t-57.5 139.5q0 81 57.5 137.5t139.5 56.5q81 0 138.5 -56.5t57.5 -137.5q0 -82 -57.5 -139.5t-138.5 -57.5zM447 1059q49 0 83.5 35t34.5 84t-34.5 83.5t-83.5 34.5t-83 -34.5t-34 -83.5q0 -50 34 -84.5t83 -34.5z" />
    <glyph glyph-name="ogonek" unicode="&#x2db;" horiz-adv-x="514" 
d="M129 -369q-109 0 -173.5 64.5t-64.5 151.5q0 91 83 174l29 -21q-35 -52 -35 -106q0 -80 61.5 -138.5t148.5 -58.5q68 0 136 40l22 -30q-103 -76 -207 -76z" />
    <glyph glyph-name="tilde" unicode="&#x2dc;" horiz-adv-x="825" 
d="M281 1008l-55 18q25 123 84.5 190t145.5 67q16 0 31.5 -3.5t25.5 -6.5t26.5 -13.5t20.5 -13t22.5 -16.5t19.5 -15q26 -26 49 -39t56 -13q49 0 86 38t54 108l56 -17q-21 -118 -82.5 -195.5t-149.5 -77.5q-12 0 -24 2t-20.5 4t-19.5 8t-16 8t-16.5 11.5t-13.5 10.5t-15 13
l-12 11q-21 18 -35 27.5t-38 18t-51 8.5q-47 0 -82 -40t-47 -93z" />
    <glyph glyph-name="hungarumlaut" unicode="&#x2dd;" horiz-adv-x="986" 
d="M272 1030l208 322h270v-4l-412 -318h-66zM685 1030l207 322h270v-4l-412 -318h-65z" />
    <glyph glyph-name="gravecomb" unicode="&#x300;" 
d="M32 1030l-412 318v4h270l208 -322h-66z" />
    <glyph glyph-name="acutecomb" unicode="&#x301;" 
d="M-617 1030h-66l208 322h270v-4z" />
    <glyph glyph-name="uni0302" unicode="&#x302;" 
d="M-552 1030l297 322h185l159 -322h-58l-211 230l-310 -230h-62z" />
    <glyph glyph-name="tildecomb" unicode="&#x303;" 
d="M-544 1008l-55 18q25 123 84.5 190t145.5 67q16 0 31.5 -3.5t25.5 -6.5t26.5 -13.5t20.5 -13t22.5 -16.5t19.5 -15q26 -26 49 -39t56 -13q49 0 86 38t54 108l56 -17q-21 -118 -82.5 -195.5t-149.5 -77.5q-12 0 -24 2t-20.5 4t-19.5 8t-16 8t-16.5 11.5t-13.5 10.5t-14 13
l-13 11q-21 18 -35 27.5t-38 18t-51 8.5q-47 0 -82 -40t-47 -93z" />
    <glyph glyph-name="uni0304" unicode="&#x304;" 
d="M-655 1093l31 144h653l-30 -144h-654z" />
    <glyph glyph-name="uni0306" unicode="&#x306;" 
d="M-219 995q-126 0 -204.5 83t-95.5 194h59q55 -160 244 -160q49 0 89 13t63.5 29.5t42.5 42t26 40.5t14 35h55q-3 -45 -21.5 -91t-52 -89t-90.5 -70t-129 -27z" />
    <glyph glyph-name="uni0307" unicode="&#x307;" 
d="M-56 1080q-44 0 -74.5 31t-30.5 73q0 44 30.5 74.5t74.5 30.5t75 -30.5t31 -74.5t-31.5 -74t-74.5 -30z" />
    <glyph glyph-name="uni0308" unicode="&#x308;" 
d="M-429 1122q-44 0 -74.5 31t-30.5 73q0 44 31 74.5t74 30.5q44 0 74 -30.5t30 -74.5t-30.5 -74t-73.5 -30zM-46 1122q-44 0 -74.5 31t-30.5 73q0 44 30.5 74.5t74.5 30.5q43 0 73.5 -31t30.5 -74q0 -44 -30.5 -74t-73.5 -30z" />
    <glyph glyph-name="uni030A" unicode="&#x30a;" 
d="M-128 971q-78 0 -133 54.5t-55 133.5t55 133.5t133 54.5t133 -55t55 -133t-55 -133t-133 -55zM-128 1032q53 0 90 37t37 90t-37 90t-90 37t-89 -37t-36 -90t36 -90t89 -37z" />
    <glyph glyph-name="uni030B" unicode="&#x30b;" 
d="M-714 1030l208 322h270v-4l-412 -318h-66zM-301 1030l207 322h270v-4l-412 -318h-65z" />
    <glyph glyph-name="uni030C" unicode="&#x30c;" 
d="M-323 1030l-160 322h57l211 -230l311 230h60l-295 -322h-184z" />
    <glyph glyph-name="uni0327" unicode="&#x327;" 
d="M-522 -487q-104 0 -200 24l16 80q73 -17 159 -17q110 0 166.5 32t56.5 78q0 25 -20 40.5t-57.5 21.5t-67 8t-72.5 2h-20l46 246l89 -7l-31 -146q111 -1 180 -39t69 -119q0 -82 -81 -143t-233 -61z" />
    <glyph glyph-name="uni0328" unicode="&#x328;" 
d="M-385 -369q-109 0 -173.5 64.5t-64.5 151.5q0 91 83 174l29 -21q-35 -52 -35 -106q0 -80 61.5 -138.5t148.5 -58.5q68 0 136 40l22 -30q-103 -76 -207 -76z" />
    <glyph glyph-name="uni0337" unicode="&#x337;" 
d="M-597 405l23 113l682 493l-22 -112z" />
    <glyph glyph-name="uni0338" unicode="&#x338;" 
d="M-707 -52l-60 52l826 946l59 -52z" />
    <glyph glyph-name="uni0394" unicode="&#x394;" horiz-adv-x="873" 
d="M556 1438h188l-26 -1438h-749zM83 79h463l24 1183z" />
    <glyph glyph-name="uni03A9" unicode="&#x3a9;" horiz-adv-x="1289" 
d="M33 0l68 326h55l-21 -95q-10 -50 5 -76.5t68 -26.5h239l33 144q-145 78 -210.5 224.5t-17.5 372.5q54 254 212.5 404.5t385.5 150.5q93 0 167 -29.5t120.5 -82.5t74 -126.5t27.5 -162t-19 -187.5q-40 -194 -163.5 -343t-302.5 -220l-33 -145h230q51 0 83 34.5t43 83.5
l17 80h54l-70 -326h-461l68 336q129 70 216.5 214t124.5 318q105 488 -178 488q-147 0 -252.5 -137.5t-158.5 -383.5q-41 -180 -9.5 -317.5t134.5 -196.5l-66 -321h-463z" />
    <glyph glyph-name="Wgrave" unicode="&#x1e80;" horiz-adv-x="1863" 
d="M1159 1438h-66l-412 317v4h270zM1644 1352h408l-19 -80h-38q-47 0 -86.5 -48.5t-88.5 -149.5l-530 -1099h-128l-92 1111l-552 -1111h-131l-66 1173q-6 74 -21 99t-65 25h-50l17 80h546l-46 -80h-111q-10 0 -26 -17t-29 -51.5t-10 -72.5l52 -883l547 1113h122l91 -1109
l395 836q14 30 22 49t16 43t8 38.5t-4.5 28t-19.5 19.5t-39 6h-89z" />
    <glyph glyph-name="wgrave" unicode="&#x1e81;" horiz-adv-x="1455" 
d="M919 1030h-66l-412 318v4h270zM1220 865h317l-519 -884h-129l-109 692l-380 -692h-110l-91 714q-9 55 -23.5 72.5t-49.5 17.5h-62l16 80h284l84 -652l368 662h124l112 -698l275 489q38 66 35 92.5t-55 26.5h-104z" />
    <glyph glyph-name="Wacute" unicode="&#x1e82;" horiz-adv-x="1863" 
d="M1571 1755l-412 -317h-66l207 321h271v-4zM1644 1352h408l-19 -80h-38q-47 0 -86.5 -48.5t-88.5 -149.5l-530 -1099h-128l-92 1111l-552 -1111h-131l-66 1173q-6 74 -21 99t-65 25h-50l17 80h546l-46 -80h-111q-10 0 -26 -17t-29 -51.5t-10 -72.5l52 -883l547 1113h122
l91 -1109l395 836q14 30 22 49t16 43t8 38.5t-4.5 28t-19.5 19.5t-39 6h-89z" />
    <glyph glyph-name="wacute" unicode="&#x1e83;" horiz-adv-x="1455" 
d="M1265 1348l-412 -318h-66l208 322h270v-4zM1220 865h317l-519 -884h-129l-109 692l-380 -692h-110l-91 714q-9 55 -23.5 72.5t-49.5 17.5h-62l16 80h284l84 -652l368 662h124l112 -698l275 489q38 66 35 92.5t-55 26.5h-104z" />
    <glyph glyph-name="Wdieresis" unicode="&#x1e84;" horiz-adv-x="1863" 
d="M934 1501q-43 0 -73.5 31.5t-30.5 73.5q0 43 30.5 73.5t73.5 30.5q44 0 74.5 -30.5t30.5 -73.5q0 -45 -31 -75t-74 -30zM1317 1501q-43 0 -73.5 31.5t-30.5 73.5q0 43 30.5 73.5t73.5 30.5t74 -30.5t31 -73.5q0 -44 -31 -74.5t-74 -30.5zM1644 1352h408l-19 -80h-38
q-47 0 -86.5 -48.5t-88.5 -149.5l-530 -1099h-128l-92 1111l-552 -1111h-131l-66 1173q-6 74 -21 99t-65 25h-50l17 80h546l-46 -80h-111q-10 0 -26 -17t-29 -51.5t-10 -72.5l52 -883l547 1113h122l91 -1109l395 836q14 30 22 49t16 43t8 38.5t-4.5 28t-19.5 19.5t-39 6h-89
z" />
    <glyph glyph-name="wdieresis" unicode="&#x1e85;" horiz-adv-x="1455" 
d="M659 1122q-44 0 -74.5 31t-30.5 73q0 44 31 74.5t74 30.5q44 0 74 -30.5t30 -74.5t-30.5 -74t-73.5 -30zM1042 1122q-44 0 -74.5 31t-30.5 73q0 44 30.5 74.5t74.5 30.5q43 0 73.5 -31t30.5 -74q0 -44 -30.5 -74t-73.5 -30zM1220 865h317l-519 -884h-129l-109 692
l-380 -692h-110l-91 714q-9 55 -23.5 72.5t-49.5 17.5h-62l16 80h284l84 -652l368 662h124l112 -698l275 489q38 66 35 92.5t-55 26.5h-104z" />
    <glyph glyph-name="Ygrave" unicode="&#x1ef2;" horiz-adv-x="1310" 
d="M819 1438l-412 317v4h270l208 -321h-66zM239 0l17 79h108q64 0 94.5 31.5t45.5 95.5l67 297l-219 660q-21 60 -41.5 84.5t-61.5 24.5h-66l17 80h556l-17 -80h-82q-53 0 -70.5 -41t2.5 -88l182 -531l401 515q33 44 46 75t0 50.5t-58 19.5h-72l18 80h396l-18 -80h-31
q-60 0 -161 -127l-506 -630l-74 -325q-17 -55 -1.5 -83t83.5 -28h113l-17 -79h-651z" />
    <glyph glyph-name="ygrave" unicode="&#x1ef3;" horiz-adv-x="941" 
d="M568 1030l-412 318v4h270l208 -322h-66zM-14 -497q-39 -1 -60.5 20.5t-21.5 57.5q0 43 25.5 62t72.5 30q87 19 160.5 70t147.5 158l82 121l-197 677q-14 45 -30.5 65.5t-45.5 20.5h-59l17 80h276l175 -644l277 440q19 31 28.5 52t12.5 38t-6.5 25.5t-31.5 8.5h-113l16 80
h323l-674 -1038q-108 -166 -189 -239.5t-185 -84.5z" />
    <glyph glyph-name="endash" unicode="&#x2013;" horiz-adv-x="1328" 
d="M122 347l25 120h1048l-25 -120h-1048z" />
    <glyph glyph-name="emdash" unicode="&#x2014;" horiz-adv-x="2328" 
d="M122 347l25 120h2048l-25 -120h-2048z" />
    <glyph glyph-name="quoteleft" unicode="&#x2018;" horiz-adv-x="561" 
d="M367 782q-84 0 -118.5 66.5t-10.5 174.5q21 102 86 181t143 121t161 55l-2 -83q-112 -21 -187 -92.5t-90 -139.5q-3 -14 3 -19.5t19 -3.5q11 0 30 4.5t29 4.5q47 0 78.5 -41.5t18.5 -105.5q-10 -48 -53.5 -85t-106.5 -37z" />
    <glyph glyph-name="quoteright" unicode="&#x2019;" horiz-adv-x="561" 
d="M208 782l3 83q111 21 186 92.5t90 139.5q3 15 -3 20.5t-20 2.5q-10 0 -29 -4.5t-29 -4.5q-47 0 -78.5 41.5t-18.5 105.5q12 49 54.5 85.5t106.5 36.5q82 0 117 -66.5t12 -174.5q-22 -102 -87 -181t-143 -121t-161 -55z" />
    <glyph glyph-name="quotesinglbase" unicode="&#x201a;" horiz-adv-x="563" 
d="M-34 -364l2 83q113 21 187.5 92t89.5 140q4 14 -2.5 19.5t-19.5 3.5q-12 -1 -32 -5t-26 -4q-48 0 -79 41.5t-18 105.5q10 48 53.5 85t106.5 37q84 0 118 -66.5t11 -174.5q-16 -77 -57.5 -142t-96.5 -108t-115.5 -70t-121.5 -37z" />
    <glyph glyph-name="quotedblleft" unicode="&#x201c;" horiz-adv-x="1010" 
d="M365 782q-83 0 -117 66.5t-10 174.5q21 102 85.5 181t141.5 121t159 55l-4 -83q-109 -21 -183 -92.5t-89 -139.5q-3 -14 3 -19.5t19 -3.5q11 0 29.5 4.5t27.5 4.5q47 0 78 -41.5t17 -105.5q-9 -48 -51.5 -85t-105.5 -37zM817 782q-82 0 -116 66.5t-10 174.5q16 77 57 142
t95 108t113.5 70t119.5 37l-2 -83q-110 -21 -184 -92t-89 -140q-3 -14 3 -19.5t19 -3.5q11 0 29 4.5t28 4.5q47 0 78 -41.5t18 -105.5q-10 -48 -53 -85t-106 -37z" />
    <glyph glyph-name="quotedblright" unicode="&#x201d;" horiz-adv-x="1011" 
d="M209 782l3 83q109 21 182.5 92t88.5 140q3 15 -2 20.5t-19 2.5q-10 0 -29.5 -4.5t-28.5 -4.5q-47 0 -77.5 41.5t-17.5 105.5q12 49 54 85.5t105 36.5q81 0 115 -66.5t11 -174.5q-22 -102 -86 -181t-140.5 -121t-158.5 -55zM661 782l4 83q109 21 183 92.5t89 139.5
q3 15 -3 20.5t-19 2.5q-11 0 -29.5 -4.5t-27.5 -4.5q-47 0 -78.5 41.5t-17.5 105.5q11 48 53.5 85t105.5 37q82 0 116 -66.5t11 -174.5q-17 -77 -58 -142t-95.5 -108t-114 -70t-119.5 -37z" />
    <glyph glyph-name="quotedblbase" unicode="&#x201e;" horiz-adv-x="1024" 
d="M-34 -364l2 83q113 21 187.5 92t89.5 140q4 14 -2.5 19.5t-19.5 3.5q-12 -1 -32 -5t-26 -4q-48 0 -79 41.5t-18 105.5q10 48 53.5 85t106.5 37q84 0 118 -66.5t11 -174.5q-16 -77 -57.5 -142t-96.5 -108t-115.5 -70t-121.5 -37zM427 -364l2 83q113 21 187.5 92.5
t88.5 139.5q4 14 -2.5 19.5t-19.5 3.5q-12 -1 -32 -5t-26 -4q-47 0 -78.5 41.5t-18.5 105.5q11 48 54 85t107 37q83 0 117.5 -66.5t11.5 -174.5q-16 -77 -57.5 -142t-96.5 -108t-115.5 -70t-121.5 -37z" />
    <glyph glyph-name="dagger" unicode="&#x2020;" horiz-adv-x="932" 
d="M271 -294l30 148q23 111 49.5 272t46 296.5t21.5 147.5q24 151 82 212q-6 -1 -113.5 -35.5t-155.5 -34.5q-14 0 -30 4.5t-36.5 16.5t-29.5 39.5t0 66.5q19 94 122 94q49 0 134.5 -30.5t123.5 -31.5q0 5 -7.5 74t-6.5 122.5t12 106.5q26 129 132 129q45 0 73 -39t12 -115
q-20 -93 -132 -294q27 9 92 32.5t103 33t77 9.5q59 0 82 -37.5t12 -88.5q-9 -39 -40.5 -66.5t-86.5 -27.5q-48 0 -134.5 28.5t-111.5 29.5q11 -55 5 -101t-28 -134q-9 -35 -44 -152.5t-73.5 -261.5t-69.5 -286l-26 -127h-84z" />
    <glyph glyph-name="daggerdbl" unicode="&#x2021;" horiz-adv-x="993" 
d="M895 930q64 0 87.5 -38t11.5 -88q-10 -41 -41.5 -67.5t-85.5 -26.5q-47 0 -134 28.5t-111 29.5q7 -21 8 -46t-3.5 -56.5t-11 -60t-17.5 -72.5q-50 -179 -80 -374q-10 -59 -15 -83.5t-20 -63.5t-38 -66q13 4 70.5 24.5t106.5 34t84 13.5q61 0 83 -39t10 -90
q-9 -39 -41 -65t-87 -26q-52 0 -137.5 32t-116.5 39l1 -10q1 -11 5 -62t6 -85.5t0 -83.5t-10 -84q-16 -65 -52 -92t-74 -27q-47 0 -76 37.5t-10 127.5q4 20 10.5 40.5t16 44t16.5 40t20.5 43t19 37t20.5 38t17 31.5q-25 -5 -123 -37t-141 -32q-51 0 -78.5 36.5t-14.5 93.5
q9 45 45 69t86 23q48 -1 131 -27t115 -27q-18 92 21 230q51 174 81 377q13 124 76 211q-21 -6 -77.5 -25t-103 -31.5t-79.5 -12.5q-20 0 -39 6.5t-37 21t-24 39t0 60.5q22 94 120 94q54 0 144 -34t118 -41q-1 7 -6 50.5t-6.5 66.5t-3.5 62.5t1.5 73.5t10.5 64q10 43 28 71.5
t38 39.5t32 14t23 3q59 0 85.5 -40t10.5 -114q-16 -77 -124 -288q31 9 91 30t96.5 30t71.5 9z" />
    <glyph glyph-name="bullet" unicode="&#x2022;" horiz-adv-x="803" 
d="M453 414q-107 0 -183.5 76.5t-76.5 183.5q0 109 76.5 183.5t183.5 74.5q106 0 182.5 -74.5t76.5 -183.5q0 -107 -76 -183.5t-183 -76.5z" />
    <glyph glyph-name="twodotenleader" unicode="&#x2025;" horiz-adv-x="1216" 
d="M230 -35q-57 0 -97.5 40.5t-40.5 96.5t40.5 96.5t97.5 40.5q55 0 95 -40.5t40 -96.5t-40 -96.5t-95 -40.5zM844 -35q-57 0 -96.5 40t-39.5 97t39.5 97t96.5 40q56 0 96 -40.5t40 -96.5t-40 -96.5t-96 -40.5z" />
    <glyph glyph-name="ellipsis" unicode="&#x2026;" horiz-adv-x="1832" 
d="M230 -35q-57 0 -97.5 40.5t-40.5 96.5t40.5 96.5t97.5 40.5q55 0 95 -40.5t40 -96.5t-40 -96.5t-95 -40.5zM844 -35q-57 0 -96.5 40t-39.5 97t39.5 97t96.5 40q56 0 96 -40.5t40 -96.5t-40 -96.5t-96 -40.5zM1460 -35q-56 0 -96.5 40.5t-40.5 96.5t40.5 96.5t96.5 40.5
t96 -40.5t40 -96.5t-40 -96.5t-96 -40.5z" />
    <glyph glyph-name="perthousand" unicode="&#x2030;" horiz-adv-x="2433" 
d="M436 671q-58 0 -101.5 18t-68 49t-40 68t-18.5 79.5t-0.5 79.5t9.5 71q35 160 128 250.5t226 90.5q71 0 120.5 -26t73.5 -65t33.5 -91t6.5 -98t-13 -93q-12 -54 -38 -108t-67.5 -106.5t-107 -85.5t-143.5 -33zM385 0l979 1352h105l-983 -1352h-101zM437 728q40 0 74 26.5
t57.5 71.5t39.5 91.5t27 99.5q28 121 23.5 188.5t-25 91t-61.5 23.5q-69 0 -118.5 -77t-83.5 -236q-12 -57 -16.5 -100t-1.5 -87t24.5 -68t60.5 -24zM1253 -25q-58 0 -101.5 18t-68.5 48.5t-40 68t-18.5 79.5t-1 79t9.5 71q34 160 127.5 250.5t225.5 90.5q71 0 120.5 -25.5
t73.5 -64.5t33.5 -91t6.5 -98.5t-13 -93.5q-12 -54 -37.5 -108t-67 -106.5t-106.5 -85t-143 -32.5zM1963 -25q-58 0 -101.5 18t-68 48.5t-40 68t-18.5 79.5t-0.5 79t9.5 71q34 160 127 250.5t226 90.5q71 0 120.5 -25.5t73 -64.5t33 -91t6.5 -98.5t-13 -93.5
q-12 -54 -37.5 -108t-67 -106.5t-106.5 -85t-143 -32.5zM1253 32q40 0 73.5 26.5t57 72t39.5 91.5t28 99q19 90 23.5 151.5t-6.5 93.5t-30 45t-50 13q-69 0 -118 -77t-83 -236q-13 -57 -18 -100.5t-2 -87.5t24.5 -67.5t61.5 -23.5zM1963 32q40 0 73.5 26.5t57.5 71.5
t40 91.5t28 99.5q28 121 23.5 188.5t-25 91t-61.5 23.5q-70 0 -119 -77t-83 -236q-10 -45 -15 -80t-6 -74.5t7 -65t28 -42.5t52 -17z" />
    <glyph glyph-name="guilsinglleft" unicode="&#x2039;" horiz-adv-x="527" 
d="M278 0l-249 440l434 441h86l-337 -441l148 -440h-82z" />
    <glyph glyph-name="guilsinglright" unicode="&#x203a;" horiz-adv-x="526" 
d="M-18 0l336 440l-146 441h80l249 -441l-435 -440h-84z" />
    <glyph glyph-name="Euro" unicode="&#x20ac;" horiz-adv-x="1205" 
d="M568 -25q-94 0 -166 45t-113 123t-57.5 179t-5.5 217l-101 -8l28 79l84 9q2 20 12 70q5 23 16 62l-96 -9l29 80l91 9q55 158 137.5 278.5t194.5 192.5t236 72q92 0 158.5 -46.5t97.5 -134.5l37 145h79l-81 -394l-76 8q17 342 -190 342q-67 0 -129.5 -38.5t-112.5 -106
t-89 -152.5t-67 -184l464 9l-30 -80l-452 -8q-16 -68 -17 -72q-11 -46 -13 -61l434 9l-29 -79l-421 -9q-68 -464 181 -464q75 0 150.5 54.5t131.5 136t87 173.5l66 -29q-41 -115 -96.5 -199t-118 -130t-125 -67.5t-128.5 -21.5z" />
    <glyph glyph-name="uni2113" unicode="&#x2113;" horiz-adv-x="859" 
d="M390 -23q-111 0 -154 91t-13 232l20 98q-16 -16 -82 -69.5t-81 -68.5l-32 69q6 5 96.5 79t117.5 100l95 459q43 201 144.5 336t238.5 135q94 0 125.5 -60.5t4.5 -184.5q-26 -124 -99.5 -253t-173.5 -242q-64 -73 -124 -126l-60 -286q-43 -204 39 -204q91 0 165 230
l63 -33q-52 -158 -121.5 -230t-168.5 -72zM498 709q43 40 95 111q173 203 214 400q18 73 8.5 108.5t-52.5 35.5q-61 0 -112.5 -84.5t-83.5 -238.5z" />
    <glyph glyph-name="trademark" unicode="&#x2122;" horiz-adv-x="2260" 
d="M281 1352h758l5 -222l-49 -1l-7 72q-14 62 -38.5 80t-70.5 18h-152v-633q0 -24 3.5 -37.5t20 -25t48.5 -11.5h55v-48h-389v48h55q44 0 58 19t14 55v633h-155q-20 0 -33.5 -2.5t-31 -11.5t-28.5 -31t-15 -56l-5 -69l-49 1zM2156 592h61v-48h-394v48h55q42 0 56.5 17
t14.5 57v565h-13l-308 -687h-46l-306 687h-8v-537q0 -102 69 -102h47v-48h-280v48h46q23 0 37.5 10.5t20 30.5t6.5 31.5t1 30.5v533q0 19 -2 30.5t-8 23t-20.5 17t-36.5 5.5h-44v48h260l285 -638l289 638h277v-48h-59q-45 0 -58.5 -19t-13.5 -56v-563q0 -36 13.5 -55
t58.5 -19z" />
    <glyph glyph-name="uni2126" unicode="&#x2126;" horiz-adv-x="1457" 
d="M56 0l70 326h60l-21 -95q-10 -50 7 -76.5t77 -26.5h265l34 144q-78 37 -135.5 88.5t-98.5 126t-48 167.5t16 215q53 254 225.5 404.5t425.5 150.5q171 0 280.5 -79t144 -211t-0.5 -298q-40 -194 -174.5 -343t-331.5 -220l-33 -145h255q58 0 93 34.5t45 83.5l17 80h60
l-70 -326h-512l69 336q141 70 235 214.5t130 317.5q103 488 -209 488q-163 0 -277.5 -138t-166.5 -383q-41 -180 -3 -317.5t154 -196.5l-66 -321h-516z" />
    <glyph glyph-name="partialdiff" unicode="&#x2202;" horiz-adv-x="1041" 
d="M309 -20q-146 0 -205 103t-21 285q22 103 76.5 204.5t128.5 183t170 132t193 50.5q45 0 79.5 -13t55 -34t34 -49t18.5 -55t5 -56l3 17q32 86 60 220q16 73 17 141t-12.5 124.5t-49 90t-88.5 33.5q-145 0 -284 -167l-30 52q176 235 383 235q100 0 151.5 -65.5t53 -177.5
t-27.5 -259q-23 -108 -81.5 -259.5t-121.5 -272.5q-145 -247 -263.5 -355t-243.5 -108zM380 65q54 0 114 49t115.5 132t105 181t91.5 208q45 222 -114 222q-87 0 -179 -83t-160.5 -213.5t-98.5 -270.5q-23 -110 12 -167.5t114 -57.5z" />
    <glyph glyph-name="uni2206" unicode="&#x2206;" horiz-adv-x="1007" 
d="M822 1438l4 -1438h-831l617 1438h210zM119 79h513l2 1184z" />
    <glyph glyph-name="product" unicode="&#x220f;" horiz-adv-x="1308" 
d="M-17 -255l12 61h61q34 0 58.5 39.5t34.5 93.5l279 1309q13 50 6.5 83t-39.5 33h-80l14 60h1073l-14 -60h-70q-35 0 -59 -38.5t-36 -94.5l-279 -1309q-25 -116 35 -116h67l-12 -61h-447l12 61h59q35 0 60 39.5t36 93.5l299 1405h-412l-302 -1422q-13 -48 -6.5 -82
t38.5 -34h68l-13 -61h-443z" />
    <glyph glyph-name="summation" unicode="&#x2211;" horiz-adv-x="992" 
d="M320 1425h702l-43 -331l-58 -2l14 157q6 59 -9 77t-52 18h-400l137 -697l-500 -749h481q79 0 110 96l49 164l62 -6l-114 -408h-743l14 78l486 729l-152 795z" />
    <glyph glyph-name="minus" unicode="&#x2212;" horiz-adv-x="1543" 
d="M269 609v134h1110v-134h-1110z" />
    <glyph glyph-name="radical" unicode="&#x221a;" horiz-adv-x="734" 
d="M752 1500h62l-485 -1514h-96l-23 673l-90 -59l-30 53l206 134l15 -651z" />
    <glyph glyph-name="infinity" unicode="&#x221e;" horiz-adv-x="1327" 
d="M954 828q105 0 171.5 -69.5t66.5 -181.5q0 -109 -67 -181.5t-171 -72.5q-81 0 -140 41.5t-110 127.5q-109 -174 -271 -174q-106 0 -173 70t-67 180t67.5 182t174.5 72q148 0 247 -169q106 175 272 175zM953 394q78 0 124 52.5t46 130.5q0 81 -42 130t-121 49
q-25 0 -47.5 -7t-38.5 -15t-34.5 -27.5t-28.5 -31t-26 -39t-21.5 -37.5t-21.5 -41q83 -164 211 -164zM430 388q32 0 62 14t49.5 31t42.5 50t33 51.5t29 54.5q-88 162 -209 162q-76 0 -125 -49t-49 -132t44 -132.5t123 -49.5z" />
    <glyph glyph-name="integral" unicode="&#x222b;" horiz-adv-x="625" 
d="M40 -418q-65 0 -88.5 44t-10.5 93q5 20 19 34.5t33 14.5q21 0 33.5 -16.5t11.5 -33.5q2 -10 5.5 -16.5t13.5 -10.5t25 -3q49 14 69 88q8 30 12 74.5t9.5 125t10.5 139.5q17 193 69 443q63 287 93 402q28 118 43.5 178.5t42.5 138t55 124.5q69 119 164 119q55 0 80 -33.5
t19 -86.5q-8 -49 -49 -49q-19 -1 -29.5 11.5t-12.5 34.5q-21 24 -57 17q-42 -12 -63 -88q-9 -25 -17 -64.5t-12.5 -73.5t-12 -100.5t-13.5 -107.5q-21 -240 -64 -454q-50 -247 -109 -461q-67 -263 -130 -385q-48 -98 -140 -98z" />
    <glyph glyph-name="approxequal" unicode="&#x2248;" horiz-adv-x="1298" 
d="M1199 684l-23 -32l23 -25q-56 -80 -119.5 -124.5t-148.5 -44.5q-109 0 -226 67q-115 65 -212 65q-72 0 -128 -41t-110 -116l-91 99l24 31l-24 25q68 92 142.5 142t182.5 50q125 0 242 -65q119 -66 196 -66q91 0 181 133z" />
    <glyph glyph-name="notequal" unicode="&#x2260;" horiz-adv-x="1378" 
d="M1296 846h-369l-175 -341h544v-134h-613l-208 -404h-181l209 404h-317v134h386l176 341h-562v134h632l193 374h178l-193 -374h300v-134z" />
    <glyph glyph-name="lessequal" unicode="&#x2264;" horiz-adv-x="1321" 
d="M1146 1231v-146l-821 -298l821 -299v-144l-985 372v143zM179 0v134h967v-134h-967z" />
    <glyph glyph-name="greaterequal" unicode="&#x2265;" horiz-adv-x="1335" 
d="M210 1231l986 -372v-143l-986 -372v144l822 299l-822 298v146zM210 0v134h968v-134h-968z" />
    <glyph glyph-name="uni0308.case" 
d="M-349 1501q-43 0 -73.5 31.5t-30.5 73.5q0 43 30.5 73.5t73.5 30.5q44 0 74.5 -30.5t30.5 -73.5q0 -45 -31 -75t-74 -30zM34 1501q-43 0 -73.5 31.5t-30.5 73.5q0 43 30.5 73.5t73.5 30.5t74 -30.5t31 -73.5q0 -44 -31 -74.5t-74 -30.5z" />
    <glyph glyph-name="gravecomb.case" 
d="M119 1438l-412 317v4h270l208 -321h-66z" />
    <glyph glyph-name="acutecomb.case" 
d="M-214 1438l207 321h271v-4l-412 -317h-66z" />
    <glyph glyph-name="uni0302.case" 
d="M-461 1470l285 322h206l148 -322h-56l-212 231l-310 -231h-61z" />
    <glyph glyph-name="uni030C.case" 
d="M-233 1456l-160 322h58l211 -230l310 230h61l-296 -322h-184z" />
    <glyph glyph-name="uni030A.case" 
d="M-26 1441q-78 0 -132.5 54.5t-54.5 132.5t54.5 132t132.5 54q77 0 132 -54.5t55 -131.5t-55 -132t-132 -55zM-26 1502q52 0 89 37t37 89t-37 89t-89 37t-88.5 -36.5t-36.5 -89.5t36.5 -89.5t88.5 -36.5z" />
    <glyph glyph-name="tildecomb.case" 
d="M-454 1431l-55 18q23 122 83 189.5t148 67.5q9 0 18 -1t16.5 -2.5t16 -5.5t14 -5.5t14.5 -7.5t12.5 -8t13 -9t11.5 -9t12 -10t11 -9q27 -26 51.5 -39.5t59.5 -13.5q48 0 85 38t56 108l55 -18q-20 -117 -82 -194.5t-151 -77.5q-17 0 -33 3.5t-26 7t-25.5 14t-20 13.5
t-21.5 17.5t-19 15.5q-55 51 -117 51q-47 0 -80.5 -39.5t-46.5 -93.5z" />
    <glyph glyph-name="uni0335.case" 
d="M-829 642l18 85h736l-18 -85h-736z" />
    <glyph glyph-name="uni0337.case" 
d="M-753 330l25 124l859 620l-24 -123z" />
    <glyph glyph-name="uni0338.case" 
d="M-950 -1l-63 52l1178 1338l59 -54z" />
    </font>
</defs>
</svg>
