<?xml version="1.0" standalone="no"?>
<!DOCTYPE svg PUBLIC "-//W3C//DTD SVG 1.1//EN" "http://www.w3.org/Graphics/SVG/1.1/DTD/svg11.dtd" >
<svg xmlns="http://www.w3.org/2000/svg" xmlns:xlink="http://www.w3.org/1999/xlink" version="1.1">
<metadata>
Created by FontForge 20170731 at Wed Dec 13 18:56:51 2017
 By ,,,
Copyright (c)2017 HK CartaTM by Alfredo Marco Pradil
</metadata>
<defs>
<font id="HKCarta-Regular" horiz-adv-x="0" >
  <font-face 
    font-family="HK Carta"
    font-weight="400"
    font-stretch="normal"
    units-per-em="2048"
    panose-1="0 0 5 0 0 0 0 0 0 0"
    ascent="1393"
    descent="-655"
    x-height="855"
    cap-height="1353"
    bbox="-1200 -546 2301 1812"
    underline-thickness="50"
    underline-position="-200"
    unicode-range="U+0020-FB02"
  />
<missing-glyph horiz-adv-x="1024" 
d="M132 0v1352h759v-1352h-759zM190 59h643v1234h-643v-1234z" />
    <glyph glyph-name="fi" unicode="fi" horiz-adv-x="1176" 
d="M1065 72h75v-72h-1090v72h117q54 0 73 23.5t19 71.5v617h-209v71h209v178q0 169 102.5 258.5t268.5 89.5q153 0 244 -54.5t103 -166.5q1 -35 -21 -59.5t-54 -25.5q-19 0 -32 4t-21.5 16t-11.5 18t-9 26.5t-8 25.5q-32 143 -188 143q-209 0 -209 -252v-201h563v-688
q0 -47 17.5 -71t61.5 -24zM735 72q49 0 67.5 21.5t18.5 73.5v617h-398v-617q0 -48 19 -71.5t73 -23.5h220z" />
    <glyph glyph-name="fl" unicode="fl" horiz-adv-x="1166" 
d="M50 0v72h117q54 0 73 23.5t19 71.5v617h-209v71h209v178q-1 169 102 258.5t269 89.5q135 0 211 -61l144 73v-1226q0 -47 17.5 -71t61.5 -24h75v-72h-1089zM515 72h219q49 0 68 21.5t19 73.5v889q0 125 -42 188.5t-149 63.5q-209 0 -207 -252v-201h266v-71h-266v-617
q0 -48 19 -71.5t73 -23.5z" />
    <glyph glyph-name="f_f" unicode="ff" horiz-adv-x="1295" 
d="M1471 1160q1 -35 -21 -59.5t-54 -25.5q-29 -1 -51.5 20.5t-28.5 56.5q-13 73 -53.5 114.5t-109.5 41.5q-86 0 -129 -66.5t-43 -185.5v-201h266v-71h-266v-617q0 -48 18.5 -71.5t72.5 -23.5h175v-72h-1197v72h117q54 0 73 23.5t19 71.5v617h-209v71h209v178q0 168 101 258
t261 90q86 0 156.5 -32t106.5 -95q97 127 294 127q116 0 199 -56t94 -165zM816 855v178q0 15 2 45q-23 6 -39 26t-21 48q-27 156 -163 156q-85 0 -128.5 -66.5t-43.5 -185.5v-201h393zM816 167v617h-393v-617q0 -48 19 -71.5t73 -23.5h210q54 0 72.5 23.5t18.5 71.5z" />
    <glyph glyph-name="f_f_i" unicode="ffi" horiz-adv-x="1733" 
d="M1622 72h75v-72h-1647v72h117q54 0 73 23.5t19 71.5v617h-209v71h209v178q0 168 101 258t261 90q87 0 157 -32t106 -95q99 127 303 127q154 0 244.5 -54.5t102.5 -166.5q1 -35 -20.5 -59.5t-53.5 -25.5q-16 0 -28.5 4t-19.5 8.5t-13.5 16t-8.5 17.5t-6.5 22.5t-6.5 21.5
q-32 143 -188 143q-208 0 -208 -252v-201h563v-688q0 -47 17 -71t61 -24zM816 855v178q0 15 2 45q-23 6 -39 26t-21 48q-27 156 -163 156q-85 0 -128.5 -66.5t-43.5 -185.5v-201h393zM816 167v617h-393v-617q0 -48 19 -71.5t73 -23.5h210q54 0 72.5 23.5t18.5 71.5zM1292 72
q49 0 67.5 21.5t18.5 73.5v617h-397v-617q0 -48 18.5 -71.5t72.5 -23.5h220z" />
    <glyph glyph-name="f_f_l" unicode="ffl" horiz-adv-x="1723" 
d="M1621 72h75v-72h-1646v72h117q54 0 73 23.5t19 71.5v617h-209v71h209v178q0 168 101 258t261 90q87 0 157 -32t106 -95q99 127 303 127q135 0 211 -61l145 73v-1226q0 -47 17 -71t61 -24zM816 855v178q0 15 2 45q-23 6 -39 26t-21 48q-27 156 -163 156
q-85 0 -128.5 -66.5t-43.5 -185.5v-201h393zM1378 167v889q0 125 -42 188.5t-149 63.5q-206 0 -206 -252v-201h266v-71h-266v-617q0 -48 18.5 -71.5t72.5 -23.5h219q49 0 68 21.5t19 73.5zM816 167v617h-393v-617q0 -48 19 -71.5t73 -23.5h210q54 0 72.5 23.5t18.5 71.5z
" />
    <glyph glyph-name=".notdef" horiz-adv-x="1024" 
d="M132 0v1352h759v-1352h-759zM190 59h643v1234h-643v-1234z" />
    <glyph glyph-name=".null" 
 />
    <glyph glyph-name="nonmarkingreturn" horiz-adv-x="682" 
 />
    <glyph glyph-name="space" unicode=" " horiz-adv-x="503" 
 />
    <glyph glyph-name="exclam" unicode="!" horiz-adv-x="571" 
d="M250 446l-39 706q-7 122 -7 142q0 22 3.5 37.5t23 30t54.5 14.5t54 -14.5t23 -30t4 -37.5q0 -5 -8 -133l-37 -715h-71zM285 -33q-51 0 -88 37t-37 89t36.5 89t88.5 37q50 0 86.5 -37t36.5 -89t-36.5 -89t-86.5 -37z" />
    <glyph glyph-name="quotedbl" unicode="&#x22;" horiz-adv-x="880" 
d="M213 714l-47 456q-9 77 -9 124q0 36 22 59t55 23q35 0 56 -23t21 -57q0 -25 -5.5 -72.5t-5.5 -53.5l-43 -456h-44zM625 714l-46 456q-9 77 -9 124q0 36 22 59t55 23q35 0 56 -23t21 -57q0 -25 -5.5 -72.5t-5.5 -53.5l-43 -456h-45z" />
    <glyph glyph-name="numbersign" unicode="#" horiz-adv-x="1416" 
d="M237 -37l87 417h-222v107h244l81 385h-325v107h346l87 413h107l-87 -413h437l87 413h107l-87 -413h213v-107h-233l-80 -385h313v-107h-335l-89 -417h-107l89 417h-438l-88 -417h-107zM453 487h439l79 385h-437z" />
    <glyph glyph-name="dollar" unicode="$" horiz-adv-x="1177" 
d="M657 782q74 -28 122 -49t106 -57.5t92 -76.5t57 -99t23 -131q0 -78 -26 -144.5t-68.5 -111.5t-96.5 -76.5t-109.5 -46t-108.5 -14.5q-95 0 -171 22l-32 -160h-59l36 179q-160 66 -279 249v169q0 51 38 51q37 0 44 -47q15 -115 69 -203t144 -135l105 527q-65 26 -107 45.5
t-90.5 47t-78.5 55.5t-56.5 65t-38.5 82.5t-12 100.5q0 152 111.5 252.5t268.5 100.5q78 0 148 -19l23 115h59l-27 -135q114 -51 223 -192v-138q0 -52 -36 -52q-34 0 -46 47q-31 163 -159 245l-91 -457zM302 1083q0 -55 17.5 -95t57.5 -72t84.5 -54t118.5 -50l92 465
q-57 24 -120 24q-116 0 -183 -65t-67 -153zM633 57q49 0 96 16.5t86.5 47.5t64 82t24.5 114q0 57 -21 101.5t-64.5 78t-91.5 56.5t-122 50l-7 3l-105 -527q66 -22 140 -22z" />
    <glyph glyph-name="percent" unicode="%" horiz-adv-x="1706" 
d="M377 672q-65 0 -116 25t-80.5 63t-48.5 86.5t-26 90.5t-7 81q0 166 73.5 262t203.5 96q65 0 115.5 -23t81 -59t50 -84.5t27 -94.5t7.5 -94q0 -44 -8 -88.5t-28.5 -92.5t-51 -84.5t-80.5 -60t-112 -23.5zM474 0l693 1352h91l-694 -1352h-90zM379 726q42 0 71.5 26t44 70
t20.5 88t6 93q0 174 -37.5 246.5t-107.5 72.5q-72 0 -106.5 -73.5t-34.5 -225.5q0 -297 144 -297zM1328 -24q-65 0 -116 25t-81 62.5t-49 86.5t-26 91t-7 81q0 166 74 261.5t203 95.5q80 0 138 -33.5t87.5 -89t42.5 -113t13 -119.5q0 -43 -8 -87.5t-28 -92.5t-50.5 -84.5
t-80.5 -60t-112 -23.5zM1330 30q42 0 71.5 26t44 70t20.5 88t6 93q0 174 -38 246.5t-108 72.5q-141 0 -141 -299q0 -297 145 -297z" />
    <glyph glyph-name="ampersand" unicode="&#x26;" horiz-adv-x="1598" 
d="M480 -24q-169 0 -280 94t-111 235q0 137 94 234t307 209q-44 48 -66 74t-50.5 67.5t-40.5 80t-12 81.5q0 117 83.5 186.5t217.5 69.5q131 0 209 -63t78 -166q0 -182 -233 -312q111 -120 180.5 -206.5t138.5 -202.5q61 82 115.5 181.5t79.5 180.5q8 31 -6.5 48.5
t-49.5 17.5h-81v70h405v-70h-62q-46 0 -76 -32.5t-75 -113.5q-106 -226 -206 -348q25 -43 33 -57t27.5 -45t28.5 -41t26.5 -28t31.5 -23.5t33 -11t41 -5.5q78 0 118.5 56t42.5 160h73q0 -84 -23.5 -148t-64 -100t-89 -53.5t-104.5 -17.5q-53 0 -93.5 13.5t-75.5 47t-54.5 60
t-56.5 82.5q-82 -85 -198.5 -144.5t-254.5 -59.5zM622 828q189 115 189 255q0 69 -50 111t-137 42q-80 0 -128 -40t-46 -104q2 -61 46 -122.5t126 -141.5zM549 80q186 0 335 162q-79 131 -151 222t-194 221q-54 -31 -82 -47.5t-66.5 -41t-57 -41t-41 -39.5t-31.5 -44
t-16 -47t-7 -57q0 -109 88 -198.5t223 -89.5z" />
    <glyph glyph-name="quotesingle" unicode="'" horiz-adv-x="472" 
d="M215 714l-46 456q-9 64 -9 124q0 36 21.5 59t54.5 23q35 0 56.5 -22.5t21.5 -57.5q0 -25 -5.5 -72.5t-5.5 -53.5l-44 -456h-44z" />
    <glyph glyph-name="parenleft" unicode="(" horiz-adv-x="511" 
d="M391 -491q-145 198 -221 436t-76 491q0 104 14 215t46 236.5t92.5 252.5t144.5 233h98q-140 -181 -220 -425.5t-80 -510.5q0 -258 74 -484t226 -444h-98z" />
    <glyph glyph-name="parenright" unicode=")" horiz-adv-x="511" 
d="M120 -491h-98q152 218 226 444t74 484q0 266 -80 510.5t-220 425.5h98q84 -106 144.5 -233t92.5 -252.5t46 -236.5t14 -215q0 -253 -76 -491t-221 -436z" />
    <glyph glyph-name="asterisk" unicode="*" horiz-adv-x="1092" 
d="M310 455q-33 0 -59.5 24.5t-26.5 55.5q0 12 5 24.5t11 22t21 25t25 24.5t33.5 30.5t36.5 33.5q23 20 43.5 40t49 49t37.5 38q17 20 13 32q-6 12 -28 19q-56 14 -152 28q-21 3 -80.5 8t-80.5 9q-39 2 -61 21.5t-22 54.5q0 33 22 59.5t53 26.5q45 0 172 -83q71 -44 160 -84
q24 -12 34 -1q12 11 8 31q-23 151 -29 178q-26 93 -29 167q-1 31 19.5 53.5t58.5 22.5q37 0 58.5 -21t20.5 -54q-4 -68 -26 -159q-10 -43 -31 -187q-3 -20 9 -32q7 -8 33 2q34 15 87 46t69 38q19 11 45 26t38 22t28.5 16t25 12.5t18.5 6t19 2.5q35 0 57 -27t22 -60
q0 -34 -23.5 -53.5t-53.5 -21.5q-21 -4 -81.5 -10t-81.5 -10q-115 -16 -155 -26q-22 -7 -27 -19q-6 -15 10 -33q19 -17 49.5 -46.5t55.5 -52.5t54 -48l19.5 -19.5l19.5 -19.5t17 -17.5t16 -18t12.5 -16.5t11 -17t6 -15.5t2.5 -16.5q0 -31 -28 -55.5t-60 -24.5q-54 0 -80 90
q-32 68 -54 113q-51 100 -74 141q-13 22 -26 22q-15 0 -26 -22q-37 -66 -72 -142q-50 -107 -61 -130q0 -1 -3.5 -8.5t-4.5 -10t-5 -10t-6.5 -11t-7.5 -9.5t-10 -9.5t-11 -7t-13.5 -5t-15.5 -1.5z" />
    <glyph glyph-name="plus" unicode="+" horiz-adv-x="1264" 
d="M575 121v497h-498v115h498v498h115v-498h497v-115h-497v-497h-115z" />
    <glyph glyph-name="comma" unicode="," horiz-adv-x="613" 
d="M167 -356l-9 73q101 23 156 90.5t55 127.5q0 20 -8.5 30.5t-22.5 8.5q-5 -1 -21 -5t-29 -4q-43 0 -77.5 33.5t-34.5 86.5q0 51 34 89.5t93 38.5q74 0 116 -56t42 -149q0 -143 -87.5 -241.5t-206.5 -122.5z" />
    <glyph glyph-name="hyphen" unicode="-" horiz-adv-x="887" 
d="M147 335v143h592v-143h-592z" />
    <glyph glyph-name="period" unicode="." horiz-adv-x="601" 
d="M300 -33q-51 0 -87.5 37t-36.5 89t36.5 89t87.5 37t87.5 -37t36.5 -89t-36.5 -89t-87.5 -37z" />
    <glyph glyph-name="slash" unicode="/" horiz-adv-x="821" 
d="M-25 -33l717 1386h152l-715 -1386h-154z" />
    <glyph glyph-name="zero" unicode="0" horiz-adv-x="1047" 
d="M524 -24q-61 0 -117.5 20.5t-112.5 72.5t-97 129.5t-66.5 202t-25.5 280.5q0 339 115 516t304 177q85 0 158.5 -39.5t133 -120.5t93.5 -219t34 -319q0 -344 -113 -522t-306 -178zM527 49q126 0 186 149.5t60 457.5q0 330 -60 487t-190 157q-248 0 -248 -621
q0 -316 60.5 -473t191.5 -157z" />
    <glyph glyph-name="one" unicode="1" horiz-adv-x="1047" 
d="M725 72h186v-72h-734v72h206q89 0 89 88v1068q-62 -50 -128 -69.5t-189 -19.5v70q116 2 189 19.5t128 61.5v3l3 -1q40 34 75 82h87v-1211q0 -43 18.5 -67t69.5 -24z" />
    <glyph glyph-name="two" unicode="2" horiz-adv-x="1047" 
d="M933 292h69l-113 -338h-71q8 23 2 34.5t-37 11.5h-682v84q290 252 436 463q187 252 187 459q0 128 -66 210.5t-183 82.5q-107 0 -178.5 -67t-71.5 -164q0 -70 42 -144l-101 -48q-53 95 -53 173q0 142 115.5 233.5t279.5 91.5q170 0 278 -99.5t108 -262.5
q0 -110 -59 -223.5t-175 -254.5q-115 -136 -196.5 -220t-207.5 -201h540q40 0 63 12.5t34 46.5z" />
    <glyph glyph-name="three" unicode="3" horiz-adv-x="1047" 
d="M436 -24q-142 0 -241 63t-121 150q-5 38 13.5 57t46.5 20q21 1 37 -10.5t22.5 -23.5t14.5 -32q81 -151 237 -151q153 0 245.5 107t92.5 268q0 69 -16.5 120.5t-41 79.5t-58.5 45.5t-62 22.5t-59 5q-54 0 -98 -26l-64 -43l-44 58l145 88q256 150 256 321q0 97 -69 150
t-173 53q-108 0 -179.5 -56t-71.5 -147q0 -57 39 -121l-109 -48q-46 72 -46 147q0 87 55.5 156.5t148 107t202.5 37.5q96 0 177 -28t133.5 -87.5t52.5 -140.5q0 -189 -303 -348q156 2 255.5 -81.5t99.5 -243.5q0 -136 -74 -245t-191.5 -166.5t-251.5 -57.5z" />
    <glyph glyph-name="four" unicode="4" horiz-adv-x="1047" 
d="M404 0v72h122q55 0 73 23t18 74v304h-563v108l612 790h116v-814h201v-84h-201v-306q0 -46 18.5 -70.5t74.5 -24.5h109v-72h-580zM138 557h479v628h-12l-467 -611v-17z" />
    <glyph glyph-name="five" unicode="5" horiz-adv-x="1047" 
d="M530 893q80 0 153 -26.5t132 -78t94.5 -136t35.5 -190.5q0 -102 -32.5 -186.5t-84 -138.5t-118 -91.5t-132.5 -53.5t-131 -16q-115 0 -218 47t-137 136q-4 27 12.5 48t41.5 24q47 6 80 -64q40 -54 104.5 -85.5t132.5 -31.5q133 0 220.5 115t87.5 297q0 72 -15 133.5
t-46.5 111.5t-86 78.5t-127.5 28.5q-156 0 -224 -131h-89l26 669h661l-43 -134h-552l-17 -440q42 56 115.5 85.5t156.5 29.5z" />
    <glyph glyph-name="six" unicode="6" horiz-adv-x="1047" 
d="M547 -24q-92 0 -170.5 35.5t-139.5 105t-95.5 183.5t-34.5 261q0 201 40 359t111 255.5t163 148t201 50.5q108 0 187 -41.5t111 -111.5q5 -26 -9.5 -47t-41.5 -25q-39 -8 -75 48q-82 101 -208 101q-71 0 -125.5 -40t-87 -102t-53.5 -149.5t-29 -169.5t-10 -175
q71 189 276 189q78 0 147.5 -25t127 -74.5t91.5 -135t34 -195.5q0 -103 -33.5 -188.5t-90.5 -140.5t-130.5 -85.5t-155.5 -30.5zM545 49q118 0 179.5 93.5t61.5 254.5q0 380 -258 380q-80 0 -134 -46t-80 -120t-37 -182q30 -380 268 -380z" />
    <glyph glyph-name="seven" unicode="7" horiz-adv-x="1047" 
d="M401 -21q-42 1 -57 22.5t-9 54t29 80.5l485 1082h-570q-40 0 -63 -12t-34 -47l-40 -120h-69l117 359h70q-8 -23 -2 -34.5t37 -11.5h678l-481 -1280q-16 -51 -37 -72.5t-54 -20.5z" />
    <glyph glyph-name="eight" unicode="8" horiz-adv-x="1047" 
d="M525 -24q-87 0 -165.5 22.5t-144 67t-104.5 120.5t-39 173q0 67 19 123.5t49 95t72 68t82.5 46t86.5 27.5q-47 14 -88 36.5t-81.5 58.5t-64 92t-23.5 126q0 85 33 152.5t90 107.5t127 61t149 21q81 0 152.5 -21.5t127 -62.5t88 -107.5t32.5 -150.5q0 -55 -16 -102.5
t-41 -80.5t-59 -60t-67 -43t-68 -27q60 -15 109.5 -39.5t96 -65.5t72.5 -105.5t26 -147.5q0 -94 -36.5 -168.5t-99 -121t-143 -71t-172.5 -24.5zM524 751q117 0 176.5 73.5t59.5 209.5q0 121 -59.5 194.5t-177.5 73.5q-119 0 -178 -73.5t-59 -191.5q0 -135 58 -210.5
t180 -75.5zM524 48q140 0 211 86.5t71 223.5q0 156 -71 238.5t-213 82.5q-140 0 -210 -83.5t-70 -222.5q0 -150 70 -237.5t212 -87.5z" />
    <glyph glyph-name="nine" unicode="9" horiz-adv-x="1047" 
d="M426 -24q-108 0 -186 41t-111 112q-5 25 9 46.5t41 25.5q38 6 75 -48q80 -101 208 -101q71 0 125.5 40t87 102t53.5 149.5t29 169.5t10 175q-71 -189 -276 -189q-62 0 -119 15t-108.5 48.5t-89.5 82.5t-60.5 122t-22.5 162q0 103 33.5 188.5t90.5 140.5t130.5 85.5
t155.5 30.5q92 0 170.5 -35.5t139.5 -105t95.5 -183.5t34.5 -261q0 -201 -40 -359t-111 -255.5t-163 -148t-201 -50.5zM520 573q80 0 134 46t80 120t37 182q-30 379 -268 379q-118 0 -179.5 -93.5t-61.5 -253.5q0 -380 258 -380z" />
    <glyph glyph-name="colon" unicode=":" horiz-adv-x="596" 
d="M299 629q-52 0 -89 37t-37 89t36.5 88.5t89.5 36.5q51 0 87.5 -36.5t36.5 -88.5t-36.5 -89t-87.5 -37zM299 -33q-52 0 -89 37t-37 89q0 53 36.5 89.5t89.5 36.5q51 0 87.5 -37t36.5 -89t-36.5 -89t-87.5 -37z" />
    <glyph glyph-name="semicolon" unicode=";" horiz-adv-x="608" 
d="M300 629q-51 0 -87.5 37t-36.5 89t36.5 88.5t87.5 36.5t87 -36.5t36 -88.5t-36 -89t-87 -37zM166 -356l-9 73q101 23 156.5 90.5t55.5 127.5q0 20 -8.5 30.5t-22.5 8.5q-5 -1 -21 -5t-30 -4q-42 0 -76.5 33.5t-34.5 86.5q0 51 34 89.5t93 38.5q74 0 115.5 -56t41.5 -149
q0 -143 -87 -241.5t-207 -122.5z" />
    <glyph glyph-name="less" unicode="&#x3c;" horiz-adv-x="1171" 
d="M1042 1161v-126l-831 -361l831 -361v-124l-954 420v131z" />
    <glyph glyph-name="equal" unicode="=" horiz-adv-x="1576" 
d="M233 856v115h1110v-115h-1110zM233 381v115h1110v-115h-1110z" />
    <glyph glyph-name="greater" unicode="&#x3e;" horiz-adv-x="1171" 
d="M129 1161l954 -421v-131l-954 -420v124l831 361l-831 361v126z" />
    <glyph glyph-name="question" unicode="?" horiz-adv-x="876" 
d="M409 1376q174 0 282.5 -111t108.5 -270q0 -161 -95.5 -257t-224.5 -96q-52 0 -107 17v-212h-78v301h63q32 -23 83 -23q64 0 110.5 42.5t66 99.5t19.5 118q0 51 -15 104.5t-43.5 102.5t-76.5 80t-106 31q-71 0 -129.5 -41t-81.5 -116q-5 -19 -10 -31t-20 -23.5t-37 -10.5
q-23 3 -40 20t-15 43q22 97 116.5 164.5t229.5 67.5zM334 219q50 0 86.5 -37t36.5 -89t-36.5 -89t-86.5 -37q-51 0 -87.5 37t-36.5 89t36.5 89t87.5 37z" />
    <glyph glyph-name="at" unicode="@" horiz-adv-x="1951" 
d="M1002 -449q-148 0 -283 40t-244.5 116t-190.5 179t-125.5 236.5t-44.5 281.5q0 205 68.5 384t190 308.5t298.5 204.5t386 75q169 0 305 -48.5t226 -134.5t138.5 -205.5t48.5 -262.5q0 -180 -69.5 -348t-199.5 -279t-287 -111q-119 0 -159.5 63t-16.5 186
q-162 -250 -313 -250q-74 0 -123.5 53t-62.5 135.5t1 183.5q12 117 59 228.5t111.5 190t140 126t143.5 47.5q90 0 135 -63.5t52 -163.5l56 198l132 4l-202 -695q-27 -83 -3.5 -135.5t100.5 -52.5q75 0 157 55.5t148.5 145.5t110 217t43.5 259q0 274 -180 440.5t-481 166.5
q-196 0 -362.5 -73t-280 -198.5t-177.5 -298t-64 -368.5q0 -173 64.5 -321.5t175 -250.5t260.5 -159.5t319 -57.5q121 0 240.5 35t227.5 102t196 173t139 239h50q-52 -132 -132.5 -237.5t-169 -171t-189 -109.5t-189.5 -61.5t-173 -17.5zM797 89q63 0 136.5 74.5
t129.5 192.5t72 236q23 136 -10.5 219.5t-110.5 83.5q-46 0 -93 -36.5t-85 -93.5t-70.5 -127t-53.5 -137.5t-31 -124.5q-23 -122 12 -204.5t104 -82.5z" />
    <glyph glyph-name="A" unicode="A" horiz-adv-x="1372" 
d="M1295 73l65 -1v-72h-522v72l111 1q32 1 47.5 18t5.5 47l-108 300h-534l-108 -287q-13 -36 9 -57t58 -21l117 -1v-72h-424v72l48 4q91 34 123 120l454 1180h100l435 -1180q20 -55 47 -85t76 -38zM387 511h480l-219 608h-32z" />
    <glyph glyph-name="B" unicode="B" horiz-adv-x="1333" 
d="M898 723q49 -11 94.5 -28.5t92 -48t80 -69.5t54.5 -95t20 -121q-1 -81 -34.5 -145.5t-84.5 -103.5t-119.5 -65t-135 -36t-135.5 -10h-663v72h99q47 0 65 27.5t18 79.5v990q0 107 -76 107h-106v75l697 -1q200 -1 309.5 -88t105.5 -235q-1 -68 -27.5 -123t-70 -90.5
t-88.5 -57.5t-95 -34zM676 1282h-249v-522h256q156 0 228.5 61t76.5 194q3 131 -78.5 199t-233.5 68zM1044 376q2 86 -24.5 147.5t-78 95.5t-115.5 49.5t-147 15.5h-252v-505q0 -41 16.5 -71.5t57.5 -30.5h216q159 0 241.5 83.5t85.5 215.5z" />
    <glyph glyph-name="C" unicode="C" horiz-adv-x="1498" 
d="M736 -24q-144 0 -267 58t-205 154.5t-128 222t-46 261.5q0 137 46.5 264t129 224.5t206 156.5t267.5 59t271.5 -74.5t216.5 -216.5l18 237h71l5 -473h-70q-17 80 -58 157t-101.5 142.5t-147 106t-183.5 40.5q-115 0 -207 -53.5t-148 -144t-85.5 -203t-29.5 -237.5
q0 -267 129 -433.5t346 -166.5q171 0 308.5 121.5t183.5 332.5h72v-482h-72l-25 243q-59 -124 -192 -210t-305 -86z" />
    <glyph glyph-name="D" unicode="D" horiz-adv-x="1549" 
d="M59 0v72h118q82 0 82 107v995q0 53 -18.5 80.5t-65.5 27.5h-116v70h607q243 0 419 -73t275 -227t99 -378q0 -172 -56.5 -301.5t-161.5 -210.5t-249 -121.5t-326 -40.5h-607zM546 76h224q150 0 262 79.5t169 214t57 305.5q0 154 -44 273t-121.5 191.5t-175.5 109
t-213 36.5h-266v-1089q0 -61 20.5 -90.5t87.5 -29.5z" />
    <glyph glyph-name="E" unicode="E" horiz-adv-x="1376" 
d="M1196 447l71 -3l-28 -444h-1181v72h106q52 0 72 27.5t20 79.5v993q0 57 -21.5 82.5t-81.5 25.5h-95v72h1121l21 -349l-71 -3l-25 182q-18 57 -48 75t-87 18h-534v-528h344q101 0 101 74v112h72v-460h-72v113q0 84 -99 84h-346v-475q0 -61 19 -90t78 -29h459
q78 0 112 23.5t49 78.5z" />
    <glyph glyph-name="F" unicode="F" horiz-adv-x="1239" 
d="M59 0v72h96q58 0 79.5 25.5t21.5 81.5v993q0 58 -21.5 83t-82.5 25h-94v72h1114l16 -353l-72 -2l-19 173q-10 35 -26 58t-38 32t-39 12t-40 3h-519v-527h335q96 0 96 92v94h72v-463h-72v102q0 50 -22.5 74.5t-74.5 24.5h-334v-493q0 -54 22 -80.5t84 -26.5h116v-72h-598z
" />
    <glyph glyph-name="G" unicode="G" horiz-adv-x="1553" 
d="M759 -24q-152 0 -279.5 57t-211.5 152.5t-131 220.5t-47 263q0 141 49.5 270.5t134.5 225.5t206 153.5t258 57.5q165 0 293.5 -81t196.5 -206l17 246h69l5 -462h-70q-20 77 -59 148.5t-97.5 133t-142.5 98.5t-181 37q-96 0 -176 -36t-135 -96.5t-93 -142t-56 -171
t-18 -184.5q0 -120 29 -226.5t86 -191.5t151 -135t215 -50q165 0 271 82t131 251q0 57 -24.5 82.5t-82.5 25.5h-332v71h764v-71h-70q-43 0 -59.5 -28t-16.5 -84v-410h-76l-60 215q-91 -119 -201 -167t-257 -48z" />
    <glyph glyph-name="H" unicode="H" horiz-adv-x="1677" 
d="M60 0v72h130q57 0 78 26t21 81v993q0 55 -20.5 81.5t-78.5 26.5h-130v72h633v-72h-129q-57 0 -77 -26.5t-20 -81.5v-418h742v418q0 54 -20 81t-76 27h-130v72h633v-72h-130q-57 0 -77.5 -26.5t-20.5 -81.5v-993q0 -55 21 -81t77 -26h130v-72h-633v72h136q52 0 71 27.5
t19 79.5v497h-742v-497q0 -52 19.5 -79.5t71.5 -27.5h135v-72h-633z" />
    <glyph glyph-name="I" unicode="I" horiz-adv-x="757" 
d="M59 0v72h125q62 0 83.5 25.5t21.5 81.5v995q0 56 -21.5 82t-83.5 26h-125v71h639v-71h-124q-63 0 -85 -25t-22 -83v-995q0 -58 22 -82.5t85 -24.5h124v-72h-639z" />
    <glyph glyph-name="J" unicode="J" horiz-adv-x="779" 
d="M79 -495q-65 0 -126.5 15t-114 44.5t-84 80.5t-31.5 116q0 38 29.5 65t74.5 27q40 0 67 -21.5t27 -60.5q0 -17 -16.5 -43t-11.5 -42q20 -58 77 -83.5t127 -25.5q147 0 210 105t63 327v1163q0 52 -20.5 80t-84.5 28h-236v72h720v-72h-101q-57 0 -78.5 -26t-21.5 -82v-1119
q0 -59 -4 -109.5t-17 -108t-33.5 -103.5t-56.5 -89.5t-84 -73t-118 -47t-156 -17.5z" />
    <glyph glyph-name="K" unicode="K" horiz-adv-x="1623" 
d="M59 0v72h124q52 0 73.5 24t21.5 83v993q0 58 -21.5 83t-80.5 25h-117v72h629v-72h-129q-62 0 -82 -28t-20 -82v-589l550 565q54 53 54 87q0 22 -16.5 34.5t-43.5 12.5h-109v72h588v-72h-130q-35 0 -65.5 -9.5t-61 -31.5t-47 -36.5t-49.5 -46.5l-272 -279l452 -682
q43 -67 78 -95t84 -28h133v-72h-649v72h112q32 0 53 12t21 35q0 7 -3 15.5t-11 22.5l-12 21t-17 25.5t-15 22.5l-354 533l-270 -283v-297q0 -56 19 -80.5t67 -25.5l137 -1l1 -72h-622z" />
    <glyph glyph-name="L" unicode="L" horiz-adv-x="1308" 
d="M59 0v72h131q55 0 77.5 23t22.5 84v993q0 57 -21.5 82.5t-80.5 25.5h-129v72h642v-72h-128q-60 0 -82.5 -24.5t-22.5 -83.5v-980q0 -61 20.5 -88.5t86.5 -27.5h375q162 0 200 153l25 220l69 -2l-27 -447h-1158z" />
    <glyph glyph-name="M" unicode="M" horiz-adv-x="1978" 
d="M1791 72h131v-72h-636v72h118q60 0 82 24.5t22 82.5v1011h-21l-537 -1190h-78l-528 1190h-14v-976q0 -142 102 -142h98v-72h-471v72h97q99 0 99 143v956q0 54 -20 81.5t-80 27.5h-96v72h401l506 -1136l516 1136h439v-72h-130q-63 0 -83.5 -27.5t-20.5 -80.5v-993
q0 -52 20.5 -79.5t83.5 -27.5z" />
    <glyph glyph-name="N" unicode="N" horiz-adv-x="1552" 
d="M1044 1352h474v-72h-96q-50 0 -73 -37.5t-23 -96.5v-1169h-85l-906 1200v-967q0 -138 108 -138h94v-72h-480v72h96q104 0 104 138v944q0 58 -27.5 92t-81.5 34h-93v72h372l821 -1092v887q0 22 -4 42t-14 42t-32.5 35.5t-53.5 13.5h-100v72z" />
    <glyph glyph-name="O" unicode="O" horiz-adv-x="1507" 
d="M755 -24q-199 0 -350.5 91t-231.5 250.5t-80 362.5q0 137 44 261.5t125.5 222t208 155t279.5 57.5q160 0 289 -58.5t209.5 -157.5t123.5 -223.5t43 -261.5q0 -141 -44.5 -267t-126 -222.5t-208.5 -153t-281 -56.5zM750 57q215 0 336.5 161t121.5 458q0 300 -123.5 459.5
t-332.5 159.5q-145 0 -249.5 -80t-155 -216.5t-50.5 -314.5q0 -122 27 -232t80.5 -199.5t142.5 -142.5t203 -53z" />
    <glyph glyph-name="P" unicode="P" horiz-adv-x="1233" 
d="M59 0v72h98q57 0 78.5 25t21.5 82v995q0 52 -20.5 80t-84.5 28h-97v70h603q92 0 168.5 -11.5t142.5 -38.5t111.5 -68t71.5 -103t26 -141q0 -182 -125.5 -275t-349.5 -93h-267v-443q0 -52 20.5 -79.5t84.5 -27.5h97v-72h-579zM436 698h252q298 0 298 289q0 148 -75.5 222
t-220.5 74h-254v-585z" />
    <glyph glyph-name="Q" unicode="Q" horiz-adv-x="1507" 
d="M755 -24q-199 0 -350.5 91t-231.5 250.5t-80 362.5q0 137 44 261.5t125.5 222t208 155t279.5 57.5q160 0 289 -58.5t209.5 -157.5t123.5 -223.5t43 -261.5q0 -141 -44.5 -267t-126 -222.5t-208.5 -153t-281 -56.5zM750 57q215 0 336.5 161t121.5 458q0 300 -123.5 459.5
t-332.5 159.5q-145 0 -249.5 -80t-155 -216.5t-50.5 -314.5q0 -122 27 -232t80.5 -199.5t142.5 -142.5t203 -53zM1310 -457q-62 0 -114 13t-100.5 43.5t-72.5 49.5t-73 63q-137 123 -245 123q-100 0 -263 -144l-42 48q99 88 175.5 129t160.5 41q127 0 298 -111
q86 -57 155.5 -87.5t147.5 -30.5q148 0 237 91l70 -84q-116 -144 -334 -144z" />
    <glyph glyph-name="R" unicode="R" horiz-adv-x="1489" 
d="M57 0v72h95q60 0 82.5 24.5t22.5 82.5v995q0 56 -21 81t-78 25h-101v72h682q213 0 337 -92.5t124 -271.5q0 -131 -79 -215t-220 -120q41 -28 73.5 -66.5t76.5 -106.5l222 -331q25 -40 67.5 -58.5t77.5 -18.5h60v-72h-306l-290 456q-62 99 -111 132t-122 33h-213v-442
q0 -56 21.5 -81.5t81.5 -25.5h95v-72h-577zM436 698h252q153 0 239.5 71.5t86.5 220.5q0 141 -82.5 213.5t-236.5 72.5h-259v-578z" />
    <glyph glyph-name="S" unicode="S" horiz-adv-x="1152" 
d="M643 -24q-133 0 -243 58t-173 170l-14 -183h-75v465h75q5 -88 34.5 -165t80.5 -136.5t128.5 -93.5t171.5 -34q49 0 96 16.5t86.5 47.5t64 82t24.5 114q0 57 -21 101.5t-64.5 78t-92 56.5t-122.5 50q-191 78 -260 119q-134 80 -169 195q-15 48 -15 107q0 152 111.5 252.5
t268.5 100.5q98 0 189.5 -49t148.5 -135l15 160h73v-397h-73q-10 104 -61 184t-125 120.5t-156 40.5q-116 0 -183 -65t-67 -153q0 -49 16.5 -87.5t41.5 -65t73 -52.5t92.5 -44.5t118.5 -46.5q9 -3 14 -5q51 -19 87 -34t81.5 -38t76 -45t62 -53.5t50.5 -66t31 -79.5t12 -97
q0 -97 -39.5 -175t-101.5 -124t-131.5 -70t-136.5 -24z" />
    <glyph glyph-name="T" unicode="T" horiz-adv-x="1384" 
d="M379 0v72h118q63 0 84.5 27.5t21.5 79.5v1096h-316q-29 0 -50 -4t-45 -17t-39 -43t-19 -76l-9 -150l-72 2l13 365h1252l13 -365l-72 -2l-11 152q-18 85 -53.5 111.5t-100.5 26.5h-312v-1096q0 -53 20 -80t84 -27h120v-72h-627z" />
    <glyph glyph-name="U" unicode="U" horiz-adv-x="1511" 
d="M762 -24q-266 0 -403.5 134t-137.5 394v668q0 56 -21 82t-82 26h-92v72h615v-72h-138q-59 0 -81.5 -25t-22.5 -83v-668q0 -217 97.5 -330t306.5 -113q222 0 321 116.5t99 342.5v633q0 57 -26.5 92t-83.5 35h-85v72h448v-72h-78q-50 0 -73.5 -34.5t-23.5 -90.5v-637
q0 -542 -539 -542z" />
    <glyph glyph-name="V" unicode="V" horiz-adv-x="1448" 
d="M987 1352h448v-72h-67q-46 0 -75.5 -34.5t-67.5 -129.5l-429 -1142h-103l-473 1173q-34 79 -57.5 106t-72.5 27h-78v72h610v-72h-153q-61 0 -76 -31.5t11 -89.5l394 -978l356 952q56 147 -62 147h-105v72z" />
    <glyph glyph-name="W" unicode="W" horiz-adv-x="1979" 
d="M1536 1352h429v-72h-52q-45 0 -70.5 -38.5t-48.5 -123.5l-310 -1142h-130l-361 1171l-327 -1171h-132l-353 1188q-20 68 -42.5 92t-65.5 24h-59v72h564v-72h-157q-51 0 -64.5 -32t5.5 -87l291 -983l327 1185h120l363 -1179l248 928q10 37 12.5 64.5t-1.5 52.5t-22 38
t-50 13h-114v72z" />
    <glyph glyph-name="X" unicode="X" horiz-adv-x="1646" 
d="M56 0v72h68q83 0 169 101l439 492l-414 494q-54 73 -85.5 97t-79.5 24h-110v72h641v-72h-121q-52 0 -60.5 -29.5t29.5 -78.5l321 -380l332 372q44 52 34 84t-68 32h-131v72h525v-72h-81q-37 0 -69 -16.5t-50.5 -35t-56.5 -62.5l-386 -433l440 -531q52 -69 89 -99.5
t88 -30.5h97v-72h-686v72h152q66 0 78 32t-34 93l-346 407l-364 -410q-44 -51 -31 -86.5t76 -35.5h149v-72h-554z" />
    <glyph glyph-name="Y" unicode="Y" horiz-adv-x="1390" 
d="M377 0v72h148q60 0 80.5 26t20.5 80v312l-415 688q-31 53 -58 77.5t-64 24.5h-78v72h557v-72h-110q-51 0 -58.5 -34t21.5 -78l353 -582l338 557q35 60 23 98.5t-71 38.5h-89v72h404v-72h-38q-61 0 -122 -104l-414 -676l-1 -321q0 -56 21 -81.5t81 -25.5h147v-72h-676z
" />
    <glyph glyph-name="Z" unicode="Z" horiz-adv-x="1368" 
d="M1209 429l72 -3l-35 -426h-1161v93l937 1193h-623q-91 0 -137.5 -23t-64.5 -91l-25 -172l-71 3l33 359h1098v-90l-946 -1196h698q76 0 121.5 24t70.5 99z" />
    <glyph glyph-name="bracketleft" unicode="[" horiz-adv-x="671" 
d="M189 -475v1827h463v-70h-221q-53 0 -71.5 -22t-18.5 -66v-1518q0 -41 19.5 -61t75.5 -20h216v-70h-463z" />
    <glyph glyph-name="backslash" unicode="\" horiz-adv-x="821" 
d="M846 -33h-154l-715 1386h152z" />
    <glyph glyph-name="bracketright" unicode="]" horiz-adv-x="671" 
d="M482 -475h-463v70h216q56 0 75.5 20t19.5 61v1518q0 44 -18.5 66t-71.5 22h-221v70h463v-1827z" />
    <glyph glyph-name="asciicircum" unicode="^" horiz-adv-x="1059" 
d="M977 636h-135l-312 561l-317 -561h-131l405 717h88z" />
    <glyph glyph-name="underscore" unicode="_" horiz-adv-x="1340" 
d="M146 -189v105h1048v-105h-1048z" />
    <glyph glyph-name="grave" unicode="`" horiz-adv-x="520" 
d="M409 1030l-399 318v4h237l223 -322h-61z" />
    <glyph glyph-name="a" unicode="a" horiz-adv-x="1043" 
d="M299 -20q-109 0 -159.5 53t-50.5 137q0 94 62.5 155.5t186.5 121.5l316 154q-5 121 -48.5 165t-148.5 44q-56 0 -98 -12.5t-66.5 -36.5t-38 -47t-24.5 -54q-14 -68 -75 -65q-32 1 -47 20.5t-12 48.5q8 41 33 78t70 69.5t120.5 51.5t172.5 19q170 0 250 -66.5t79 -225.5
l-1 -365q0 -82 17.5 -120t57.5 -38q71 0 77 120h60q-2 -102 -53 -154.5t-137 -52.5q-80 0 -122 46.5t-57 143.5q-177 -190 -364 -190zM365 68q150 0 290 190v268l-282 -154q-69 -38 -97 -79.5t-28 -93.5q0 -65 30.5 -98t86.5 -33z" />
    <glyph glyph-name="b" unicode="b" horiz-adv-x="1104" 
d="M613 -23q-88 0 -170.5 36.5t-146.5 103.5l-78 -127h-60v1184q0 50 -18.5 74t-64.5 18l-86 -21l-7 71l341 71v-624q125 119 293 119q172 0 294.5 -129t122.5 -323q0 -98 -34.5 -183.5t-92 -144t-134 -92t-159.5 -33.5zM571 63q68 0 124.5 33.5t91 87.5t53.5 117.5
t19 127.5q0 96 -34 178.5t-100.5 135t-151.5 52.5q-77 0 -142.5 -37t-107.5 -93v-466q44 -59 108 -97.5t140 -38.5z" />
    <glyph glyph-name="c" unicode="c" horiz-adv-x="954" 
d="M515 -27q-193 0 -318.5 125t-125.5 323q0 202 132 331.5t329 129.5q75 0 143.5 -19.5t124 -66t72.5 -112.5q3 -34 -13 -57.5t-46 -24.5q-19 -1 -33 5.5t-23 21t-13.5 25t-9.5 27.5q-66 129 -209 129q-70 0 -125.5 -33t-88 -86.5t-49.5 -115t-17 -124.5
q0 -186 80.5 -290.5t219.5 -104.5q107 0 179 58t106 143l65 -30q-112 -254 -380 -254z" />
    <glyph glyph-name="d" unicode="d" horiz-adv-x="1133" 
d="M475 -23q-176 0 -288 129t-112 317q0 118 41 210.5t105 144.5t132.5 78t134.5 26q74 0 153.5 -29.5t139.5 -92.5v413q0 49 -20 73.5t-67 17.5l-82 -21l-6 71l340 73v-1229q0 -40 13 -62t51 -22h81v-74h-293l-8 110q-71 -62 -145.5 -97.5t-169.5 -35.5zM530 67
q68 0 137.5 35t113.5 105v465q-95 119 -244 119q-133 0 -210.5 -103.5t-77.5 -253.5q0 -157 78.5 -262t202.5 -105z" />
    <glyph glyph-name="e" unicode="e" horiz-adv-x="976" 
d="M504 -27q-186 0 -308.5 128.5t-122.5 329.5q0 200 122.5 325.5t303.5 125.5q77 0 148.5 -27.5t130.5 -79.5t95.5 -138.5t38.5 -194.5h-665q0 -72 17 -138.5t51 -124t93 -92t136 -34.5q87 0 158.5 48.5t113.5 134.5l63 -35q-54 -104 -153 -166t-222 -62zM248 511h505
q-12 122 -77.5 210t-176.5 88q-57 0 -104 -26t-77 -69.5t-47.5 -95t-22.5 -107.5z" />
    <glyph glyph-name="f" unicode="f" horiz-adv-x="738" 
d="M50 0v72h117q54 0 73 23.5t19 71.5v617h-209v71h209v178q0 168 101 258t261 90q116 0 198.5 -56t93.5 -165q2 -35 -20 -59.5t-54 -25.5q-29 -1 -52 20.5t-29 56.5q-27 156 -163 156q-85 0 -128.5 -66.5t-43.5 -185.5v-201h266v-71h-266v-617q0 -48 19 -71.5t73 -23.5h174
v-72h-639z" />
    <glyph glyph-name="g" unicode="g" horiz-adv-x="1059" 
d="M483 -510q-77 0 -143 9.5t-132 33.5t-104.5 73.5t-38.5 120.5q0 86 53.5 136.5t157.5 73.5q-83 19 -127.5 60t-44.5 117q0 81 53.5 132t162.5 77q-59 18 -103 50.5t-67 71t-33.5 74.5t-10.5 71q0 128 105 209.5t275 81.5q188 0 297 -112q87 110 172 110q76 0 98 -82
q5 -24 -4.5 -39.5t-30.5 -16.5q-23 -1 -42 25q-20 32 -53 32q-26 0 -54.5 -22t-47.5 -56q35 -62 35 -131q0 -74 -33.5 -132.5t-89.5 -93.5t-121.5 -53t-136.5 -20q-258 -3 -258 -132q0 -42 31.5 -63t94.5 -29q44 -6 261 -6q92 0 158 -11t118.5 -37t79 -74t26.5 -119
q0 -146 -133 -237.5t-370 -91.5zM483 366q97 0 156.5 61t59.5 166q0 35 -14 72t-39.5 70t-68.5 54t-95 21q-100 0 -158 -69t-58 -149q0 -83 58.5 -154.5t158.5 -71.5zM489 -439q173 0 283 57.5t110 165.5q0 37 -14 62t-49 44t-99.5 27.5t-161.5 8.5q-205 -1 -297 -49
t-92 -145q0 -171 320 -171z" />
    <glyph glyph-name="h" unicode="h" horiz-adv-x="1168" 
d="M25 0v72h85q48 0 65.5 23.5t17.5 71.5v1004q0 48 -18.5 72.5t-63.5 17.5l-86 -20l-7 70l341 76v-756q64 108 155.5 179.5t191.5 71.5q282 0 282 -317v-398q0 -95 80 -95h83v-72h-495v72h95q72 0 72 96v394q0 112 -39.5 166t-131.5 54q-48 0 -94.5 -26t-84 -69.5
t-66 -91.5t-48.5 -99v-329q0 -42 16.5 -68.5t51.5 -26.5h93v-72h-495z" />
    <glyph glyph-name="i" unicode="i" horiz-adv-x="591" 
d="M321 1150q-50 0 -81.5 36.5t-31.5 79.5q0 47 33.5 80.5t79.5 33.5t79.5 -33.5t33.5 -80.5q0 -51 -33.5 -83.5t-79.5 -32.5zM60 0v72h90q49 0 67.5 21.5t18.5 73.5v506q0 55 -19.5 77t-68.5 15l-88 -21l-7 71l349 73v-721q0 -47 17 -71t61 -24h76v-72h-496z" />
    <glyph glyph-name="j" unicode="j" horiz-adv-x="524" 
d="M278 1150q-50 0 -81.5 36.5t-31.5 79.5q0 47 33.5 80.5t79.5 33.5q47 0 79.5 -33.5t32.5 -80.5q0 -52 -33 -84t-79 -32zM1 -518q-109 0 -180 52.5t-83 148.5q-1 32 17 52.5t46 21.5q53 2 67 -59q32 -141 160 -141q172 0 172 276v840q0 50 -20.5 74t-75.5 17l-85 -21
l-6 71l352 74v-984q0 -214 -85.5 -318t-278.5 -104z" />
    <glyph glyph-name="k" unicode="k" horiz-adv-x="1219" 
d="M23 0v72h90q47 0 63.5 23t16.5 72v1006q0 50 -19 74t-66 18l-85 -21l-6 71l342 72v-1008l392 310q31 25 40.5 47t-4 35t-48.5 13h-50v71h428v-71h-65q-73 0 -143 -62l-194 -153l321 -400q68 -97 113 -97h56v-72h-482v72h108q40 0 43 28t-26 66l-253 313l-236 -189v-123
q0 -95 66 -95h98v-72h-500z" />
    <glyph glyph-name="l" unicode="l" horiz-adv-x="550" 
d="M23 0v72h90q47 0 63.5 23t16.5 72v1006q0 50 -19 74t-66 18l-85 -21l-6 71l342 72v-1220q0 -95 66 -95h98v-72h-500z" />
    <glyph glyph-name="m" unicode="m" horiz-adv-x="1886" 
d="M63 0v72h85q48 0 65.5 23.5t17.5 71.5v498q0 49 -18.5 73t-64.5 18l-85 -21l-7 71l340 76v-251q71 106 172.5 178.5t202.5 72.5q121 0 188.5 -60.5t83.5 -189.5q71 107 174 178.5t206 71.5q282 0 282 -317v-398q0 -95 80 -95h82v-72h-494v72h94q71 0 71 96v394
q0 113 -39 166.5t-132 53.5q-95 0 -181.5 -82.5t-132.5 -187.5v-345q0 -95 80 -95h83v-72h-495v72h94q73 0 73 96v394q0 112 -39.5 166t-132.5 54q-67 0 -134 -46t-113 -109t-73 -131v-329q0 -42 17 -68.5t52 -26.5h102v-72h-504z" />
    <glyph glyph-name="n" unicode="n" horiz-adv-x="1207" 
d="M63 0v72h85q48 0 65.5 23.5t17.5 71.5v498q0 49 -18.5 73t-64.5 18l-85 -21l-7 71l340 76v-251q65 108 156 179.5t192 71.5q281 0 281 -317v-398q0 -95 81 -95h83v-72h-495v72h94q73 0 73 96v394q0 112 -39.5 166t-132.5 54q-91 0 -170 -87t-123 -199v-329
q0 -42 17 -68.5t52 -26.5h93v-72h-495z" />
    <glyph glyph-name="o" unicode="o" horiz-adv-x="1040" 
d="M520 -27q-46 0 -96.5 9.5t-115 40.5t-114.5 78.5t-84.5 133t-34.5 195.5q0 95 28 172.5t72.5 128.5t103.5 86t119.5 50t120.5 15q57 0 115.5 -14t118.5 -48t106.5 -84t76 -129.5t29.5 -176.5q0 -102 -30.5 -183.5t-77.5 -131.5t-108.5 -83t-118 -46t-110.5 -13zM521 47
q49 0 96.5 24.5t86.5 70t63 120.5t24 167q0 171 -75 275.5t-196 104.5q-120 0 -196 -105t-76 -270q0 -182 82 -284.5t191 -102.5z" />
    <glyph glyph-name="p" unicode="p" horiz-adv-x="1144" 
d="M28 -505v72h91q45 0 62 24t17 71v1013q0 50 -20 72.5t-74 18.5l-76 -20l-7 70l330 72l9 -143q61 64 141 100.5t165 36.5q166 0 286.5 -127.5t120.5 -322.5q0 -198 -123.5 -328.5t-292.5 -130.5q-166 0 -294 126v-437q0 -48 18.5 -71.5t72.5 -23.5h98v-72h-524zM607 64
q70 0 127.5 34.5t92.5 88.5t53.5 116t18.5 122q0 149 -79 257.5t-207 108.5q-73 0 -139.5 -39t-110.5 -104v-459q48 -59 113.5 -92t130.5 -33z" />
    <glyph glyph-name="q" unicode="q" horiz-adv-x="1103" 
d="M593 -505v72h96q53 0 72 23.5t19 71.5v433q-127 -122 -294 -122q-177 0 -295 128t-118 321q0 104 35 191.5t93 145.5t133.5 90t157.5 32q176 0 312 -136l81 125h60v-1208q0 -48 18 -71.5t66 -23.5h86v-72h-522zM530 61q62 0 129 31.5t121 98.5v469q-103 137 -249 137
q-124 0 -204.5 -101t-80.5 -268q0 -91 31.5 -173t98 -138t154.5 -56z" />
    <glyph glyph-name="r" unicode="r" horiz-adv-x="889" 
d="M63 0v72h91q44 0 60.5 24t16.5 71v501q0 50 -18 73.5t-60 17.5l-91 -20l-7 71l322 78l13 -256q114 250 312 250q73 0 118 -39t63 -98q4 -31 -11 -57.5t-50 -27.5q-39 -4 -67 41q-43 66 -119 66q-60 0 -108 -36.5t-76 -95.5t-42 -125t-14 -133v-210q0 -51 19 -73t70 -22
h71v-72h-493z" />
    <glyph glyph-name="s" unicode="s" horiz-adv-x="993" 
d="M510 530q55 -7 94 -14.5t89.5 -21t84 -33t65 -47t47 -68t15.5 -90.5q0 -135 -108 -209t-270 -74q-103 0 -184.5 28.5t-128.5 72.5l-35 -101h-56l-3 270h67q51 -99 141 -148t203 -49q110 0 180.5 44.5t70.5 123.5q0 34 -16 59.5t-38 40.5t-63 27t-73.5 17.5t-86.5 12.5
q-45 7 -73 11.5t-69 13t-67.5 18t-59 23.5t-52 31.5t-38 40.5t-27 53t-8.5 66q0 119 93 186.5t257 67.5q190 0 294 -96l28 96h54l3 -257h-56q-35 86 -118 135.5t-208 49.5q-104 0 -166 -34.5t-62 -103.5q0 -25 8 -44.5t28.5 -33.5t39.5 -23t58.5 -17t65.5 -12.5t80 -11.5z
" />
    <glyph glyph-name="t" unicode="t" horiz-adv-x="760" 
d="M464 -27q-122 0 -190 76t-68 226v509h-189v71h118q73 0 119.5 44.5t46.5 117.5v141h69v-303h317v-71h-317v-487q0 -120 34 -179t110 -59q54 0 92 32.5t47 98.5h60q-4 -47 -21.5 -85t-42.5 -62.5t-57 -40.5t-64 -22.5t-64 -6.5z" />
    <glyph glyph-name="u" unicode="u" horiz-adv-x="1175" 
d="M464 -27q-283 0 -283 317v398q0 96 -80 96h-82v71h328v-562q0 -112 39.5 -166t132.5 -54q91 0 169.5 87t121.5 200v328q0 42 -16.5 69t-50.5 27h-94v71h328v-686q0 -48 18 -72t64 -18l86 21l6 -72l-341 -52v249q-63 -108 -154 -180t-192 -72z" />
    <glyph glyph-name="v" unicode="v" horiz-adv-x="1036" 
d="M741 855h302v-71h-29q-32 0 -54 -24.5t-49 -85.5l-332 -692h-112l-318 704q-26 59 -47 78.5t-53 19.5h-58v71h460v-71h-87q-36 0 -48.5 -15.5t-8 -37t19.5 -54.5l244 -549l258 547q11 24 15.5 41.5t4 34t-13 25t-36.5 8.5h-58v71z" />
    <glyph glyph-name="w" unicode="w" horiz-adv-x="1604" 
d="M1265 855h346v-71h-52q-33 0 -53.5 -22.5t-37.5 -67.5l-270 -714h-121l-264 722l-267 -722h-120l-264 715q-19 50 -39.5 69.5t-53.5 19.5h-76v71h479v-71h-88q-47 0 -58.5 -22t5.5 -70l202 -552l273 728h110l268 -732l197 531q24 59 13.5 88t-66.5 29h-63v71z" />
    <glyph glyph-name="x" unicode="x" horiz-adv-x="1123" 
d="M43 0v72h37q61 0 132 71l272 271l-274 285q-75 85 -121 85h-50v71h475v-71h-74q-30 0 -41.5 -11t-6 -29t25.5 -42l179 -186l183 183q35 36 30.5 60.5t-51.5 24.5h-45v71h336v-71h-42q-48 0 -126 -78l-241 -238l276 -284q93 -112 142 -112h38v-72h-469v72h74q49 0 56 22.5
t-25 57.5l-202 213l-207 -206q-24 -26 -32 -45t3.5 -30.5t44.5 -11.5h71v-72h-368z" />
    <glyph glyph-name="y" unicode="y" horiz-adv-x="1045" 
d="M215 -483q-37 -1 -59.5 18t-23.5 50q0 23 13.5 39.5t27 22t32.5 10.5q93 21 160.5 73.5t121.5 167.5l40 89l-396 713q-27 50 -45.5 67t-49.5 17h-46v71h433v-71h-71q-83 0 -33 -95l289 -533l229 507q16 38 20 63t-8.5 41.5t-45.5 16.5h-80v71h330v-71h-26q-32 0 -55 -23
t-49 -86l-376 -826q-76 -166 -151 -242.5t-181 -89.5z" />
    <glyph glyph-name="z" unicode="z" horiz-adv-x="972" 
d="M813 282l69 -2l-27 -280h-780v84l601 700h-397q-34 0 -52 -16t-33 -66l-22 -114l-71 3l29 264h743v-86l-602 -697h416q36 0 60 17.5t42 68.5z" />
    <glyph glyph-name="braceleft" unicode="{" horiz-adv-x="584" 
d="M556 -521q-94 -3 -170.5 23.5t-124.5 73.5t-74 107.5t-26 126.5q-1 77 31.5 196.5t32.5 172.5q0 105 -50 152.5t-125 53.5v84q175 21 175 211q0 57 -32.5 173.5t-31.5 189.5q1 41 12.5 83t40.5 87.5t72 80.5t113 58t157 24v-44q-132 -6 -203 -72t-73 -176q-1 -72 30 -192
t31 -174q0 -110 -61.5 -188.5t-193.5 -97.5v-8q118 -21 187 -93.5t69 -194.5q0 -54 -31.5 -168.5t-30.5 -192.5q1 -124 80.5 -188t195.5 -64v-44z" />
    <glyph glyph-name="bar" unicode="|" horiz-adv-x="611" 
d="M236 -483v1835h139v-1835h-139z" />
    <glyph glyph-name="braceright" unicode="}" horiz-adv-x="584" 
d="M28 -521v44q116 0 195.5 64t80.5 188q1 78 -30.5 192.5t-31.5 168.5q0 122 69 194.5t187 93.5v8q-132 19 -193.5 97.5t-61.5 188.5q0 54 31 174t30 192q-2 110 -73 176t-203 72v44q87 -1 157 -24t113 -58t72 -80.5t40.5 -87.5t12.5 -83q1 -73 -31.5 -189.5t-32.5 -173.5
q0 -190 175 -211v-84q-75 -6 -125 -53.5t-50 -152.5q0 -53 32.5 -172.5t31.5 -196.5q0 -66 -26 -126.5t-74 -107.5t-124.5 -73.5t-170.5 -23.5z" />
    <glyph glyph-name="asciitilde" unicode="~" horiz-adv-x="1311" 
d="M178 532q1 39 8 77.5t25 81.5t45.5 75t73.5 53t104 21t114.5 -22t166.5 -83q52 -34 71.5 -45.5t51 -22.5t65.5 -11q76 0 121.5 49.5t49.5 139.5h58q2 -132 -65.5 -221t-193.5 -89q-72 0 -126 22t-147 78q-12 7 -18 11q-59 39 -96 55.5t-81 16.5q-78 0 -121 -48t-48 -138
h-58z" />
    <glyph glyph-name="uni00A0" unicode="&#xa0;" horiz-adv-x="545" 
 />
    <glyph glyph-name="exclamdown" unicode="&#xa1;" horiz-adv-x="571" 
d="M285 888q50 0 86.5 -37t36.5 -89t-36.5 -89t-86.5 -37q-52 0 -88.5 37t-36.5 89t37 89t88 37zM250 409h71l37 -715q8 -128 8 -133q0 -22 -4 -37.5t-23 -30t-54 -14.5t-54.5 14.5t-23 30t-3.5 37.5q0 19 7 142z" />
    <glyph glyph-name="cent" unicode="&#xa2;" horiz-adv-x="1031" 
d="M864 462l65 -30q-112 -254 -380 -254q-27 0 -53 3l-72 -363h-59l74 372q-150 33 -241.5 150.5t-91.5 284.5q0 203 132 332.5t329 129.5q16 0 50 -2l73 367h59l-75 -376q87 -19 150 -66t82 -121q4 -33 -12 -57t-47 -25q-24 -1 -41.5 13t-24 29t-12.5 37q-42 79 -111 109
l-145 -727q29 -7 66 -7q107 0 179.5 58t105.5 143zM279 656q0 -141 47 -236t132 -134l144 726q-20 3 -43 3q-70 0 -125.5 -33t-88 -86.5t-49.5 -115t-17 -124.5z" />
    <glyph glyph-name="sterling" unicode="&#xa3;" horiz-adv-x="1481" 
d="M171 -36q-28 0 -49 23q-19 21 -13 48q12 29 39 63t46.5 53t56.5 52l37 33q99 165 156 390h-325l24 91h322q7 26 20.5 75.5t22 80t21.5 71.5t25 73q72 194 185.5 275.5t284.5 81.5q116 0 192.5 -50.5t99.5 -138.5q2 -29 -15.5 -50t-43.5 -23q-48 -2 -77 59
q-60 127 -187 127q-53 0 -95.5 -16t-71.5 -40.5t-54 -66t-41.5 -82t-34.5 -98.5q-14 -41 -40.5 -135t-43.5 -143h361l-22 -91h-373q-56 -170 -137 -303q65 38 138 38q39 0 73.5 -11t69.5 -37.5t54 -44.5t57 -57q75 -78 124.5 -111t119.5 -33q59 0 101 37.5t58 90.5
q5 11 3 40t-4 42t-8 44.5t-8 46.5q-5 69 52 74q33 2 53.5 -20t23.5 -56q10 -52 -5 -113q-23 -114 -116.5 -198.5t-213.5 -84.5q-57 0 -105 14t-88 43t-64 52t-58 61q-36 40 -58 61t-55 39t-66 18q-84 0 -162 -82q-18 -27 -43 -66.5t-39 -60.5t-32 -43.5t-35.5 -32
t-36.5 -9.5z" />
    <glyph glyph-name="currency" unicode="&#xa4;" horiz-adv-x="1253" 
d="M242 291l-54 56l130 128q-88 123 -88 248q0 127 90 251l-132 131l54 56l135 -131q122 91 249 91q131 0 252 -91l133 131l54 -56l-130 -130q89 -126 89 -252q0 -121 -88 -247l129 -129l-54 -56l-133 131q-121 -91 -252 -91q-130 0 -250 90zM626 408q131 0 225 93t94 223
q0 132 -95 226t-224 94t-222.5 -94.5t-93.5 -225.5q0 -130 93 -223t223 -93z" />
    <glyph glyph-name="yen" unicode="&#xa5;" horiz-adv-x="1521" 
d="M447 0v72h151q52 0 73 26t21 81v165h-468v67h468v79l-52 88h-416v67h376l-317 535q-31 55 -55.5 78.5t-60.5 23.5h-78v71h535v-71h-107q-51 0 -60.5 -33t20.5 -79l350 -584l340 566q32 53 19.5 91.5t-68.5 38.5h-100v71h402v-71h-31q-62 0 -121 -103l-323 -534h386v-67
h-421l-52 -82v-85h473v-67h-473v-165q0 -55 19.5 -81t70.5 -26h154v-72h-655z" />
    <glyph glyph-name="brokenbar" unicode="&#xa6;" horiz-adv-x="888" 
d="M374 566v787h140v-787h-140zM374 -482v790h140v-790h-140z" />
    <glyph glyph-name="section" unicode="&#xa7;" horiz-adv-x="1101" 
d="M537 -498q-147 0 -240.5 68t-98.5 184q-1 37 20.5 56.5t46.5 19.5q53 0 70 -69q13 -94 67 -140.5t156 -46.5t160 51.5t58 146.5q0 27 -7.5 52t-17.5 44.5t-32.5 41.5t-39.5 36.5t-52 37.5t-57 36t-68 39.5t-72 41.5q-107 64 -172.5 116t-108.5 124t-43 155
q0 111 67.5 189t208.5 92q-180 120 -180 283q0 149 100 231.5t262 82.5q152 0 243 -69.5t96 -179.5q1 -35 -20 -55t-49 -20q-31 0 -45.5 18.5t-24.5 55.5q-26 178 -222 178q-108 0 -165 -52.5t-57 -146.5q0 -38 17.5 -73t35 -57.5t68 -57t75 -48.5t97.5 -54q17 -9 25 -14
q71 -40 114.5 -67.5t94.5 -68.5t79 -79t47 -90.5t19 -111.5q0 -72 -22 -127t-60.5 -87.5t-85 -50.5t-102.5 -22q175 -119 175 -283q0 -149 -101.5 -229.5t-258.5 -80.5zM643 165q112 -15 175 32t63 137q0 72 -63 146.5t-156 132.5t-206 101q-115 14 -177.5 -33t-62.5 -137
q0 -105 124 -209.5t303 -169.5z" />
    <glyph glyph-name="dieresis" unicode="&#xa8;" horiz-adv-x="799" 
d="M213 1130q-40 0 -68 28.5t-28 66.5q0 40 28 68t68 28t68 -28t28 -68q0 -41 -28 -68t-68 -27zM585 1130q-40 0 -67.5 28.5t-27.5 66.5q0 40 28 68t67 28q40 0 68 -28t28 -68q0 -41 -28 -68t-68 -27z" />
    <glyph glyph-name="copyright" unicode="&#xa9;" horiz-adv-x="1644" 
d="M820 -28q-190 0 -351 94t-255 256t-94 353q0 190 94.5 351.5t255.5 255.5t350 94q190 0 352.5 -94t257 -255.5t94.5 -351.5q0 -143 -56 -273t-150 -224.5t-224.5 -150t-273.5 -55.5zM820 34q174 0 321.5 86t233.5 233.5t86 321.5q0 130 -51 248.5t-137 204t-204.5 136
t-248.5 50.5q-129 0 -247 -50.5t-203.5 -136t-136.5 -204t-51 -248.5q0 -174 85.5 -321.5t232.5 -233.5t320 -86zM821 248q-174 0 -294 116t-120 306t121.5 311.5t300.5 121.5q119 0 240 -63q56 -24 58 35h40v-205h-40q-36 98 -114.5 143.5t-164.5 45.5q-63 0 -116.5 -22
t-90 -59t-62.5 -85.5t-38 -102t-12 -108.5q0 -173 85.5 -278.5t231.5 -105.5q106 0 185 54t115 131l21 -41q-54 -93 -145 -143.5t-201 -50.5z" />
    <glyph glyph-name="guillemotleft" unicode="&#xab;" horiz-adv-x="1015" 
d="M367 0l-328 440l327 441h76l-248 -441l249 -440h-76zM861 0l-330 440l328 441h77l-248 -441l248 -440h-75z" />
    <glyph glyph-name="logicalnot" unicode="&#xac;" horiz-adv-x="1392" 
d="M1043 334v522h-948v115h1063v-637h-115z" />
    <glyph glyph-name="uni00AD" unicode="&#xad;" horiz-adv-x="887" 
d="M147 335v143h592v-143h-592z" />
    <glyph glyph-name="registered" unicode="&#xae;" horiz-adv-x="1644" 
d="M820 1378q190 0 352.5 -94t257 -255.5t94.5 -351.5q0 -143 -56 -273t-150 -224.5t-224.5 -150t-273.5 -55.5q-190 0 -351 94t-255 256t-94 353q0 190 94.5 351.5t255.5 255.5t350 94zM820 36q174 0 321.5 86t233.5 233.5t86 321.5q0 130 -51 248.5t-137 204t-204.5 136
t-248.5 50.5q-129 0 -247 -50.5t-203.5 -136t-136.5 -204t-51 -248.5q0 -131 50.5 -249.5t136 -204.5t203.5 -136.5t248 -50.5zM1166 372q23 -34 54 -34h43v-45h-145l-174 266q-34 52 -61.5 71t-68.5 19h-136v-262q0 -27 10 -38t37 -11h68v-45h-322v45h67q29 0 39 10.5
t10 38.5v590q0 27 -10 39t-36 12h-70v43h392q117 0 188 -53t71 -156q0 -151 -168 -197q35 -27 74 -87zM840 694q89 0 139 40t50 125q0 81 -49 122t-136 41h-166v-328h162z" />
    <glyph glyph-name="macron" unicode="&#xaf;" horiz-adv-x="1018" 
d="M146 1105v123h725v-123h-725z" />
    <glyph glyph-name="degree" unicode="&#xb0;" horiz-adv-x="1017" 
d="M507 658q-148 0 -253.5 105.5t-105.5 254.5t105.5 254.5t253.5 105.5q149 0 254.5 -106t105.5 -254t-105.5 -254t-254.5 -106zM507 750q112 0 190 78t78 190t-78 190t-190 78t-190 -78t-78 -190t78 -190t190 -78z" />
    <glyph glyph-name="plusminus" unicode="&#xb1;" horiz-adv-x="1320" 
d="M602 358v498h-497v115h497v497h115v-497h498v-115h-498v-498h-115zM105 0v115h1110v-115h-1110z" />
    <glyph glyph-name="acute" unicode="&#xb4;" horiz-adv-x="531" 
d="M111 1030h-61l223 322h237v-4z" />
    <glyph glyph-name="uni00B5" unicode="&#xb5;" horiz-adv-x="1311" 
d="M259 -426v1114q0 96 -81 96h-82v71h328v-562q0 -112 39.5 -166t132.5 -54q48 0 94.5 26.5t83.5 69.5t66 91.5t48 99.5v328q0 42 -16.5 69t-50.5 27h-95v71h328v-686q0 -48 18.5 -72t64.5 -18l85 21l6 -72l-340 -52v249q-51 -91 -124.5 -156.5t-154.5 -75.5
q-126 -16 -185 41v-460h-165z" />
    <glyph glyph-name="paragraph" unicode="&#xb6;" horiz-adv-x="1147" 
d="M522 -510v1090q-31 27 -81 52.5t-97 42.5t-97 43.5t-87 57t-61 81.5t-24 118q0 92 26.5 158.5t73 108.5t121 66.5t159 34t199.5 9.5h440v-42h-45q-102 0 -140 -52t-38 -154v-1614h-66v1805h-215v-1805h-68z" />
    <glyph glyph-name="periodcentered" unicode="&#xb7;" horiz-adv-x="604" 
d="M302 550q-52 0 -89 36t-37 91q0 52 36 87.5t90 35.5q52 0 88.5 -35.5t36.5 -87.5q0 -55 -36.5 -91t-88.5 -36z" />
    <glyph glyph-name="cedilla" unicode="&#xb8;" horiz-adv-x="598" 
d="M230 -488q-103 0 -199 25l15 72q75 -19 164 -19q110 0 170 34t60 84q0 22 -14 37t-34.5 22.5t-52.5 11t-57.5 4.5t-60.5 1h-25l46 241l79 -7l-32 -152q252 0 252 -152q0 -83 -82 -142.5t-229 -59.5z" />
    <glyph glyph-name="guillemotright" unicode="&#xbb;" horiz-adv-x="1015" 
d="M154 0h-75l248 440l-248 441h77l328 -441zM648 0h-76l249 440l-248 441h76l327 -441z" />
    <glyph glyph-name="questiondown" unicode="&#xbf;" horiz-adv-x="876" 
d="M542 636q-50 0 -86.5 37t-36.5 89t36.5 89t86.5 37q51 0 87.5 -37t36.5 -89t-36.5 -89t-87.5 -37zM758 -226q23 -3 40 -20t15 -43q-22 -97 -116.5 -164.5t-229.5 -67.5q-174 0 -282.5 111t-108.5 270q0 161 95.5 257t224.5 96q52 0 107 -17v212h78v-301h-63
q-32 23 -83 23q-64 0 -110.5 -42.5t-66 -99.5t-19.5 -118q0 -51 15 -104.5t43.5 -102.5t76.5 -80t106 -31q71 0 129.5 41t81.5 116q5 19 10 31t20 23.5t37 10.5z" />
    <glyph glyph-name="Agrave" unicode="&#xc0;" horiz-adv-x="1372" 
d="M721 1438h-61l-399 317v4h237zM1295 73l65 -1v-72h-522v72l111 1q32 1 47.5 18t5.5 47l-108 300h-534l-108 -287q-13 -36 9 -57t58 -21l117 -1v-72h-424v72l48 4q91 34 123 120l454 1180h100l435 -1180q20 -55 47 -85t76 -38zM387 511h480l-219 608h-32z" />
    <glyph glyph-name="Aacute" unicode="&#xc1;" horiz-adv-x="1372" 
d="M1119 1755l-399 -317h-61l224 321h236v-4zM1295 73l65 -1v-72h-522v72l111 1q32 1 47.5 18t5.5 47l-108 300h-534l-108 -287q-13 -36 9 -57t58 -21l117 -1v-72h-424v72l48 4q91 34 123 120l454 1180h100l435 -1180q20 -55 47 -85t76 -38zM387 511h480l-219 608h-32z" />
    <glyph glyph-name="Acircumflex" unicode="&#xc2;" horiz-adv-x="1372" 
d="M690 1712l-295 -242h-61l251 322h209l251 -322h-61zM1295 73l65 -1v-72h-522v72l111 1q32 1 47.5 18t5.5 47l-108 300h-534l-108 -287q-13 -36 9 -57t58 -21l117 -1v-72h-424v72l48 4q91 34 123 120l454 1180h100l435 -1180q20 -55 47 -85t76 -38zM387 511h480l-219 608
h-32z" />
    <glyph glyph-name="Atilde" unicode="&#xc3;" horiz-adv-x="1372" 
d="M404 1440h-59q-2 121 50 190.5t148 69.5q34 0 70.5 -13.5t52 -23t57.5 -36.5q4 -3 18.5 -14t18.5 -13.5t16 -10.5t18.5 -10.5t17.5 -6.5t21.5 -5.5t22.5 -1.5q52 0 84 38.5t34 111.5h60q5 -116 -47 -194.5t-149 -78.5q-38 0 -76 13.5t-57.5 26t-54.5 37.5
q-26 20 -42.5 30.5t-41.5 20t-49 9.5q-54 0 -82.5 -39t-30.5 -100zM1295 73l65 -1v-72h-522v72l111 1q32 1 47.5 18t5.5 47l-108 300h-534l-108 -287q-13 -36 9 -57t58 -21l117 -1v-72h-424v72l48 4q91 34 123 120l454 1180h100l435 -1180q20 -55 47 -85t76 -38zM387 511
h480l-219 608h-32z" />
    <glyph glyph-name="Adieresis" unicode="&#xc4;" horiz-adv-x="1372" 
d="M503 1510q-40 0 -68 29t-28 67q0 39 28 67t68 28t68 -28t28 -67q0 -41 -28 -68.5t-68 -27.5zM875 1510q-40 0 -67.5 29t-27.5 67q0 40 28 67.5t67 27.5q40 0 68 -28t28 -67q0 -41 -28 -68.5t-68 -27.5zM1295 73l65 -1v-72h-522v72l111 1q32 1 47.5 18t5.5 47l-108 300
h-534l-108 -287q-13 -36 9 -57t58 -21l117 -1v-72h-424v72l48 4q91 34 123 120l454 1180h100l435 -1180q20 -55 47 -85t76 -38zM387 511h480l-219 608h-32z" />
    <glyph glyph-name="Aring" unicode="&#xc5;" horiz-adv-x="1372" 
d="M690 1443q-76 0 -130 54t-54 131t54 130.5t130 53.5q77 0 131.5 -54t54.5 -130t-54.5 -130.5t-131.5 -54.5zM690 1756q-52 0 -89 -37.5t-37 -90.5t37 -90.5t89 -37.5q54 0 91 37.5t37 90.5t-37 90.5t-91 37.5zM1295 73l65 -1v-72h-522v72l111 1q32 1 47.5 18t5.5 47
l-108 300h-534l-108 -287q-13 -36 9 -57t58 -21l117 -1v-72h-424v72l48 4q91 34 123 120l454 1180h100l435 -1180q20 -55 47 -85t76 -38zM387 511h480l-219 608h-32z" />
    <glyph glyph-name="AE" unicode="&#xc6;" horiz-adv-x="1986" 
d="M1806 447l71 -3l-28 -444h-1181v72h106q52 0 72 27.5t20 79.5v259h-471l-143 -287q-18 -36 6 -57t61 -21l117 -1v-72h-424v72l48 4q35 14 61 36.5t37 39t25 44.5l578 1156h1028l21 -349l-71 -3l-25 182q-18 57 -48 75t-87 18h-534v-528h344q100 0 100 74v112h73v-460h-73
v113q0 47 -26 65.5t-72 18.5h-346v-475q0 -61 19 -90t78 -29h459q78 0 112 23.5t49 78.5zM431 511h435l-1 764h-53z" />
    <glyph glyph-name="Ccedilla" unicode="&#xc7;" horiz-adv-x="1498" 
d="M1258 511h72v-482h-72l-25 243q-57 -119 -183 -204t-290 -92l-23 -110q252 0 252 -152q0 -83 -82 -142.5t-229 -59.5q-103 0 -199 25l15 72q75 -19 164 -19q110 0 170 34t60 84q0 22 -14 37t-34.5 22.5t-52.5 11t-57.5 4.5t-60.5 1h-25l37 194q-133 11 -245 72.5
t-187 156.5t-117 215.5t-42 249.5q0 137 46.5 264t129 224.5t206 156.5t267.5 59t271.5 -74.5t216.5 -216.5l18 237h71l5 -473h-70q-17 80 -58 157t-101.5 142.5t-147 106t-183.5 40.5q-115 0 -207 -53.5t-148 -144t-85.5 -203t-29.5 -237.5q0 -267 129 -433.5t346 -166.5
q171 0 308.5 121.5t183.5 332.5z" />
    <glyph glyph-name="Egrave" unicode="&#xc8;" horiz-adv-x="1376" 
d="M719 1438h-61l-399 317v4h237zM1196 447l71 -3l-28 -444h-1181v72h106q52 0 72 27.5t20 79.5v993q0 57 -21.5 82.5t-81.5 25.5h-95v72h1121l21 -349l-71 -3l-25 182q-18 57 -48 75t-87 18h-534v-528h344q101 0 101 74v112h72v-460h-72v113q0 84 -99 84h-346v-475
q0 -61 19 -90t78 -29h459q78 0 112 23.5t49 78.5z" />
    <glyph glyph-name="Eacute" unicode="&#xc9;" horiz-adv-x="1376" 
d="M1117 1755l-399 -317h-61l224 321h236v-4zM1196 447l71 -3l-28 -444h-1181v72h106q52 0 72 27.5t20 79.5v993q0 57 -21.5 82.5t-81.5 25.5h-95v72h1121l21 -349l-71 -3l-25 182q-18 57 -48 75t-87 18h-534v-528h344q101 0 101 74v112h72v-460h-72v113q0 84 -99 84h-346
v-475q0 -61 19 -90t78 -29h459q78 0 112 23.5t49 78.5z" />
    <glyph glyph-name="Ecircumflex" unicode="&#xca;" horiz-adv-x="1376" 
d="M688 1712l-295 -242h-61l251 322h209l251 -322h-61zM1196 447l71 -3l-28 -444h-1181v72h106q52 0 72 27.5t20 79.5v993q0 57 -21.5 82.5t-81.5 25.5h-95v72h1121l21 -349l-71 -3l-25 182q-18 57 -48 75t-87 18h-534v-528h344q101 0 101 74v112h72v-460h-72v113
q0 84 -99 84h-346v-475q0 -61 19 -90t78 -29h459q78 0 112 23.5t49 78.5z" />
    <glyph glyph-name="Edieresis" unicode="&#xcb;" horiz-adv-x="1376" 
d="M501 1510q-40 0 -68 29t-28 67q0 39 28 67t68 28t68 -28t28 -67q0 -41 -28 -68.5t-68 -27.5zM873 1510q-40 0 -67.5 29t-27.5 67q0 40 28 67.5t67 27.5q40 0 68 -28t28 -67q0 -41 -28 -68.5t-68 -27.5zM1196 447l71 -3l-28 -444h-1181v72h106q52 0 72 27.5t20 79.5v993
q0 57 -21.5 82.5t-81.5 25.5h-95v72h1121l21 -349l-71 -3l-25 182q-18 57 -48 75t-87 18h-534v-528h344q101 0 101 74v112h72v-460h-72v113q0 84 -99 84h-346v-475q0 -61 19 -90t78 -29h459q78 0 112 23.5t49 78.5z" />
    <glyph glyph-name="Igrave" unicode="&#xcc;" horiz-adv-x="757" 
d="M349 1438l-399 317v4h237l223 -321h-61zM59 0v72h125q62 0 83.5 25.5t21.5 81.5v995q0 56 -21.5 82t-83.5 26h-125v71h639v-71h-124q-63 0 -85 -25t-22 -83v-995q0 -58 22 -82.5t85 -24.5h124v-72h-639z" />
    <glyph glyph-name="Iacute" unicode="&#xcd;" horiz-adv-x="757" 
d="M348 1438l224 321h236v-4l-399 -317h-61zM59 0v72h125q62 0 83.5 25.5t21.5 81.5v995q0 56 -21.5 82t-83.5 26h-125v71h639v-71h-124q-63 0 -85 -25t-22 -83v-995q0 -58 22 -82.5t85 -24.5h124v-72h-639z" />
    <glyph glyph-name="Icircumflex" unicode="&#xce;" horiz-adv-x="757" 
d="M23 1470l251 322h209l251 -322h-61l-294 242l-295 -242h-61zM59 0v72h125q62 0 83.5 25.5t21.5 81.5v995q0 56 -21.5 82t-83.5 26h-125v71h639v-71h-124q-63 0 -85 -25t-22 -83v-995q0 -58 22 -82.5t85 -24.5h124v-72h-639z" />
    <glyph glyph-name="Idieresis" unicode="&#xcf;" horiz-adv-x="757" 
d="M192 1510q-40 0 -68 29t-28 67q0 39 28 67t68 28t68 -28t28 -67q0 -41 -28 -68.5t-68 -27.5zM564 1510q-40 0 -67.5 29t-27.5 67q0 40 28 67.5t67 27.5q40 0 68 -28t28 -67q0 -41 -28 -68.5t-68 -27.5zM59 0v72h125q62 0 83.5 25.5t21.5 81.5v995q0 56 -21.5 82t-83.5 26
h-125v71h639v-71h-124q-63 0 -85 -25t-22 -83v-995q0 -58 22 -82.5t85 -24.5h124v-72h-639z" />
    <glyph glyph-name="Eth" unicode="&#xd0;" horiz-adv-x="1549" 
d="M666 1352q243 0 419 -73t275 -227t99 -378q0 -172 -56.5 -301.5t-161.5 -210.5t-249 -121.5t-326 -40.5h-607v72h118q82 0 82 107v458h-198v77h198v460q0 53 -18.5 80.5t-65.5 27.5h-116v70h607zM770 76q150 0 262 79.5t169 214t57 305.5q0 154 -44 273t-121.5 191.5
t-175.5 109t-213 36.5h-266v-571h440v-77h-440v-441q0 -61 20.5 -90.5t87.5 -29.5h224z" />
    <glyph glyph-name="Ntilde" unicode="&#xd1;" horiz-adv-x="1552" 
d="M498 1440h-59q-2 121 50 190.5t148 69.5q34 0 70.5 -13.5t52 -23t57.5 -36.5q4 -3 18.5 -14t18.5 -13.5t16 -10.5t18.5 -10.5t17.5 -6.5t21.5 -5.5t22.5 -1.5q52 0 84 38.5t34 111.5h60q5 -116 -47 -194.5t-149 -78.5q-38 0 -76 13.5t-57.5 26t-54.5 37.5
q-26 20 -42.5 30.5t-41.5 20t-49 9.5q-54 0 -82.5 -39t-30.5 -100zM1044 1352h474v-72h-96q-50 0 -73 -37.5t-23 -96.5v-1169h-85l-906 1200v-967q0 -138 108 -138h94v-72h-480v72h96q104 0 104 138v944q0 58 -27.5 92t-81.5 34h-93v72h372l821 -1092v887q0 22 -4 42t-14 42
t-32.5 35.5t-53.5 13.5h-100v72z" />
    <glyph glyph-name="Ograve" unicode="&#xd2;" horiz-adv-x="1507" 
d="M724 1438l-399 317v4h237l223 -321h-61zM755 -24q-199 0 -350.5 91t-231.5 250.5t-80 362.5q0 137 44 261.5t125.5 222t208 155t279.5 57.5q160 0 289 -58.5t209.5 -157.5t123.5 -223.5t43 -261.5q0 -141 -44.5 -267t-126 -222.5t-208.5 -153t-281 -56.5zM750 57
q215 0 336.5 161t121.5 458q0 300 -123.5 459.5t-332.5 159.5q-145 0 -249.5 -80t-155 -216.5t-50.5 -314.5q0 -122 27 -232t80.5 -199.5t142.5 -142.5t203 -53z" />
    <glyph glyph-name="Oacute" unicode="&#xd3;" horiz-adv-x="1507" 
d="M723 1438l224 321h236v-4l-399 -317h-61zM755 -24q-199 0 -350.5 91t-231.5 250.5t-80 362.5q0 137 44 261.5t125.5 222t208 155t279.5 57.5q160 0 289 -58.5t209.5 -157.5t123.5 -223.5t43 -261.5q0 -141 -44.5 -267t-126 -222.5t-208.5 -153t-281 -56.5zM750 57
q215 0 336.5 161t121.5 458q0 300 -123.5 459.5t-332.5 159.5q-145 0 -249.5 -80t-155 -216.5t-50.5 -314.5q0 -122 27 -232t80.5 -199.5t142.5 -142.5t203 -53z" />
    <glyph glyph-name="Ocircumflex" unicode="&#xd4;" horiz-adv-x="1507" 
d="M398 1470l251 322h209l251 -322h-61l-294 242l-295 -242h-61zM755 -24q-199 0 -350.5 91t-231.5 250.5t-80 362.5q0 137 44 261.5t125.5 222t208 155t279.5 57.5q160 0 289 -58.5t209.5 -157.5t123.5 -223.5t43 -261.5q0 -141 -44.5 -267t-126 -222.5t-208.5 -153
t-281 -56.5zM750 57q215 0 336.5 161t121.5 458q0 300 -123.5 459.5t-332.5 159.5q-145 0 -249.5 -80t-155 -216.5t-50.5 -314.5q0 -122 27 -232t80.5 -199.5t142.5 -142.5t203 -53z" />
    <glyph glyph-name="Otilde" unicode="&#xd5;" horiz-adv-x="1507" 
d="M409 1440q-2 121 50 190.5t148 69.5q34 0 70.5 -13.5t52 -23t57.5 -36.5q4 -3 18.5 -14t18.5 -13.5t16 -10.5t18.5 -10.5t17.5 -6.5t21.5 -5.5t22.5 -1.5q52 0 84 38.5t34 111.5h60q5 -116 -47 -194.5t-149 -78.5q-38 0 -76 13.5t-57.5 26t-54.5 37.5q-26 20 -42.5 30.5
t-41.5 20t-49 9.5q-54 0 -82.5 -39t-30.5 -100h-59zM755 -24q-199 0 -350.5 91t-231.5 250.5t-80 362.5q0 137 44 261.5t125.5 222t208 155t279.5 57.5q160 0 289 -58.5t209.5 -157.5t123.5 -223.5t43 -261.5q0 -141 -44.5 -267t-126 -222.5t-208.5 -153t-281 -56.5zM750 57
q215 0 336.5 161t121.5 458q0 300 -123.5 459.5t-332.5 159.5q-145 0 -249.5 -80t-155 -216.5t-50.5 -314.5q0 -122 27 -232t80.5 -199.5t142.5 -142.5t203 -53z" />
    <glyph glyph-name="Odieresis" unicode="&#xd6;" horiz-adv-x="1507" 
d="M567 1510q-40 0 -68 29t-28 67q0 39 28 67t68 28t68 -28t28 -67q0 -41 -28 -68.5t-68 -27.5zM939 1510q-40 0 -67.5 29t-27.5 67q0 40 28 67.5t67 27.5q40 0 68 -28t28 -67q0 -41 -28 -68.5t-68 -27.5zM755 -24q-199 0 -350.5 91t-231.5 250.5t-80 362.5q0 137 44 261.5
t125.5 222t208 155t279.5 57.5q160 0 289 -58.5t209.5 -157.5t123.5 -223.5t43 -261.5q0 -141 -44.5 -267t-126 -222.5t-208.5 -153t-281 -56.5zM750 57q215 0 336.5 161t121.5 458q0 300 -123.5 459.5t-332.5 159.5q-145 0 -249.5 -80t-155 -216.5t-50.5 -314.5
q0 -122 27 -232t80.5 -199.5t142.5 -142.5t203 -53z" />
    <glyph glyph-name="multiply" unicode="&#xd7;" horiz-adv-x="1077" 
d="M186 220l-81 82l351 351l-351 353l81 81l353 -352l351 352l81 -81l-351 -353l351 -351l-81 -82l-351 352z" />
    <glyph glyph-name="Oslash" unicode="&#xd8;" horiz-adv-x="1507" 
d="M1238 1171q87 -97 132 -226t45 -270t-44.5 -267t-126 -222.5t-208.5 -153t-281 -56.5q-260 0 -434 152l-127 -145l-56 48l130 148q-175 195 -175 501q0 137 44 261.5t125.5 222t208 155t279.5 57.5q262 0 437 -154l128 146l54 -48zM297 684q0 -219 80 -382l719 817
q-120 176 -344 176q-145 0 -249.5 -80t-155 -216.5t-50.5 -314.5zM750 57q215 0 336.5 161t121.5 458q0 226 -73 377l-719 -817q122 -179 334 -179z" />
    <glyph glyph-name="Ugrave" unicode="&#xd9;" horiz-adv-x="1511" 
d="M721 1438l-399 317v4h237l223 -321h-61zM762 -24q-266 0 -403.5 134t-137.5 394v668q0 56 -21 82t-82 26h-92v72h615v-72h-138q-59 0 -81.5 -25t-22.5 -83v-668q0 -217 97.5 -330t306.5 -113q222 0 321 116.5t99 342.5v633q0 57 -26.5 92t-83.5 35h-85v72h448v-72h-78
q-50 0 -73.5 -34.5t-23.5 -90.5v-637q0 -542 -539 -542z" />
    <glyph glyph-name="Uacute" unicode="&#xda;" horiz-adv-x="1511" 
d="M720 1438l224 321h236v-4l-399 -317h-61zM762 -24q-266 0 -403.5 134t-137.5 394v668q0 56 -21 82t-82 26h-92v72h615v-72h-138q-59 0 -81.5 -25t-22.5 -83v-668q0 -217 97.5 -330t306.5 -113q222 0 321 116.5t99 342.5v633q0 57 -26.5 92t-83.5 35h-85v72h448v-72h-78
q-50 0 -73.5 -34.5t-23.5 -90.5v-637q0 -542 -539 -542z" />
    <glyph glyph-name="Ucircumflex" unicode="&#xdb;" horiz-adv-x="1511" 
d="M395 1470l251 322h209l251 -322h-61l-294 242l-295 -242h-61zM762 -24q-266 0 -403.5 134t-137.5 394v668q0 56 -21 82t-82 26h-92v72h615v-72h-138q-59 0 -81.5 -25t-22.5 -83v-668q0 -217 97.5 -330t306.5 -113q222 0 321 116.5t99 342.5v633q0 57 -26.5 92t-83.5 35
h-85v72h448v-72h-78q-50 0 -73.5 -34.5t-23.5 -90.5v-637q0 -542 -539 -542z" />
    <glyph glyph-name="Udieresis" unicode="&#xdc;" horiz-adv-x="1511" 
d="M564 1510q-40 0 -68 29t-28 67q0 39 28 67t68 28t68 -28t28 -67q0 -41 -28 -68.5t-68 -27.5zM936 1510q-40 0 -67.5 29t-27.5 67q0 40 28 67.5t67 27.5q40 0 68 -28t28 -67q0 -41 -28 -68.5t-68 -27.5zM762 -24q-266 0 -403.5 134t-137.5 394v668q0 56 -21 82t-82 26h-92
v72h615v-72h-138q-59 0 -81.5 -25t-22.5 -83v-668q0 -217 97.5 -330t306.5 -113q222 0 321 116.5t99 342.5v633q0 57 -26.5 92t-83.5 35h-85v72h448v-72h-78q-50 0 -73.5 -34.5t-23.5 -90.5v-637q0 -542 -539 -542z" />
    <glyph glyph-name="Yacute" unicode="&#xdd;" horiz-adv-x="1390" 
d="M667 1438l224 321h236v-4l-399 -317h-61zM377 0v72h148q60 0 80.5 26t20.5 80v312l-415 688q-31 53 -58 77.5t-64 24.5h-78v72h557v-72h-110q-51 0 -58.5 -34t21.5 -78l353 -582l338 557q35 60 23 98.5t-71 38.5h-89v72h404v-72h-38q-61 0 -122 -104l-414 -676l-1 -321
q0 -56 21 -81.5t81 -25.5h147v-72h-676z" />
    <glyph glyph-name="Thorn" unicode="&#xde;" horiz-adv-x="1233" 
d="M59 0v72h91q62 0 83.5 25.5t21.5 81.5v995q0 56 -21.5 82t-83.5 26h-91v71h570v-71h-89q-107 0 -107 -76v-70h251q112 0 200 -20.5t155 -62.5t103 -112t36 -166q0 -183 -125.5 -276t-349.5 -93h-267v-227q0 -52 20.5 -79.5t84.5 -27.5h97v-72h-579zM436 482h252
q141 0 219.5 70t78.5 220q0 148 -75.5 221.5t-220.5 73.5h-254v-585z" />
    <glyph glyph-name="germandbls" unicode="&#xdf;" horiz-adv-x="1214" 
d="M823 -20q-58 0 -99.5 17t-61 44.5t-27.5 52t-8 49.5q0 21 9 32.5t24 11.5q25 0 27 -32q2 -45 26.5 -76t83.5 -31q171 0 171 304q0 336 -379 332v72q51 1 88.5 6.5t77.5 22.5t65 46t41.5 79.5t16.5 119.5q0 133 -64 208t-196 75q-144 0 -205 -92t-61 -270l3 -793
q0 -41 14.5 -63.5t50.5 -22.5h134v-72h-521v72h76q48 0 64.5 23.5t16.5 71.5l-3 713q-1 87 9 156t38.5 137t75.5 113t125.5 73t183.5 28q211 0 315 -94.5t104 -257.5q0 -67 -22.5 -123t-60 -92t-76.5 -59t-81 -36q163 -19 252 -110t89 -254q0 -174 -87.5 -277.5
t-228.5 -103.5z" />
    <glyph glyph-name="agrave" unicode="&#xe0;" horiz-adv-x="1043" 
d="M481 1030l-399 318v4h237l223 -322h-61zM299 -20q-109 0 -159.5 53t-50.5 137q0 94 62.5 155.5t186.5 121.5l316 154q-5 121 -48.5 165t-148.5 44q-56 0 -98 -12.5t-66.5 -36.5t-38 -47t-24.5 -54q-14 -68 -75 -65q-32 1 -47 20.5t-12 48.5q8 41 33 78t70 69.5
t120.5 51.5t172.5 19q170 0 250 -66.5t79 -225.5l-1 -365q0 -82 17.5 -120t57.5 -38q71 0 77 120h60q-2 -102 -53 -154.5t-137 -52.5q-80 0 -122 46.5t-57 143.5q-177 -190 -364 -190zM365 68q150 0 290 190v268l-282 -154q-69 -38 -97 -79.5t-28 -93.5q0 -65 30.5 -98
t86.5 -33z" />
    <glyph glyph-name="aacute" unicode="&#xe1;" horiz-adv-x="1043" 
d="M481 1030h-61l223 322h237v-4zM299 -20q-109 0 -159.5 53t-50.5 137q0 94 62.5 155.5t186.5 121.5l316 154q-5 121 -48.5 165t-148.5 44q-56 0 -98 -12.5t-66.5 -36.5t-38 -47t-24.5 -54q-14 -68 -75 -65q-32 1 -47 20.5t-12 48.5q8 41 33 78t70 69.5t120.5 51.5
t172.5 19q170 0 250 -66.5t79 -225.5l-1 -365q0 -82 17.5 -120t57.5 -38q71 0 77 120h60q-2 -102 -53 -154.5t-137 -52.5q-80 0 -122 46.5t-57 143.5q-177 -190 -364 -190zM365 68q150 0 290 190v268l-282 -154q-69 -38 -97 -79.5t-28 -93.5q0 -65 30.5 -98t86.5 -33z" />
    <glyph glyph-name="acircumflex" unicode="&#xe2;" horiz-adv-x="1043" 
d="M125 1030l260 322h191l260 -322h-61l-294 242l-295 -242h-61zM299 -20q-109 0 -159.5 53t-50.5 137q0 94 62.5 155.5t186.5 121.5l316 154q-5 121 -48.5 165t-148.5 44q-56 0 -98 -12.5t-66.5 -36.5t-38 -47t-24.5 -54q-14 -68 -75 -65q-32 1 -47 20.5t-12 48.5
q8 41 33 78t70 69.5t120.5 51.5t172.5 19q170 0 250 -66.5t79 -225.5l-1 -365q0 -82 17.5 -120t57.5 -38q71 0 77 120h60q-2 -102 -53 -154.5t-137 -52.5q-80 0 -122 46.5t-57 143.5q-177 -190 -364 -190zM365 68q150 0 290 190v268l-282 -154q-69 -38 -97 -79.5t-28 -93.5
q0 -65 30.5 -98t86.5 -33z" />
    <glyph glyph-name="atilde" unicode="&#xe3;" horiz-adv-x="1043" 
d="M136 1012q-2 121 50 190.5t148 69.5q34 0 70.5 -13.5t52 -23t57.5 -36.5q3 -2 16 -12t16.5 -12t14.5 -9.5t16 -10t15 -7t17 -6t17.5 -3t20.5 -1.5q52 0 84 38.5t34 111.5h60q5 -117 -47 -195.5t-149 -78.5q-38 0 -76 13.5t-57.5 26t-54.5 37.5q-76 60 -133 60
q-54 0 -82.5 -39t-30.5 -100h-59zM299 -20q-109 0 -159.5 53t-50.5 137q0 94 62.5 155.5t186.5 121.5l316 154q-5 121 -48.5 165t-148.5 44q-56 0 -98 -12.5t-66.5 -36.5t-38 -47t-24.5 -54q-14 -68 -75 -65q-32 1 -47 20.5t-12 48.5q8 41 33 78t70 69.5t120.5 51.5
t172.5 19q170 0 250 -66.5t79 -225.5l-1 -365q0 -82 17.5 -120t57.5 -38q71 0 77 120h60q-2 -102 -53 -154.5t-137 -52.5q-80 0 -122 46.5t-57 143.5q-177 -190 -364 -190zM365 68q150 0 290 190v268l-282 -154q-69 -38 -97 -79.5t-28 -93.5q0 -65 30.5 -98t86.5 -33z" />
    <glyph glyph-name="adieresis" unicode="&#xe4;" horiz-adv-x="1043" 
d="M293 1130q-40 0 -68 28.5t-28 66.5q0 40 28 68t68 28t68 -28t28 -68q0 -41 -28 -68t-68 -27zM665 1130q-40 0 -67.5 28.5t-27.5 66.5q0 40 28 68t67 28q40 0 68 -28t28 -68q0 -41 -28 -68t-68 -27zM299 -20q-109 0 -159.5 53t-50.5 137q0 94 62.5 155.5t186.5 121.5
l316 154q-5 121 -48.5 165t-148.5 44q-56 0 -98 -12.5t-66.5 -36.5t-38 -47t-24.5 -54q-14 -68 -75 -65q-32 1 -47 20.5t-12 48.5q8 41 33 78t70 69.5t120.5 51.5t172.5 19q170 0 250 -66.5t79 -225.5l-1 -365q0 -82 17.5 -120t57.5 -38q71 0 77 120h60q-2 -102 -53 -154.5
t-137 -52.5q-80 0 -122 46.5t-57 143.5q-177 -190 -364 -190zM365 68q150 0 290 190v268l-282 -154q-69 -38 -97 -79.5t-28 -93.5q0 -65 30.5 -98t86.5 -33z" />
    <glyph glyph-name="aring" unicode="&#xe5;" horiz-adv-x="1043" 
d="M481 968q-77 0 -131.5 54.5t-54.5 132.5t54 131.5t132 53.5q77 0 131.5 -54t54.5 -131t-54.5 -132t-131.5 -55zM481 1026q54 0 91.5 37t37.5 92q0 54 -37.5 91.5t-91.5 37.5t-90.5 -37.5t-36.5 -91.5q0 -55 36.5 -92t90.5 -37zM299 -20q-109 0 -159.5 53t-50.5 137
q0 94 62.5 155.5t186.5 121.5l316 154q-5 121 -48.5 165t-148.5 44q-56 0 -98 -12.5t-66.5 -36.5t-38 -47t-24.5 -54q-14 -68 -75 -65q-32 1 -47 20.5t-12 48.5q8 41 33 78t70 69.5t120.5 51.5t172.5 19q170 0 250 -66.5t79 -225.5l-1 -365q0 -82 17.5 -120t57.5 -38
q71 0 77 120h60q-2 -102 -53 -154.5t-137 -52.5q-80 0 -122 46.5t-57 143.5q-177 -190 -364 -190zM365 68q150 0 290 190v268l-282 -154q-69 -38 -97 -79.5t-28 -93.5q0 -65 30.5 -98t86.5 -33z" />
    <glyph glyph-name="ae" unicode="&#xe6;" horiz-adv-x="1565" 
d="M1133 53q88 0 159.5 48.5t113.5 134.5l62 -35q-54 -104 -153 -166t-222 -62q-126 0 -226.5 62.5t-154.5 172.5q-129 -130 -216 -179t-197 -49q-109 0 -159.5 53t-50.5 137q0 94 62.5 155.5t186.5 121.5l316 154q-5 121 -48.5 165t-148.5 44q-56 0 -98 -12.5t-66.5 -36.5
t-38 -47t-24.5 -54q-14 -68 -75 -65q-32 1 -47 20.5t-12 48.5q8 41 33 78t70 69.5t120.5 51.5t172.5 19q229 0 295 -123q121 123 301 123q77 0 148.5 -27.5t131 -79.5t96 -138.5t37.5 -194.5h-664q0 -57 10 -110.5t33 -104.5t56.5 -89.5t84 -61.5t112.5 -23zM1089 809
q-76 0 -132.5 -45.5t-84.5 -111t-34 -141.5h504q-12 122 -77 210t-176 88zM655 258v268l-282 -154q-69 -38 -97 -79.5t-28 -93.5q0 -62 31 -96.5t89 -34.5q70 0 145 49.5t142 140.5z" />
    <glyph glyph-name="ccedilla" unicode="&#xe7;" horiz-adv-x="954" 
d="M515 -27h-16l-23 -107q252 0 252 -152q0 -83 -82 -142.5t-229 -59.5q-103 0 -199 25l15 72q75 -19 164 -19q110 0 170 34t60 84q0 22 -14 37t-34.5 22.5t-52.5 11t-57.5 4.5t-60.5 1h-25l38 198q-157 30 -253.5 148.5t-96.5 290.5q0 202 132 331.5t329 129.5
q75 0 143.5 -19.5t124 -66t72.5 -112.5q3 -34 -13 -57.5t-46 -24.5q-19 -1 -33 5.5t-23 21t-13.5 25t-9.5 27.5q-66 129 -209 129q-70 0 -125.5 -33t-88 -86.5t-49.5 -115t-17 -124.5q0 -186 80.5 -290.5t219.5 -104.5q107 0 179 58t106 143l65 -30q-112 -254 -380 -254z
" />
    <glyph glyph-name="egrave" unicode="&#xe8;" horiz-adv-x="976" 
d="M488 1030l-399 318v4h237l223 -322h-61zM504 -27q-186 0 -308.5 128.5t-122.5 329.5q0 200 122.5 325.5t303.5 125.5q77 0 148.5 -27.5t130.5 -79.5t95.5 -138.5t38.5 -194.5h-665q0 -72 17 -138.5t51 -124t93 -92t136 -34.5q87 0 158.5 48.5t113.5 134.5l63 -35
q-54 -104 -153 -166t-222 -62zM248 511h505q-12 122 -77.5 210t-176.5 88q-57 0 -104 -26t-77 -69.5t-47.5 -95t-22.5 -107.5z" />
    <glyph glyph-name="eacute" unicode="&#xe9;" horiz-adv-x="976" 
d="M488 1030h-61l223 322h237v-4zM504 -27q-186 0 -308.5 128.5t-122.5 329.5q0 200 122.5 325.5t303.5 125.5q77 0 148.5 -27.5t130.5 -79.5t95.5 -138.5t38.5 -194.5h-665q0 -72 17 -138.5t51 -124t93 -92t136 -34.5q87 0 158.5 48.5t113.5 134.5l63 -35
q-54 -104 -153 -166t-222 -62zM248 511h505q-12 122 -77.5 210t-176.5 88q-57 0 -104 -26t-77 -69.5t-47.5 -95t-22.5 -107.5z" />
    <glyph glyph-name="ecircumflex" unicode="&#xea;" horiz-adv-x="976" 
d="M132 1030l260 322h191l260 -322h-61l-294 242l-295 -242h-61zM504 -27q-186 0 -308.5 128.5t-122.5 329.5q0 200 122.5 325.5t303.5 125.5q77 0 148.5 -27.5t130.5 -79.5t95.5 -138.5t38.5 -194.5h-665q0 -72 17 -138.5t51 -124t93 -92t136 -34.5q87 0 158.5 48.5
t113.5 134.5l63 -35q-54 -104 -153 -166t-222 -62zM248 511h505q-12 122 -77.5 210t-176.5 88q-57 0 -104 -26t-77 -69.5t-47.5 -95t-22.5 -107.5z" />
    <glyph glyph-name="edieresis" unicode="&#xeb;" horiz-adv-x="976" 
d="M300 1130q-40 0 -68 28.5t-28 66.5q0 40 28 68t68 28t68 -28t28 -68q0 -41 -28 -68t-68 -27zM672 1130q-40 0 -67.5 28.5t-27.5 66.5q0 40 28 68t67 28q40 0 68 -28t28 -68q0 -41 -28 -68t-68 -27zM504 -27q-186 0 -308.5 128.5t-122.5 329.5q0 200 122.5 325.5
t303.5 125.5q77 0 148.5 -27.5t130.5 -79.5t95.5 -138.5t38.5 -194.5h-665q0 -72 17 -138.5t51 -124t93 -92t136 -34.5q87 0 158.5 48.5t113.5 134.5l63 -35q-54 -104 -153 -166t-222 -62zM248 511h505q-12 122 -77.5 210t-176.5 88q-57 0 -104 -26t-77 -69.5t-47.5 -95
t-22.5 -107.5z" />
    <glyph glyph-name="igrave" unicode="&#xec;" horiz-adv-x="598" 
d="M306 1030l-399 318v4h237l223 -322h-61zM60 0v72h90q49 0 67.5 21.5t18.5 73.5v506q0 55 -19.5 77t-68.5 15l-88 -21l-7 71l349 73v-721q0 -47 17 -71t61 -24h98v-72h-518z" />
    <glyph glyph-name="iacute" unicode="&#xed;" horiz-adv-x="598" 
d="M306 1030h-61l223 322h237v-4zM60 0v72h90q49 0 67.5 21.5t18.5 73.5v506q0 55 -19.5 77t-68.5 15l-88 -21l-7 71l349 73v-721q0 -47 17 -71t61 -24h98v-72h-518z" />
    <glyph glyph-name="icircumflex" unicode="&#xee;" horiz-adv-x="598" 
d="M-50 1030l260 322h191l260 -322h-61l-294 242l-295 -242h-61zM60 0v72h90q49 0 67.5 21.5t18.5 73.5v506q0 55 -19.5 77t-68.5 15l-88 -21l-7 71l349 73v-721q0 -47 17 -71t61 -24h98v-72h-518z" />
    <glyph glyph-name="idieresis" unicode="&#xef;" horiz-adv-x="598" 
d="M118 1130q-40 0 -68 28.5t-28 66.5q0 40 28 68t68 28t68 -28t28 -68q0 -41 -28 -68t-68 -27zM490 1130q-40 0 -67.5 28.5t-27.5 66.5q0 40 28 68t67 28q40 0 68 -28t28 -68q0 -41 -28 -68t-68 -27zM60 0v72h90q49 0 67.5 21.5t18.5 73.5v506q0 55 -19.5 77t-68.5 15
l-88 -21l-7 71l349 73v-721q0 -47 17 -71t61 -24h98v-72h-518z" />
    <glyph glyph-name="eth" unicode="&#xf0;" horiz-adv-x="1027" 
d="M954 1190l-161 -52q132 -201 132 -577q0 -147 -34.5 -261t-95.5 -183.5t-139.5 -105t-170.5 -35.5q-82 0 -155.5 30.5t-130.5 85.5t-90.5 140.5t-33.5 188.5q0 89 22.5 162t60.5 122t89.5 82.5t108 48.5t118.5 15q206 0 277 -189q-6 293 -79 438l-292 -94l-22 70l274 88
q-108 139 -320 134l-10 75q289 0 444 -173l188 60zM486 49q122 0 188 95t80 285q-10 107 -36 181.5t-80 120.5t-134 46q-259 0 -259 -380q0 -160 62 -254t179 -94z" />
    <glyph glyph-name="ntilde" unicode="&#xf1;" horiz-adv-x="1207" 
d="M257 1012q-2 121 50 190.5t148 69.5q34 0 70.5 -13.5t52 -23t57.5 -36.5q3 -2 16 -12t16.5 -12t14.5 -9.5t16 -10t15 -7t17 -6t17.5 -3t20.5 -1.5q52 0 84 38.5t34 111.5h60q5 -117 -47 -195.5t-149 -78.5q-38 0 -76 13.5t-57.5 26t-54.5 37.5q-76 60 -133 60
q-54 0 -82.5 -39t-30.5 -100h-59zM63 0v72h85q48 0 65.5 23.5t17.5 71.5v498q0 49 -18.5 73t-64.5 18l-85 -21l-7 71l340 76v-251q65 108 156 179.5t192 71.5q281 0 281 -317v-398q0 -95 81 -95h83v-72h-495v72h94q73 0 73 96v394q0 112 -39.5 166t-132.5 54q-91 0 -170 -87
t-123 -199v-329q0 -42 17 -68.5t52 -26.5h93v-72h-495z" />
    <glyph glyph-name="ograve" unicode="&#xf2;" horiz-adv-x="1040" 
d="M521 1030l-399 318v4h237l223 -322h-61zM520 -27q-46 0 -96.5 9.5t-115 40.5t-114.5 78.5t-84.5 133t-34.5 195.5q0 95 28 172.5t72.5 128.5t103.5 86t119.5 50t120.5 15q57 0 115.5 -14t118.5 -48t106.5 -84t76 -129.5t29.5 -176.5q0 -102 -30.5 -183.5t-77.5 -131.5
t-108.5 -83t-118 -46t-110.5 -13zM521 47q49 0 96.5 24.5t86.5 70t63 120.5t24 167q0 171 -75 275.5t-196 104.5q-120 0 -196 -105t-76 -270q0 -182 82 -284.5t191 -102.5z" />
    <glyph glyph-name="oacute" unicode="&#xf3;" horiz-adv-x="1040" 
d="M521 1030h-61l223 322h237v-4zM520 -27q-46 0 -96.5 9.5t-115 40.5t-114.5 78.5t-84.5 133t-34.5 195.5q0 95 28 172.5t72.5 128.5t103.5 86t119.5 50t120.5 15q57 0 115.5 -14t118.5 -48t106.5 -84t76 -129.5t29.5 -176.5q0 -102 -30.5 -183.5t-77.5 -131.5t-108.5 -83
t-118 -46t-110.5 -13zM521 47q49 0 96.5 24.5t86.5 70t63 120.5t24 167q0 171 -75 275.5t-196 104.5q-120 0 -196 -105t-76 -270q0 -182 82 -284.5t191 -102.5z" />
    <glyph glyph-name="ocircumflex" unicode="&#xf4;" horiz-adv-x="1040" 
d="M165 1030l260 322h191l260 -322h-61l-294 242l-295 -242h-61zM520 -27q-46 0 -96.5 9.5t-115 40.5t-114.5 78.5t-84.5 133t-34.5 195.5q0 95 28 172.5t72.5 128.5t103.5 86t119.5 50t120.5 15q57 0 115.5 -14t118.5 -48t106.5 -84t76 -129.5t29.5 -176.5
q0 -102 -30.5 -183.5t-77.5 -131.5t-108.5 -83t-118 -46t-110.5 -13zM521 47q49 0 96.5 24.5t86.5 70t63 120.5t24 167q0 171 -75 275.5t-196 104.5q-120 0 -196 -105t-76 -270q0 -182 82 -284.5t191 -102.5z" />
    <glyph glyph-name="otilde" unicode="&#xf5;" horiz-adv-x="1040" 
d="M176 1012q-2 121 50 190.5t148 69.5q34 0 70.5 -13.5t52 -23t57.5 -36.5q3 -2 16 -12t16.5 -12t14.5 -9.5t16 -10t15 -7t17 -6t17.5 -3t20.5 -1.5q52 0 84 38.5t34 111.5h60q5 -117 -47 -195.5t-149 -78.5q-38 0 -76 13.5t-57.5 26t-54.5 37.5q-76 60 -133 60
q-54 0 -82.5 -39t-30.5 -100h-59zM520 -27q-46 0 -96.5 9.5t-115 40.5t-114.5 78.5t-84.5 133t-34.5 195.5q0 95 28 172.5t72.5 128.5t103.5 86t119.5 50t120.5 15q57 0 115.5 -14t118.5 -48t106.5 -84t76 -129.5t29.5 -176.5q0 -102 -30.5 -183.5t-77.5 -131.5t-108.5 -83
t-118 -46t-110.5 -13zM521 47q49 0 96.5 24.5t86.5 70t63 120.5t24 167q0 171 -75 275.5t-196 104.5q-120 0 -196 -105t-76 -270q0 -182 82 -284.5t191 -102.5z" />
    <glyph glyph-name="odieresis" unicode="&#xf6;" horiz-adv-x="1040" 
d="M333 1130q-40 0 -68 28.5t-28 66.5q0 40 28 68t68 28t68 -28t28 -68q0 -41 -28 -68t-68 -27zM705 1130q-40 0 -67.5 28.5t-27.5 66.5q0 40 28 68t67 28q40 0 68 -28t28 -68q0 -41 -28 -68t-68 -27zM520 -27q-46 0 -96.5 9.5t-115 40.5t-114.5 78.5t-84.5 133t-34.5 195.5
q0 95 28 172.5t72.5 128.5t103.5 86t119.5 50t120.5 15q57 0 115.5 -14t118.5 -48t106.5 -84t76 -129.5t29.5 -176.5q0 -102 -30.5 -183.5t-77.5 -131.5t-108.5 -83t-118 -46t-110.5 -13zM521 47q49 0 96.5 24.5t86.5 70t63 120.5t24 167q0 171 -75 275.5t-196 104.5
q-120 0 -196 -105t-76 -270q0 -182 82 -284.5t191 -102.5z" />
    <glyph glyph-name="divide" unicode="&#xf7;" horiz-adv-x="1285" 
d="M638 996q-42 0 -71 29t-29 71q0 41 29 70t71 29q40 0 69.5 -29.5t29.5 -69.5q0 -42 -29.5 -71t-69.5 -29zM83 618v115h1110v-115h-1110zM638 156q-42 0 -71 29t-29 71q0 41 29 70.5t71 29.5q40 0 69.5 -30t29.5 -70q0 -42 -29.5 -71t-69.5 -29z" />
    <glyph glyph-name="oslash" unicode="&#xf8;" horiz-adv-x="1040" 
d="M848 748q117 -120 117 -318q0 -102 -30.5 -183.5t-77.5 -131.5t-108.5 -83t-118 -46t-110.5 -13q-60 0 -134 20t-139 65l-107 -123l-55 48l107 122q-117 119 -117 325q0 95 28 172.5t72.5 128.5t103.5 86t119.5 50t120.5 15q153 0 275 -87l110 126l53 -48zM248 434
q0 -124 42 -216l426 487q-76 104 -196 104t-196 -105t-76 -270zM521 47q49 0 96.5 24.5t86.5 70t63 120.5t24 167q0 117 -38 209l-424 -486q78 -105 192 -105z" />
    <glyph glyph-name="ugrave" unicode="&#xf9;" horiz-adv-x="1175" 
d="M587 1030l-399 318v4h237l223 -322h-61zM464 -27q-283 0 -283 317v398q0 96 -80 96h-82v71h328v-562q0 -112 39.5 -166t132.5 -54q91 0 169.5 87t121.5 200v328q0 42 -16.5 69t-50.5 27h-94v71h328v-686q0 -48 18 -72t64 -18l86 21l6 -72l-341 -52v249
q-63 -108 -154 -180t-192 -72z" />
    <glyph glyph-name="uacute" unicode="&#xfa;" horiz-adv-x="1175" 
d="M587 1030h-61l223 322h237v-4zM464 -27q-283 0 -283 317v398q0 96 -80 96h-82v71h328v-562q0 -112 39.5 -166t132.5 -54q91 0 169.5 87t121.5 200v328q0 42 -16.5 69t-50.5 27h-94v71h328v-686q0 -48 18 -72t64 -18l86 21l6 -72l-341 -52v249q-63 -108 -154 -180
t-192 -72z" />
    <glyph glyph-name="ucircumflex" unicode="&#xfb;" horiz-adv-x="1175" 
d="M231 1030l260 322h191l260 -322h-61l-294 242l-295 -242h-61zM464 -27q-283 0 -283 317v398q0 96 -80 96h-82v71h328v-562q0 -112 39.5 -166t132.5 -54q91 0 169.5 87t121.5 200v328q0 42 -16.5 69t-50.5 27h-94v71h328v-686q0 -48 18 -72t64 -18l86 21l6 -72l-341 -52
v249q-63 -108 -154 -180t-192 -72z" />
    <glyph glyph-name="udieresis" unicode="&#xfc;" horiz-adv-x="1175" 
d="M399 1130q-40 0 -68 28.5t-28 66.5q0 40 28 68t68 28t68 -28t28 -68q0 -41 -28 -68t-68 -27zM771 1130q-40 0 -67.5 28.5t-27.5 66.5q0 40 28 68t67 28q40 0 68 -28t28 -68q0 -41 -28 -68t-68 -27zM464 -27q-283 0 -283 317v398q0 96 -80 96h-82v71h328v-562
q0 -112 39.5 -166t132.5 -54q91 0 169.5 87t121.5 200v328q0 42 -16.5 69t-50.5 27h-94v71h328v-686q0 -48 18 -72t64 -18l86 21l6 -72l-341 -52v249q-63 -108 -154 -180t-192 -72z" />
    <glyph glyph-name="yacute" unicode="&#xfd;" horiz-adv-x="1045" 
d="M524 1030h-61l223 322h237v-4zM215 -483q-37 -1 -59.5 18t-23.5 50q0 23 13.5 39.5t27 22t32.5 10.5q93 21 160.5 73.5t121.5 167.5l40 89l-396 713q-27 50 -45.5 67t-49.5 17h-46v71h433v-71h-71q-83 0 -33 -95l289 -533l229 507q16 38 20 63t-8.5 41.5t-45.5 16.5h-80
v71h330v-71h-26q-32 0 -55 -23t-49 -86l-376 -826q-76 -166 -151 -242.5t-181 -89.5z" />
    <glyph glyph-name="thorn" unicode="&#xfe;" horiz-adv-x="1106" 
d="M-10 -505v72h91q45 0 62 24t17 71v1508q0 50 -20 72.5t-73 17.5l-77 -19l-7 70l340 71v-637q61 64 140.5 100.5t164.5 36.5q166 0 286.5 -127.5t120.5 -322.5q0 -198 -123.5 -328.5t-292.5 -130.5q-166 0 -294 126v-437q0 -48 18.5 -71.5t73.5 -23.5h97v-72h-524zM569 64
q70 0 127.5 34.5t92.5 88.5t53.5 116t18.5 122q0 149 -79 257.5t-207 108.5q-73 0 -139.5 -39t-110.5 -104v-459q48 -59 113.5 -92t130.5 -33z" />
    <glyph glyph-name="ydieresis" unicode="&#xff;" horiz-adv-x="1045" 
d="M336 1130q-40 0 -68 28.5t-28 66.5q0 40 28 68t68 28t68 -28t28 -68q0 -41 -28 -68t-68 -27zM708 1130q-40 0 -67.5 28.5t-27.5 66.5q0 40 28 68t67 28q40 0 68 -28t28 -68q0 -41 -28 -68t-68 -27zM215 -483q-37 -1 -59.5 18t-23.5 50q0 23 13.5 39.5t27 22t32.5 10.5
q93 21 160.5 73.5t121.5 167.5l40 89l-396 713q-27 50 -45.5 67t-49.5 17h-46v71h433v-71h-71q-83 0 -33 -95l289 -533l229 507q16 38 20 63t-8.5 41.5t-45.5 16.5h-80v71h330v-71h-26q-32 0 -55 -23t-49 -86l-376 -826q-76 -166 -151 -242.5t-181 -89.5z" />
    <glyph glyph-name="dotlessi" unicode="&#x131;" horiz-adv-x="598" 
d="M60 0v72h90q49 0 67.5 21.5t18.5 73.5v506q0 55 -19.5 77t-68.5 15l-88 -21l-7 71l349 73v-721q0 -47 17 -71t61 -24h98v-72h-518z" />
    <glyph glyph-name="Lslash" unicode="&#x141;" horiz-adv-x="1308" 
d="M1175 449l69 -2l-27 -447h-1158v72h131q55 0 77.5 23t22.5 84v292l-207 -159v109l207 159v592q0 57 -21.5 82.5t-80.5 25.5h-129v72h642v-72h-128q-60 0 -82.5 -24.5t-22.5 -83.5v-456l421 323v-109l-421 -323v-415q0 -61 20.5 -88.5t86.5 -27.5h375q162 0 200 153z" />
    <glyph glyph-name="lslash" unicode="&#x142;" horiz-adv-x="550" 
d="M595 893l-236 -181v-545q0 -95 66 -95h98v-72h-500v72h90q47 0 63.5 23t16.5 72v417l-240 -184v100l240 184v489q0 50 -19 74t-66 18l-85 -21l-6 71l342 72v-575l236 181v-100z" />
    <glyph glyph-name="OE" unicode="&#x152;" horiz-adv-x="2231" 
d="M840 0q-230 0 -396.5 73.5t-260 226.5t-93.5 374q0 326 200.5 499t549.5 178l1194 1l21 -349l-71 -3l-25 182q-18 57 -48 75t-87 18h-479q-56 -14 -56 -101v-427h345q100 0 100 74v112h73v-460h-73v113q0 47 -26 65.5t-72 18.5h-347v-475q0 -60 19.5 -89.5t78.5 -29.5
h459q78 0 112 23.5t48 78.5l45 269l71 -3l-28 -444h-1254zM796 76h243q41 0 56.5 28t15.5 82v986q0 108 -67 108h-227q-105 0 -197.5 -36t-167 -107t-118 -190t-43.5 -272q0 -171 57.5 -305.5t173 -214t274.5 -79.5z" />
    <glyph glyph-name="oe" unicode="&#x153;" horiz-adv-x="1708" 
d="M1277 53q87 0 158.5 48.5t114.5 134.5l62 -35q-54 -104 -153 -166t-222 -62q-110 0 -201 47.5t-149 133.5q-65 -93 -167.5 -137t-199.5 -44q-46 0 -96.5 9.5t-115 40.5t-114.5 78.5t-84.5 133t-34.5 195.5q0 95 28 172.5t72.5 128.5t103.5 86t119.5 50t120.5 15
q99 0 200 -44t166 -135q58 85 148.5 132t198.5 47q77 0 148.5 -27.5t130.5 -79.5t95.5 -138.5t38.5 -194.5h-665q0 -72 17 -138.5t51 -124t93 -92t136 -34.5zM521 47q49 0 96.5 24.5t86.5 70t63 120.5t24 167q0 171 -75 275.5t-196 104.5q-120 0 -196 -105t-76 -270
q0 -182 82 -284.5t191 -102.5zM1233 809q-58 0 -105 -26t-76.5 -69.5t-47.5 -95t-23 -107.5h505q-5 57 -23.5 108.5t-48.5 95t-77 69t-104 25.5z" />
    <glyph glyph-name="Scaron" unicode="&#x160;" horiz-adv-x="1152" 
d="M486 1456l-259 322h60l295 -242l294 242h61l-259 -322h-192zM643 -24q-133 0 -243 58t-173 170l-14 -183h-75v465h75q5 -88 34.5 -165t80.5 -136.5t128.5 -93.5t171.5 -34q49 0 96 16.5t86.5 47.5t64 82t24.5 114q0 57 -21 101.5t-64.5 78t-92 56.5t-122.5 50
q-191 78 -260 119q-134 80 -169 195q-15 48 -15 107q0 152 111.5 252.5t268.5 100.5q98 0 189.5 -49t148.5 -135l15 160h73v-397h-73q-10 104 -61 184t-125 120.5t-156 40.5q-116 0 -183 -65t-67 -153q0 -49 16.5 -87.5t41.5 -65t73 -52.5t92.5 -44.5t118.5 -46.5
q9 -3 14 -5q51 -19 87 -34t81.5 -38t76 -45t62 -53.5t50.5 -66t31 -79.5t12 -97q0 -97 -39.5 -175t-101.5 -124t-131.5 -70t-136.5 -24z" />
    <glyph glyph-name="scaron" unicode="&#x161;" horiz-adv-x="993" 
d="M593 1030h-192l-259 322h60l295 -242l294 242h61zM510 530q55 -7 94 -14.5t89.5 -21t84 -33t65 -47t47 -68t15.5 -90.5q0 -135 -108 -209t-270 -74q-103 0 -184.5 28.5t-128.5 72.5l-35 -101h-56l-3 270h67q51 -99 141 -148t203 -49q110 0 180.5 44.5t70.5 123.5
q0 34 -16 59.5t-38 40.5t-63 27t-73.5 17.5t-86.5 12.5q-45 7 -73 11.5t-69 13t-67.5 18t-59 23.5t-52 31.5t-38 40.5t-27 53t-8.5 66q0 119 93 186.5t257 67.5q190 0 294 -96l28 96h54l3 -257h-56q-35 86 -118 135.5t-208 49.5q-104 0 -166 -34.5t-62 -103.5q0 -25 8 -44.5
t28.5 -33.5t39.5 -23t58.5 -17t65.5 -12.5t80 -11.5z" />
    <glyph glyph-name="Wcircumflex" unicode="&#x174;" horiz-adv-x="1979" 
d="M988 1712l-295 -242h-61l251 322h209l251 -322h-61zM1536 1352h429v-72h-52q-45 0 -70.5 -38.5t-48.5 -123.5l-310 -1142h-130l-361 1171l-327 -1171h-132l-353 1188q-20 68 -42.5 92t-65.5 24h-59v72h564v-72h-157q-51 0 -64.5 -32t5.5 -87l291 -983l327 1185h120
l363 -1179l248 928q10 37 12.5 64.5t-1.5 52.5t-22 38t-50 13h-114v72z" />
    <glyph glyph-name="wcircumflex" unicode="&#x175;" horiz-adv-x="1604" 
d="M803 1272l-295 -242h-61l260 322h191l260 -322h-61zM1265 855h346v-71h-52q-33 0 -53.5 -22.5t-37.5 -67.5l-270 -714h-121l-264 722l-267 -722h-120l-264 715q-19 50 -39.5 69.5t-53.5 19.5h-76v71h479v-71h-88q-47 0 -58.5 -22t5.5 -70l202 -552l273 728h110l268 -732
l197 531q24 59 13.5 88t-66.5 29h-63v71z" />
    <glyph glyph-name="Ycircumflex" unicode="&#x176;" horiz-adv-x="1390" 
d="M342 1470l251 322h209l251 -322h-61l-294 242l-295 -242h-61zM377 0v72h148q60 0 80.5 26t20.5 80v312l-415 688q-31 53 -58 77.5t-64 24.5h-78v72h557v-72h-110q-51 0 -58.5 -34t21.5 -78l353 -582l338 557q35 60 23 98.5t-71 38.5h-89v72h404v-72h-38q-61 0 -122 -104
l-414 -676l-1 -321q0 -56 21 -81.5t81 -25.5h147v-72h-676z" />
    <glyph glyph-name="ycircumflex" unicode="&#x177;" horiz-adv-x="1045" 
d="M168 1030l260 322h191l260 -322h-61l-294 242l-295 -242h-61zM215 -483q-37 -1 -59.5 18t-23.5 50q0 23 13.5 39.5t27 22t32.5 10.5q93 21 160.5 73.5t121.5 167.5l40 89l-396 713q-27 50 -45.5 67t-49.5 17h-46v71h433v-71h-71q-83 0 -33 -95l289 -533l229 507
q16 38 20 63t-8.5 41.5t-45.5 16.5h-80v71h330v-71h-26q-32 0 -55 -23t-49 -86l-376 -826q-76 -166 -151 -242.5t-181 -89.5z" />
    <glyph glyph-name="Ydieresis" unicode="&#x178;" horiz-adv-x="1390" 
d="M511 1510q-40 0 -68 29t-28 67q0 39 28 67t68 28t68 -28t28 -67q0 -41 -28 -68.5t-68 -27.5zM883 1510q-40 0 -67.5 29t-27.5 67q0 40 28 67.5t67 27.5q40 0 68 -28t28 -67q0 -41 -28 -68.5t-68 -27.5zM377 0v72h148q60 0 80.5 26t20.5 80v312l-415 688q-31 53 -58 77.5
t-64 24.5h-78v72h557v-72h-110q-51 0 -58.5 -34t21.5 -78l353 -582l338 557q35 60 23 98.5t-71 38.5h-89v72h404v-72h-38q-61 0 -122 -104l-414 -676l-1 -321q0 -56 21 -81.5t81 -25.5h147v-72h-676z" />
    <glyph glyph-name="Zcaron" unicode="&#x17d;" horiz-adv-x="1368" 
d="M772 1456h-192l-259 322h60l295 -242l294 242h61zM1209 429l72 -3l-35 -426h-1161v93l937 1193h-623q-91 0 -137.5 -23t-64.5 -91l-25 -172l-71 3l33 359h1098v-90l-946 -1196h698q76 0 121.5 24t70.5 99z" />
    <glyph glyph-name="zcaron" unicode="&#x17e;" horiz-adv-x="972" 
d="M583 1030h-192l-259 322h60l295 -242l294 242h61zM813 282l69 -2l-27 -280h-780v84l601 700h-397q-34 0 -52 -16t-33 -66l-22 -114l-71 3l29 264h743v-86l-602 -697h416q36 0 60 17.5t42 68.5z" />
    <glyph glyph-name="florin" unicode="&#x192;" horiz-adv-x="1104" 
d="M207 -454q-65 0 -101.5 32t-40.5 83q-2 35 14 57.5t43 21.5q17 -1 34 -20.5t18 -48.5q5 -46 14.5 -60.5t44.5 -14.5q14 0 25.5 3.5t20.5 11.5t15.5 16.5t12.5 24t10 28t8 34.5t6.5 37.5t7 42.5t7.5 44q6 42 18 104t32 158t34 170l102 515h-186l11 76h81q78 0 111 35.5
t59 131.5q15 58 30 103.5t38.5 92.5t51 78t66.5 51t85 20q55 0 96.5 -26.5t49.5 -77.5q7 -36 -8.5 -61.5t-42.5 -25.5q-40 0 -57 66q-2 10 -4 29.5t-4 28t-12 16t-28 7.5q-40 0 -72.5 -29t-45.5 -86q-8 -21 -15 -55.5t-10 -55.5t-8.5 -69.5t-6.5 -56.5q-8 -74 -16 -116h227
l-11 -76h-231l-100 -505q-80 -405 -153 -551q-27 -81 -82.5 -132t-137.5 -51z" />
    <glyph glyph-name="oslashacute" unicode="&#x1ff;" horiz-adv-x="1040" 
d="M920 1348l-399 -318h-61l223 322h237v-4zM848 748q117 -120 117 -318q0 -102 -30.5 -183.5t-77.5 -131.5t-108.5 -83t-118 -46t-110.5 -13q-60 0 -134 20t-139 65l-107 -123l-55 48l107 122q-117 119 -117 325q0 95 28 172.5t72.5 128.5t103.5 86t119.5 50t120.5 15
q153 0 275 -87l110 126l53 -48zM248 434q0 -124 42 -216l426 487q-76 104 -196 104t-196 -105t-76 -270zM521 47q49 0 96.5 24.5t86.5 70t63 120.5t24 167q0 117 -38 209l-424 -486q78 -105 192 -105z" />
    <glyph glyph-name="uni0237" unicode="&#x237;" horiz-adv-x="524" 
d="M1 -518q-109 0 -180 52.5t-83 148.5q-1 32 17 52.5t46 21.5q53 2 67 -59q32 -141 160 -141q172 0 172 276v840q0 50 -20.5 74t-75.5 17l-85 -21l-6 71l352 74v-984q0 -214 -85.5 -318t-278.5 -104z" />
    <glyph glyph-name="circumflex" unicode="&#x2c6;" horiz-adv-x="811" 
d="M50 1030l260 322h191l260 -322h-61l-294 242l-295 -242h-61z" />
    <glyph glyph-name="caron" unicode="&#x2c7;" horiz-adv-x="816" 
d="M312 1030l-259 322h60l295 -242l294 242h61l-259 -322h-192z" />
    <glyph glyph-name="breve" unicode="&#x2d8;" horiz-adv-x="1000" 
d="M382 1000q-123 0 -200.5 76.5t-98.5 184.5h56q56 -159 244 -159q49 0 89 13t63.5 29t42.5 41.5t26 40t15 35.5h53q-4 -41 -21.5 -83t-50 -83.5t-89.5 -68t-129 -26.5z" />
    <glyph glyph-name="dotaccent" unicode="&#x2d9;" horiz-adv-x="428" 
d="M213 1096q-40 0 -68 29t-28 67q0 39 28 67t68 28t68 -28t28 -67q0 -41 -28 -68.5t-68 -27.5z" />
    <glyph glyph-name="ring" unicode="&#x2da;" horiz-adv-x="503" 
d="M251 981q-81 0 -138.5 57.5t-57.5 139.5q0 81 57.5 137.5t138.5 56.5q82 0 139.5 -56.5t57.5 -137.5q0 -82 -57.5 -139.5t-139.5 -57.5zM251 1059q49 0 84 34.5t35 84.5q0 49 -35 83.5t-84 34.5t-83 -34.5t-34 -83.5q0 -50 34 -84.5t83 -34.5z" />
    <glyph glyph-name="ogonek" unicode="&#x2db;" horiz-adv-x="917" 
d="M341 -367q-109 0 -174 66t-65 155t79 168l28 -22q-39 -50 -39 -107q0 -80 61.5 -139.5t148.5 -59.5q71 0 141 44l22 -31q-100 -74 -202 -74z" />
    <glyph glyph-name="tilde" unicode="&#x2dc;" horiz-adv-x="907" 
d="M107 1012q-2 121 50 190.5t148 69.5q34 0 70.5 -13.5t52 -23t57.5 -36.5q3 -2 16 -12t16.5 -12t14.5 -9.5t16 -10t15 -7t17 -6t17.5 -3t20.5 -1.5q52 0 84 38.5t34 111.5h60q5 -117 -47 -195.5t-149 -78.5q-38 0 -76 13.5t-57.5 26t-54.5 37.5q-76 60 -133 60
q-54 0 -82.5 -39t-30.5 -100h-59z" />
    <glyph glyph-name="hungarumlaut" unicode="&#x2dd;" horiz-adv-x="928" 
d="M50 1030l223 322h236v-4l-398 -318h-61zM448 1030l223 322h236v-4l-399 -318h-60z" />
    <glyph glyph-name="gravecomb" unicode="&#x300;" 
d="M-111 1030l-399 318v4h237l223 -322h-61z" />
    <glyph glyph-name="acutecomb" unicode="&#x301;" 
d="M-409 1030h-61l223 322h237v-4z" />
    <glyph glyph-name="uni0302" unicode="&#x302;" 
d="M-761 1030l260 322h191l260 -322h-61l-294 242l-295 -242h-61z" />
    <glyph glyph-name="tildecomb" unicode="&#x303;" 
d="M-800 1012q-2 121 50 190.5t148 69.5q34 0 70.5 -13.5t52 -23t57.5 -36.5q3 -2 16 -12t16.5 -12t14.5 -9.5t16 -10t15 -7t17 -6t17.5 -3t20.5 -1.5q52 0 84 38.5t34 111.5h60q5 -117 -47 -195.5t-149 -78.5q-38 0 -76 13.5t-57.5 26t-54.5 37.5q-76 60 -133 60
q-54 0 -82.5 -39t-30.5 -100h-59z" />
    <glyph glyph-name="uni0304" unicode="&#x304;" 
d="M-872 1105v123h725v-123h-725z" />
    <glyph glyph-name="uni0306" unicode="&#x306;" 
d="M-376 1000q-123 0 -200.5 76.5t-98.5 184.5h56q56 -159 244 -159q49 0 89 13t63.5 29t42.5 41.5t26 40t15 35.5h53q-4 -41 -21.5 -83t-50 -83.5t-89.5 -68t-129 -26.5z" />
    <glyph glyph-name="uni0307" unicode="&#x307;" 
d="M-215 1096q-40 0 -68 29t-28 67q0 39 28 67t68 28t68 -28t28 -67q0 -41 -28 -68.5t-68 -27.5z" />
    <glyph glyph-name="uni0308" unicode="&#x308;" 
d="M-586 1130q-40 0 -68 28.5t-28 66.5q0 40 28 68t68 28t68 -28t28 -68q0 -41 -28 -68t-68 -27zM-214 1130q-40 0 -67.5 28.5t-27.5 66.5q0 40 28 68t67 28q40 0 68 -28t28 -68q0 -41 -28 -68t-68 -27z" />
    <glyph glyph-name="uni030A" unicode="&#x30a;" 
d="M-287 968q-77 0 -131.5 54.5t-54.5 132.5t54 131.5t132 53.5q77 0 131.5 -54t54.5 -131t-54.5 -132t-131.5 -55zM-287 1026q54 0 91.5 37t37.5 92q0 54 -37.5 91.5t-91.5 37.5t-90.5 -37.5t-36.5 -91.5q0 -55 36.5 -92t90.5 -37z" />
    <glyph glyph-name="uni030B" unicode="&#x30b;" 
d="M-877 1030l223 322h236v-4l-398 -318h-61zM-479 1030l223 322h236v-4l-399 -318h-60z" />
    <glyph glyph-name="uni030C" unicode="&#x30c;" 
d="M-504 1030l-259 322h60l295 -242l294 242h61l-259 -322h-192z" />
    <glyph glyph-name="uni0327" unicode="&#x327;" 
d="M-368 -488q-103 0 -199 25l15 72q75 -19 164 -19q110 0 170 34t60 84q0 22 -14 37t-34.5 22.5t-52.5 11t-57.5 4.5t-60.5 1h-25l46 241l79 -7l-32 -152q252 0 252 -152q0 -83 -82 -142.5t-229 -59.5z" />
    <glyph glyph-name="uni0328" unicode="&#x328;" 
d="M-235 -367q-109 0 -174 66t-65 155t79 168l28 -22q-39 -50 -39 -107q0 -80 61.5 -139.5t148.5 -59.5q71 0 141 44l22 -31q-100 -74 -202 -74z" />
    <glyph glyph-name="uni0337" unicode="&#x337;" 
d="M-654 421v100l642 493v-100z" />
    <glyph glyph-name="uni0338" unicode="&#x338;" 
d="M-797 -46l-55 48l819 938l53 -48z" />
    <glyph glyph-name="uni0394" unicode="&#x394;" horiz-adv-x="1009" 
d="M97 0l311 1433h196l308 -1433h-815zM192 72h541l-260 1221h-12z" />
    <glyph glyph-name="uni03A9" unicode="&#x3a9;" horiz-adv-x="1461" 
d="M152 0v308h57v-96q0 -101 98 -101h282v157q-390 174 -390 584q0 262 139.5 416t391.5 154q250 0 392 -158t142 -410q0 -201 -102 -353t-286 -227v-163h279q99 0 99 99v98h56v-308h-510v324q139 73 208 213.5t69 314.5q0 258 -90.5 383t-256.5 125q-172 0 -262 -133
t-90 -374q0 -193 72.5 -331.5t214.5 -203.5v-318h-513z" />
    <glyph glyph-name="Wgrave" unicode="&#x1e80;" horiz-adv-x="1979" 
d="M1019 1438h-61l-399 317v4h237zM1536 1352h429v-72h-52q-45 0 -70.5 -38.5t-48.5 -123.5l-310 -1142h-130l-361 1171l-327 -1171h-132l-353 1188q-20 68 -42.5 92t-65.5 24h-59v72h564v-72h-157q-51 0 -64.5 -32t5.5 -87l291 -983l327 1185h120l363 -1179l248 928
q10 37 12.5 64.5t-1.5 52.5t-22 38t-50 13h-114v72z" />
    <glyph glyph-name="wgrave" unicode="&#x1e81;" horiz-adv-x="1604" 
d="M864 1030h-61l-399 318v4h237zM1265 855h346v-71h-52q-33 0 -53.5 -22.5t-37.5 -67.5l-270 -714h-121l-264 722l-267 -722h-120l-264 715q-19 50 -39.5 69.5t-53.5 19.5h-76v71h479v-71h-88q-47 0 -58.5 -22t5.5 -70l202 -552l273 728h110l268 -732l197 531
q24 59 13.5 88t-66.5 29h-63v71z" />
    <glyph glyph-name="Wacute" unicode="&#x1e82;" horiz-adv-x="1979" 
d="M1417 1755l-399 -317h-61l224 321h236v-4zM1536 1352h429v-72h-52q-45 0 -70.5 -38.5t-48.5 -123.5l-310 -1142h-130l-361 1171l-327 -1171h-132l-353 1188q-20 68 -42.5 92t-65.5 24h-59v72h564v-72h-157q-51 0 -64.5 -32t5.5 -87l291 -983l327 1185h120l363 -1179
l248 928q10 37 12.5 64.5t-1.5 52.5t-22 38t-50 13h-114v72z" />
    <glyph glyph-name="wacute" unicode="&#x1e83;" horiz-adv-x="1604" 
d="M1202 1348l-399 -318h-61l223 322h237v-4zM1265 855h346v-71h-52q-33 0 -53.5 -22.5t-37.5 -67.5l-270 -714h-121l-264 722l-267 -722h-120l-264 715q-19 50 -39.5 69.5t-53.5 19.5h-76v71h479v-71h-88q-47 0 -58.5 -22t5.5 -70l202 -552l273 728h110l268 -732l197 531
q24 59 13.5 88t-66.5 29h-63v71z" />
    <glyph glyph-name="Wdieresis" unicode="&#x1e84;" horiz-adv-x="1979" 
d="M801 1510q-40 0 -68 29t-28 67q0 39 28 67t68 28t68 -28t28 -67q0 -41 -28 -68.5t-68 -27.5zM1173 1510q-40 0 -67.5 29t-27.5 67q0 40 28 67.5t67 27.5q40 0 68 -28t28 -67q0 -41 -28 -68.5t-68 -27.5zM1536 1352h429v-72h-52q-45 0 -70.5 -38.5t-48.5 -123.5
l-310 -1142h-130l-361 1171l-327 -1171h-132l-353 1188q-20 68 -42.5 92t-65.5 24h-59v72h564v-72h-157q-51 0 -64.5 -32t5.5 -87l291 -983l327 1185h120l363 -1179l248 928q10 37 12.5 64.5t-1.5 52.5t-22 38t-50 13h-114v72z" />
    <glyph glyph-name="wdieresis" unicode="&#x1e85;" horiz-adv-x="1604" 
d="M615 1130q-40 0 -68 28.5t-28 66.5q0 40 28 68t68 28t68 -28t28 -68q0 -41 -28 -68t-68 -27zM987 1130q-40 0 -67.5 28.5t-27.5 66.5q0 40 28 68t67 28q40 0 68 -28t28 -68q0 -41 -28 -68t-68 -27zM1265 855h346v-71h-52q-33 0 -53.5 -22.5t-37.5 -67.5l-270 -714h-121
l-264 722l-267 -722h-120l-264 715q-19 50 -39.5 69.5t-53.5 19.5h-76v71h479v-71h-88q-47 0 -58.5 -22t5.5 -70l202 -552l273 728h110l268 -732l197 531q24 59 13.5 88t-66.5 29h-63v71z" />
    <glyph glyph-name="Ygrave" unicode="&#x1ef2;" horiz-adv-x="1390" 
d="M668 1438l-399 317v4h237l223 -321h-61zM377 0v72h148q60 0 80.5 26t20.5 80v312l-415 688q-31 53 -58 77.5t-64 24.5h-78v72h557v-72h-110q-51 0 -58.5 -34t21.5 -78l353 -582l338 557q35 60 23 98.5t-71 38.5h-89v72h404v-72h-38q-61 0 -122 -104l-414 -676l-1 -321
q0 -56 21 -81.5t81 -25.5h147v-72h-676z" />
    <glyph glyph-name="ygrave" unicode="&#x1ef3;" horiz-adv-x="1045" 
d="M524 1030l-399 318v4h237l223 -322h-61zM215 -483q-37 -1 -59.5 18t-23.5 50q0 23 13.5 39.5t27 22t32.5 10.5q93 21 160.5 73.5t121.5 167.5l40 89l-396 713q-27 50 -45.5 67t-49.5 17h-46v71h433v-71h-71q-83 0 -33 -95l289 -533l229 507q16 38 20 63t-8.5 41.5
t-45.5 16.5h-80v71h330v-71h-26q-32 0 -55 -23t-49 -86l-376 -826q-76 -166 -151 -242.5t-181 -89.5z" />
    <glyph glyph-name="endash" unicode="&#x2013;" horiz-adv-x="1340" 
d="M146 354v105h1048v-105h-1048z" />
    <glyph glyph-name="emdash" unicode="&#x2014;" horiz-adv-x="2339" 
d="M146 354v105h2048v-105h-2048z" />
    <glyph glyph-name="quoteleft" unicode="&#x2018;" horiz-adv-x="553" 
d="M279 811q-75 0 -117.5 56t-42.5 149q0 143 89 241.5t210 122.5l9 -73q-70 -15 -121.5 -56t-72.5 -83t-21 -79q0 -20 9 -30.5t23 -8.5q6 1 22.5 5t27.5 4q43 0 78.5 -33.5t35.5 -86.5q0 -50 -35 -89t-94 -39z" />
    <glyph glyph-name="quoteright" unicode="&#x2019;" horiz-adv-x="555" 
d="M136 811l-10 73q103 23 159 90.5t56 127.5q0 21 -9 31.5t-23 7.5q-5 -1 -22 -5t-28 -4q-43 0 -78 33.5t-35 86.5q0 51 34.5 89.5t94.5 38.5q75 0 117 -56t42 -149q0 -143 -88.5 -241.5t-209.5 -122.5z" />
    <glyph glyph-name="quotesinglbase" unicode="&#x201a;" horiz-adv-x="555" 
d="M136 -356l-10 73q103 23 159 90.5t56 127.5q0 20 -9 30.5t-23 8.5q-6 -1 -24 -5t-26 -4q-43 0 -78 33.5t-35 86.5q0 51 34.5 89.5t94.5 38.5q75 0 117 -56t42 -149q0 -143 -88.5 -241.5t-209.5 -122.5z" />
    <glyph glyph-name="quotedblleft" unicode="&#x201c;" horiz-adv-x="981" 
d="M277 811q-74 0 -116 56t-42 149q0 143 87.5 241.5t207.5 122.5l9 -73q-101 -23 -156.5 -90.5t-55.5 -127.5q0 -20 9 -30.5t23 -8.5q5 1 21.5 5t27.5 4q43 0 77.5 -33.5t34.5 -86.5q0 -51 -34 -89.5t-93 -38.5zM708 811q-73 0 -115 56t-42 149q0 143 87.5 241.5
t206.5 122.5l10 -73q-70 -15 -120.5 -56t-71.5 -83t-21 -79q0 -20 9 -30.5t23 -8.5q6 1 22 5t27 4q43 0 78 -33.5t35 -86.5q0 -50 -34.5 -89t-93.5 -39z" />
    <glyph glyph-name="quotedblright" unicode="&#x201d;" horiz-adv-x="983" 
d="M136 811l-10 73q101 23 156.5 90.5t55.5 127.5q0 21 -8.5 31.5t-22.5 7.5q-6 -1 -22.5 -5t-27.5 -4q-43 0 -77.5 33.5t-34.5 86.5q0 51 34 89.5t93 38.5q74 0 115.5 -56t41.5 -149q0 -143 -87 -241.5t-206 -122.5zM567 811l-10 73q70 16 120.5 56.5t71.5 82.5t21 79
q0 21 -9 31.5t-23 7.5q-6 -1 -22 -5t-27 -4q-43 0 -78 33.5t-35 86.5q0 51 34.5 89.5t93.5 38.5q73 0 115 -56t42 -149q0 -143 -87.5 -241.5t-206.5 -122.5z" />
    <glyph glyph-name="quotedblbase" unicode="&#x201e;" horiz-adv-x="992" 
d="M136 -356l-10 73q103 23 159 90.5t56 127.5q0 20 -9 30.5t-23 8.5q-6 -1 -24 -5t-26 -4q-43 0 -78 33.5t-35 86.5q0 51 34.5 89.5t94.5 38.5q75 0 117 -56t42 -149q0 -143 -88.5 -241.5t-209.5 -122.5zM573 -356l-9 73q102 23 158.5 90.5t56.5 127.5q0 20 -9 30.5
t-23 8.5q-7 -1 -24.5 -5t-25.5 -4q-44 0 -79 33.5t-35 86.5q0 51 34.5 89.5t94.5 38.5q75 0 117 -56t42 -149q0 -143 -88.5 -241.5t-209.5 -122.5z" />
    <glyph glyph-name="dagger" unicode="&#x2020;" horiz-adv-x="918" 
d="M421 -244v133q0 261 -32 677q-10 150 31 215q-25 -3 -114 -30.5t-135 -27.5q-10 0 -20.5 1t-28 7t-30.5 15.5t-23 29.5t-10 47q0 40 19.5 64.5t41 31.5t44.5 7q47 0 135.5 -31t120.5 -35q-1 4 -13.5 43t-18 58t-14 54.5t-12.5 66.5t-4 61q0 44 11 74.5t29 43.5t32 18
t29 5q39 0 70 -32t31 -99q0 -25 -3.5 -53.5t-12 -65t-13 -56.5t-17.5 -65t-15 -53q36 9 86 26t88.5 27t77.5 10q53 0 80.5 -29.5t27.5 -70.5q0 -42 -27 -71.5t-81 -29.5q-46 0 -136 28.5t-108 30.5q23 -39 26.5 -94.5t-3.5 -122.5q-1 -37 -10.5 -151.5t-16.5 -252.5t-7 -274
v-130h-75z" />
    <glyph glyph-name="daggerdbl" unicode="&#x2021;" horiz-adv-x="973" 
d="M779 17q54 0 81 -30t27 -72q0 -40 -27.5 -69.5t-80.5 -29.5q-39 0 -77.5 9.5t-88.5 26.5t-86 26q2 -8 11 -38.5t12.5 -43.5t11 -41.5t11 -46t7.5 -41t6 -44t2 -38.5q0 -67 -31 -99t-70 -32q-15 0 -29 5t-32 18t-29 43.5t-11 74.5q0 30 4 61.5t12.5 66t14 55.5t17.5 57
t14 44q-31 -5 -120 -35.5t-136 -30.5q-23 0 -44.5 6.5t-41 31t-19.5 64.5q0 33 13.5 55.5t35 31t36 11.5t27.5 3q45 0 133.5 -27.5t111.5 -30.5q-39 81 -27 214q6 35 6 196.5t-6 197.5q-12 134 27 214q-24 -3 -112 -30t-133 -27q-10 0 -20.5 1t-28 7t-30.5 15.5t-23 29.5
t-10 47q0 40 19.5 64.5t41 31.5t44.5 7q47 0 136.5 -30.5t118.5 -35.5q-1 3 -14 43.5t-17.5 58.5l-13.5 54t-12.5 66.5t-3.5 60.5q0 44 11 74.5t29 43.5t32 18t29 5q39 0 70 -32t31 -99q0 -18 -2 -38t-6 -43.5t-7.5 -41t-11 -45.5t-11 -41.5t-12.5 -44t-11 -38.5q36 9 86 26
t88.5 26.5t77.5 9.5q53 0 80.5 -29.5t27.5 -70.5q0 -42 -27 -71.5t-81 -29.5q-46 0 -136 28.5t-108 30.5q23 -39 26.5 -94.5t-3.5 -122.5q-7 -78 -7 -198t7 -192q7 -66 3.5 -122t-26.5 -95q16 2 107 31t137 29z" />
    <glyph glyph-name="bullet" unicode="&#x2022;" horiz-adv-x="809" 
d="M404 420q-104 0 -178.5 74.5t-74.5 179.5q0 106 74.5 178.5t178.5 72.5q103 0 177.5 -72.5t74.5 -178.5q0 -105 -73.5 -179.5t-178.5 -74.5z" />
    <glyph glyph-name="twodotenleader" unicode="&#x2025;" horiz-adv-x="1201" 
d="M301 -35q-52 0 -89 37.5t-37 89.5q0 51 37 88t89 37q51 0 87.5 -37t36.5 -88q0 -52 -36.5 -89.5t-87.5 -37.5zM899 -35q-52 0 -88.5 37t-36.5 90q0 51 36.5 88t88.5 37q51 0 88 -37t37 -88q0 -52 -37 -89.5t-88 -37.5z" />
    <glyph glyph-name="ellipsis" unicode="&#x2026;" horiz-adv-x="1800" 
d="M301 -35q-52 0 -89 37.5t-37 89.5q0 51 37 88t89 37q51 0 87.5 -37t36.5 -88q0 -52 -36.5 -89.5t-87.5 -37.5zM899 -35q-52 0 -88.5 37t-36.5 90q0 51 36.5 88t88.5 37q51 0 88 -37t37 -88q0 -52 -37 -89.5t-88 -37.5zM1498 -35q-52 0 -89 37.5t-37 89.5q0 51 37 88
t89 37q51 0 87.5 -37t36.5 -88q0 -53 -36 -90t-88 -37z" />
    <glyph glyph-name="perthousand" unicode="&#x2030;" horiz-adv-x="2400" 
d="M377 672q-65 0 -116 25t-80.5 63t-48.5 86.5t-26 90.5t-7 81q0 166 73.5 262t203.5 96q65 0 115.5 -23t81 -59t50 -84.5t27 -94.5t7.5 -94q0 -44 -8 -88.5t-28.5 -92.5t-51 -84.5t-80.5 -60t-112 -23.5zM474 0l693 1352h91l-694 -1352h-90zM379 726q42 0 71.5 26t44 70
t20.5 88t6 93q0 174 -37.5 246.5t-107.5 72.5q-72 0 -106.5 -73.5t-34.5 -225.5q0 -297 144 -297zM1328 -24q-65 0 -116 25t-81 62.5t-49 86.5t-26 91t-7 81q0 166 74 261.5t203 95.5q80 0 138 -33.5t87.5 -89t42.5 -113t13 -119.5q0 -43 -8 -87.5t-28 -92.5t-50.5 -84.5
t-80.5 -60t-112 -23.5zM2022 -24q-65 0 -116 25t-81 62.5t-49 86.5t-26 91t-7 81q0 166 73.5 261.5t203.5 95.5q80 0 138 -33.5t87.5 -89t42.5 -113t13 -119.5q0 -43 -8 -87.5t-28.5 -92.5t-51 -84.5t-80 -60t-111.5 -23.5zM1330 30q42 0 71.5 26t44 70t20.5 88t6 93
q0 174 -38 246.5t-108 72.5q-141 0 -141 -299q0 -297 145 -297zM2023 30q42 0 71.5 26t44 70t20.5 88t6 93q0 174 -37.5 246.5t-107.5 72.5q-141 0 -141 -299q0 -297 144 -297z" />
    <glyph glyph-name="guilsinglleft" unicode="&#x2039;" horiz-adv-x="521" 
d="M367 0l-328 440l327 441h76l-248 -441l248 -440h-75z" />
    <glyph glyph-name="guilsinglright" unicode="&#x203a;" horiz-adv-x="521" 
d="M154 0h-75l248 440l-248 441h76l327 -441z" />
    <glyph glyph-name="Euro" unicode="&#x20ac;" horiz-adv-x="1217" 
d="M664 -24q-121 0 -219 75t-156.5 200.5t-76.5 283.5h-100l11 71h83q-2 22 -2 66q0 38 3 75h-95l11 71h90q20 160 78.5 284t156 198t220.5 74q95 0 172.5 -48.5t126.5 -141.5l4 154h70l2 -394l-71 -1q-23 165 -95 261.5t-186 96.5q-91 0 -159 -66t-105 -172.5t-48 -244.5
h488l-10 -71h-479q-2 -46 -2 -68v-73h459l-11 -71h-446q11 -146 47 -252.5t103 -169.5t159 -63q77 0 141.5 51.5t103 133t50.5 177.5l65 -9q-15 -111 -52 -195t-89 -133.5t-113 -74t-129 -24.5z" />
    <glyph glyph-name="uni2113" unicode="&#x2113;" horiz-adv-x="868" 
d="M487 -22q-105 0 -162.5 86.5t-57.5 229.5l-3 126q-15 -17 -76.5 -75.5t-75.5 -73.5l-37 50q14 15 90.5 88t97.5 97l-6 459q0 130 30 233.5t94.5 169t154.5 65.5t131.5 -56t41.5 -177q0 -254 -183 -502q-57 -85 -100 -132l3 -269q0 -110 26.5 -169t72.5 -59
q50 0 79.5 56.5t41.5 177.5l64 -13q-18 -159 -73.5 -235.5t-152.5 -76.5zM425 673q31 38 74 108q65 92 106 201.5t41 210.5q0 90 -20.5 131.5t-69.5 41.5q-65 0 -100.5 -84.5t-35.5 -243.5z" />
    <glyph glyph-name="trademark" unicode="&#x2122;" horiz-adv-x="2195" 
d="M117 1352h751l6 -219l-44 -1l-8 85q-11 55 -33 71t-64 16h-175v-648q0 -33 12.5 -50t52.5 -17h66v-44h-378v44h66q39 0 52 17.5t13 49.5v648h-178q-18 0 -30.5 -2.5t-27.5 -11t-24.5 -27.5t-13.5 -48l-5 -83l-45 1zM1978 589h73v-44h-384v44h66q37 0 50.5 15.5t13.5 51.5
v592h-13l-316 -703h-46l-312 703h-9v-569q0 -90 64 -90h54v-44h-279v44h53q61 0 61 91v559q0 34 -12 51.5t-50 17.5h-52v44h245l297 -666l301 666h267v-44h-72q-40 0 -52.5 -17t-12.5 -51v-584q0 -32 12.5 -49.5t52.5 -17.5z" />
    <glyph glyph-name="uni2126" unicode="&#x2126;" horiz-adv-x="1461" 
d="M152 0v308h57v-96q0 -101 98 -101h282v157q-390 174 -390 584q0 262 139.5 416t391.5 154q250 0 392 -158t142 -410q0 -201 -102 -353t-286 -227v-163h279q99 0 99 99v98h56v-308h-510v324q139 73 208 213.5t69 314.5q0 258 -90.5 383t-256.5 125q-172 0 -262 -133
t-90 -374q0 -193 72.5 -331.5t214.5 -203.5v-318h-513z" />
    <glyph glyph-name="partialdiff" unicode="&#x2202;" horiz-adv-x="1052" 
d="M631 1474q140 0 207.5 -131t67.5 -356q0 -117 -25 -266t-64 -263q-86 -246 -183 -361.5t-225 -115.5q-144 0 -224 96t-80 267q0 105 34 210t92 189.5t145 137.5t185 53q55 0 98 -18t69.5 -49t42.5 -64t24 -72q14 95 14 222q0 111 -24.5 204t-76 153t-122.5 60
q-148 0 -250 -168l-37 33q126 239 332 239zM775 603q1 43 -5.5 83.5t-23.5 82t-55.5 67t-93.5 25.5q-92 0 -170.5 -82t-121.5 -208.5t-43 -260.5q0 -121 54 -187t145 -66q56 0 107 46t89.5 125.5t68 173.5t49.5 201z" />
    <glyph glyph-name="uni2206" unicode="&#x2206;" horiz-adv-x="1009" 
d="M97 0l311 1433h196l308 -1433h-815zM192 72h541l-260 1221h-12z" />
    <glyph glyph-name="product" unicode="&#x220f;" horiz-adv-x="1301" 
d="M128 -251v56h74q63 0 63 112v1337q0 112 -62 112h-89v56h1074v-56h-88q-64 0 -64 -112v-1337q0 -49 15.5 -80.5t47.5 -31.5h75v-56h-437v56h73q63 0 63 112v1433h-446v-1433q0 -112 60 -112h75v-56h-434z" />
    <glyph glyph-name="summation" unicode="&#x2211;" horiz-adv-x="1001" 
d="M816 157l58 -6l-27 -404h-739v75l332 737l-326 788v76h696l31 -328l-56 -2l-21 162q-6 54 -26 74.5t-54 20.5h-424l296 -714l-345 -758h508q74 0 81 82z" />
    <glyph glyph-name="minus" unicode="&#x2212;" horiz-adv-x="1562" 
d="M226 618v115h1110v-115h-1110z" />
    <glyph glyph-name="radical" unicode="&#x221a;" horiz-adv-x="748" 
d="M536 1502h58l-166 -1513h-88l-168 679l-83 -63l-36 49l175 130l155 -657z" />
    <glyph glyph-name="infinity" unicode="&#x221e;" horiz-adv-x="1344" 
d="M934 827q105 0 170.5 -69t65.5 -180q0 -109 -67 -180.5t-170 -71.5q-80 0 -140.5 43t-112.5 131q-50 -82 -114 -131.5t-156 -49.5q-106 0 -172 69.5t-66 179.5q0 109 67 180.5t173 71.5q150 0 251 -174q108 181 271 181zM932 390q80 0 127.5 53.5t47.5 134.5
q0 84 -43.5 134t-124.5 50q-34 0 -64.5 -13t-51 -29.5t-43 -48.5t-34 -52t-31.5 -58q88 -171 217 -171zM407 384q41 0 75.5 17t63 52.5t44.5 61.5t39 71q-91 169 -215 169q-78 0 -128 -50.5t-50 -135.5t45 -135t126 -50z" />
    <glyph glyph-name="integral" unicode="&#x222b;" horiz-adv-x="624" 
d="M215 -415q-59 0 -89 35.5t-30 84.5q0 26 12 43t36 17q26 0 38 -35q8 -52 58 -52q23 0 35.5 16t16.5 60q2 26 -2.5 73.5t-15 128.5t-15.5 137q-22 198 -22 442t5 404q4 359 44 459q21 58 56 88.5t78 30.5q107 0 120 -98q2 -22 -7 -40.5t-32 -19.5q-29 -1 -44 31
q-15 34 -60 34q-41 0 -54 -42q-7 -27 -8 -71.5t1.5 -82.5t9.5 -118.5t10 -127.5q28 -224 28 -445q0 -370 -7 -472q-11 -260 -32 -342q-17 -67 -47.5 -102.5t-82.5 -35.5z" />
    <glyph glyph-name="approxequal" unicode="&#x2248;" horiz-adv-x="1296" 
d="M209 703l-79 83q68 93 142.5 143t183.5 50q124 0 244 -65q118 -66 195 -66q90 0 179 133l79 -84q-53 -76 -114 -120t-142 -44q-104 0 -222 67q-113 64 -215 64q-75 0 -133.5 -41t-117.5 -120zM209 233l-79 85q44 60 84.5 98.5t103.5 66.5t138 28q125 0 244 -66
q118 -66 195 -66q90 0 179 133l79 -84q-53 -76 -114 -120t-142 -44q-104 0 -222 67q-115 65 -215 65q-75 0 -134 -41.5t-117 -121.5z" />
    <glyph glyph-name="notequal" unicode="&#x2260;" horiz-adv-x="1354" 
d="M1232 856h-376l-185 -360h561v-115h-621l-213 -414h-154l214 414h-336v115h395l186 360h-581v115h641l197 382h152l-197 -382h317v-115z" />
    <glyph glyph-name="lessequal" unicode="&#x2264;" horiz-adv-x="1240" 
d="M1074 1228v-125l-828 -316l828 -316v-124l-954 375v131zM143 0v115h931v-115h-931z" />
    <glyph glyph-name="greaterequal" unicode="&#x2265;" horiz-adv-x="1240" 
d="M166 1228l954 -375v-131l-954 -375v124l828 316l-828 316v125zM166 0v115h931v-115h-931z" />
    <glyph glyph-name="a.sc" horiz-adv-x="1329" 
d="M1198 59l55 -2v-57h-463v57l95 2q28 1 41 13t4 31l-75 167h-492l-70 -147q-15 -31 4 -47t53 -17l98 -1v-58h-370v58l40 5q48 17 72.5 40.5t42.5 59.5l387 801h90l375 -801q23 -46 46.5 -71.5t66.5 -32.5zM390 328h438l-198 440h-31z" />
    <glyph glyph-name="aacute.sc" horiz-adv-x="1329" 
d="M1067 1439l-399 -318h-61l223 322h237v-4zM1198 59l55 -2v-57h-463v57l95 2q28 1 41 13t4 31l-75 167h-492l-70 -147q-15 -31 4 -47t53 -17l98 -1v-58h-370v58l40 5q48 17 72.5 40.5t42.5 59.5l387 801h90l375 -801q23 -46 46.5 -71.5t66.5 -32.5zM390 328h438l-198 440
h-31z" />
    <glyph glyph-name="acircumflex.sc" horiz-adv-x="1329" 
d="M668 1363l-295 -242h-61l260 322h191l260 -322h-61zM1198 59l55 -2v-57h-463v57l95 2q28 1 41 13t4 31l-75 167h-492l-70 -147q-15 -31 4 -47t53 -17l98 -1v-58h-370v58l40 5q48 17 72.5 40.5t42.5 59.5l387 801h90l375 -801q23 -46 46.5 -71.5t66.5 -32.5zM390 328h438
l-198 440h-31z" />
    <glyph glyph-name="adieresis.sc" horiz-adv-x="1329" 
d="M480 1221q-40 0 -68 28.5t-28 66.5q0 40 28 68t68 28t68 -28t28 -68q0 -41 -28 -68t-68 -27zM852 1221q-40 0 -67.5 28.5t-27.5 66.5q0 40 28 68t67 28q40 0 68 -28t28 -68q0 -41 -28 -68t-68 -27zM1198 59l55 -2v-57h-463v57l95 2q28 1 41 13t4 31l-75 167h-492
l-70 -147q-15 -31 4 -47t53 -17l98 -1v-58h-370v58l40 5q48 17 72.5 40.5t42.5 59.5l387 801h90l375 -801q23 -46 46.5 -71.5t66.5 -32.5zM390 328h438l-198 440h-31z" />
    <glyph glyph-name="agrave.sc" horiz-adv-x="1329" 
d="M729 1121h-61l-399 318v4h237zM1198 59l55 -2v-57h-463v57l95 2q28 1 41 13t4 31l-75 167h-492l-70 -147q-15 -31 4 -47t53 -17l98 -1v-58h-370v58l40 5q48 17 72.5 40.5t42.5 59.5l387 801h90l375 -801q23 -46 46.5 -71.5t66.5 -32.5zM390 328h438l-198 440h-31z" />
    <glyph glyph-name="aring.sc" horiz-adv-x="1329" 
d="M668 1059q-77 0 -131.5 54.5t-54.5 132.5t54 131.5t132 53.5q77 0 131.5 -54t54.5 -131t-54.5 -132t-131.5 -55zM668 1375q-54 0 -90.5 -37.5t-36.5 -91.5q0 -55 36.5 -92t90.5 -37t91.5 37t37.5 92q0 54 -37.5 91.5t-91.5 37.5zM1198 59l55 -2v-57h-463v57l95 2
q28 1 41 13t4 31l-75 167h-492l-70 -147q-15 -31 4 -47t53 -17l98 -1v-58h-370v58l40 5q48 17 72.5 40.5t42.5 59.5l387 801h90l375 -801q23 -46 46.5 -71.5t66.5 -32.5zM390 328h438l-198 440h-31z" />
    <glyph glyph-name="atilde.sc" horiz-adv-x="1329" 
d="M382 1103h-59q-2 121 50 190.5t148 69.5q34 0 70.5 -13.5t52 -23t57.5 -36.5q3 -2 16 -12t16.5 -12t14.5 -9.5t16 -10t15 -7t17 -6t17.5 -3t20.5 -1.5q52 0 84 38.5t34 111.5h60q5 -117 -47 -195.5t-149 -78.5q-38 0 -76 13.5t-57.5 26t-54.5 37.5q-76 60 -133 60
q-54 0 -82.5 -39t-30.5 -100zM1198 59l55 -2v-57h-463v57l95 2q28 1 41 13t4 31l-75 167h-492l-70 -147q-15 -31 4 -47t53 -17l98 -1v-58h-370v58l40 5q48 17 72.5 40.5t42.5 59.5l387 801h90l375 -801q23 -46 46.5 -71.5t66.5 -32.5zM390 328h438l-198 440h-31z" />
    <glyph glyph-name="b.sc" horiz-adv-x="1337" 
d="M873 506q42 -7 81 -18t80.5 -31.5t71.5 -47.5t49 -68t18 -90q-1 -61 -31 -107t-74.5 -72.5t-106.5 -43t-117.5 -22t-116.5 -5.5h-579v57h83q42 0 58.5 22t16.5 64v656q0 86 -67 86h-91l1 61l614 -2q171 -1 265.5 -61.5t91.5 -161.5q-1 -50 -25 -90.5t-62.5 -65t-77.5 -39
t-82 -21.5zM679 891h-207v-356h210q134 0 196.5 41.5t64.5 132.5q3 89 -66 135.5t-198 46.5zM992 265q1 50 -14.5 87.5t-42.5 60t-68.5 36.5t-86 19t-101.5 5h-207v-330q0 -31 14 -55.5t51 -24.5h178q135 0 204.5 58t72.5 144z" />
    <glyph glyph-name="c.sc" horiz-adv-x="1464" 
d="M716 -18q-131 0 -239 39t-178.5 106t-108.5 155t-38 188q0 97 38.5 185.5t109 157.5t179.5 110t241 41q259 0 420 -189l17 153h65l4 -336h-62q-15 50 -48.5 101t-84.5 98.5t-127 77t-164 29.5q-84 0 -152.5 -25.5t-114 -67.5t-76.5 -100t-44.5 -120.5t-13.5 -129.5
q0 -186 105.5 -296.5t300.5 -110.5q153 0 268.5 81.5t156.5 230.5h64v-343h-64l-23 155q-143 -190 -431 -190z" />
    <glyph glyph-name="ccedilla.sc" horiz-adv-x="1464" 
d="M1170 360h64v-343h-64l-23 155q-137 -182 -407 -190l-24 -116q252 0 252 -152q0 -83 -82 -142.5t-229 -59.5q-103 0 -199 25l15 72q75 -19 164 -19q110 0 170 34t60 84q0 22 -14 37t-34.5 22.5t-52.5 11t-57.5 4.5t-60.5 1h-25l38 200q-158 10 -275 79t-175.5 174.5
t-58.5 232.5q0 97 38.5 185.5t109 157.5t179.5 110t241 41q259 0 420 -189l17 153h65l4 -336h-62q-15 50 -48.5 101t-84.5 98.5t-127 77t-164 29.5q-84 0 -152.5 -25.5t-114 -67.5t-76.5 -100t-44.5 -120.5t-13.5 -129.5q0 -186 105.5 -296.5t300.5 -110.5q153 0 268.5 81.5
t156.5 230.5z" />
    <glyph glyph-name="d.sc" horiz-adv-x="1513" 
d="M140 0v58h100q73 0 73 87v658q0 42 -16.5 64.5t-58.5 22.5h-98v56h525q161 0 287.5 -27.5t219 -84t141.5 -148t49 -214.5q0 -472 -697 -472h-525zM575 61h187q191 0 302 117t111 294q0 111 -38 194.5t-105 132t-150 71.5t-182 23h-222v-733q0 -50 18.5 -74.5t78.5 -24.5z
" />
    <glyph glyph-name="e.sc" horiz-adv-x="1374" 
d="M1130 312l65 -1l-23 -311h-1031v58h90q47 0 65 22t18 65v656q0 46 -19.5 66.5t-73.5 20.5h-80v58h978l18 -244l-64 -1l-21 112q-24 43 -50 57.5t-74 14.5h-449v-359h287q91 0 91 56v70h65v-320h-65v68q0 38 -23 51t-66 13h-289v-305q0 -49 17 -73.5t70 -24.5h379
q71 0 100 19t48 63z" />
    <glyph glyph-name="eacute.sc" horiz-adv-x="1374" 
d="M1087 1348l-399 -318h-61l223 322h237v-4zM1130 312l65 -1l-23 -311h-1031v58h90q47 0 65 22t18 65v656q0 46 -19.5 66.5t-73.5 20.5h-80v58h978l18 -244l-64 -1l-21 112q-24 43 -50 57.5t-74 14.5h-449v-359h287q91 0 91 56v70h65v-320h-65v68q0 38 -23 51t-66 13h-289
v-305q0 -49 17 -73.5t70 -24.5h379q71 0 100 19t48 63z" />
    <glyph glyph-name="ecircumflex.sc" horiz-adv-x="1374" 
d="M688 1272l-295 -242h-61l260 322h191l260 -322h-61zM1130 312l65 -1l-23 -311h-1031v58h90q47 0 65 22t18 65v656q0 46 -19.5 66.5t-73.5 20.5h-80v58h978l18 -244l-64 -1l-21 112q-24 43 -50 57.5t-74 14.5h-449v-359h287q91 0 91 56v70h65v-320h-65v68q0 38 -23 51
t-66 13h-289v-305q0 -49 17 -73.5t70 -24.5h379q71 0 100 19t48 63z" />
    <glyph glyph-name="edieresis.sc" horiz-adv-x="1374" 
d="M500 1130q-40 0 -68 28.5t-28 66.5q0 40 28 68t68 28t68 -28t28 -68q0 -41 -28 -68t-68 -27zM872 1130q-40 0 -67.5 28.5t-27.5 66.5q0 40 28 68t67 28q40 0 68 -28t28 -68q0 -41 -28 -68t-68 -27zM1130 312l65 -1l-23 -311h-1031v58h90q47 0 65 22t18 65v656
q0 46 -19.5 66.5t-73.5 20.5h-80v58h978l18 -244l-64 -1l-21 112q-24 43 -50 57.5t-74 14.5h-449v-359h287q91 0 91 56v70h65v-320h-65v68q0 38 -23 51t-66 13h-289v-305q0 -49 17 -73.5t70 -24.5h379q71 0 100 19t48 63z" />
    <glyph glyph-name="egrave.sc" horiz-adv-x="1374" 
d="M749 1030h-61l-399 318v4h237zM1130 312l65 -1l-23 -311h-1031v58h90q47 0 65 22t18 65v656q0 46 -19.5 66.5t-73.5 20.5h-80v58h978l18 -244l-64 -1l-21 112q-24 43 -50 57.5t-74 14.5h-449v-359h287q91 0 91 56v70h65v-320h-65v68q0 38 -23 51t-66 13h-289v-305
q0 -49 17 -73.5t70 -24.5h379q71 0 100 19t48 63z" />
    <glyph glyph-name="f.sc" horiz-adv-x="1240" 
d="M142 0v58h80q52 0 71.5 20.5t19.5 66.5v656q0 47 -19.5 67t-74.5 20h-79v58h971l14 -248h-66l-14 104q-27 50 -59.5 66.5t-73.5 16.5h-434v-356h279q42 0 63.5 16t21.5 56v52h65v-323h-65v57q0 40 -19.5 59.5t-66.5 19.5h-278v-321q0 -43 20 -65t76 -22h95v-58h-527z" />
    <glyph glyph-name="g.sc" horiz-adv-x="1507" 
d="M732 -18q-133 0 -245 40.5t-185.5 108t-114 154.5t-40.5 181q0 98 43 189t117 159t180.5 109t226.5 41q141 0 252 -51t170 -125l16 152h62l6 -324h-63q-18 48 -51 93.5t-83 88t-123 68.5t-158 26q-103 0 -184 -39t-128.5 -103t-71.5 -138.5t-24 -153.5t24 -150.5
t72 -130.5t129 -94t185 -35q140 0 230.5 54t111.5 164q0 46 -22.5 66.5t-74.5 20.5h-274v57h661v-57h-58q-38 0 -52.5 -23.5t-14.5 -68.5v-267h-68l-48 129q-85 -80 -180 -110.5t-223 -30.5z" />
    <glyph glyph-name="h.sc" horiz-adv-x="1623" 
d="M133 0v58h107q52 0 70.5 21t18.5 66v656q0 45 -18.5 66t-70.5 21h-107v58h555v-58h-107q-52 0 -69.5 -21.5t-17.5 -65.5v-268h634v268q0 44 -17.5 65.5t-67.5 21.5h-108v58h555v-58h-108q-51 0 -69.5 -21t-18.5 -66v-656q0 -45 18.5 -66t69.5 -21h108v-58h-555v58h113
q47 0 63.5 22.5t16.5 64.5v322h-634v-322q0 -42 16.5 -64.5t63.5 -22.5h114v-58h-555z" />
    <glyph glyph-name="i.sc" horiz-adv-x="825" 
d="M133 0v58h102q56 0 75.5 21t19.5 66v658q0 45 -19.5 66t-75.5 21h-102v58h559v-58h-101q-57 0 -76.5 -19.5t-19.5 -67.5v-658q0 -48 19.5 -67.5t76.5 -19.5h101v-58h-559z" />
    <glyph glyph-name="iacute.sc" horiz-adv-x="825" 
d="M413 1121h-61l223 322h237v-4zM133 0v58h102q56 0 75.5 21t19.5 66v658q0 45 -19.5 66t-75.5 21h-102v58h559v-58h-101q-57 0 -76.5 -19.5t-19.5 -67.5v-658q0 -48 19.5 -67.5t76.5 -19.5h101v-58h-559z" />
    <glyph glyph-name="icircumflex.sc" horiz-adv-x="825" 
d="M57 1121l260 322h191l260 -322h-61l-294 242l-295 -242h-61zM133 0v58h102q56 0 75.5 21t19.5 66v658q0 45 -19.5 66t-75.5 21h-102v58h559v-58h-101q-57 0 -76.5 -19.5t-19.5 -67.5v-658q0 -48 19.5 -67.5t76.5 -19.5h101v-58h-559z" />
    <glyph glyph-name="idieresis.sc" horiz-adv-x="825" 
d="M225 1221q-40 0 -68 28.5t-28 66.5q0 40 28 68t68 28t68 -28t28 -68q0 -41 -28 -68t-68 -27zM597 1221q-40 0 -67.5 28.5t-27.5 66.5q0 40 28 68t67 28q40 0 68 -28t28 -68q0 -41 -28 -68t-68 -27zM133 0v58h102q56 0 75.5 21t19.5 66v658q0 45 -19.5 66t-75.5 21h-102
v58h559v-58h-101q-57 0 -76.5 -19.5t-19.5 -67.5v-658q0 -48 19.5 -67.5t76.5 -19.5h101v-58h-559z" />
    <glyph glyph-name="igrave.sc" horiz-adv-x="825" 
d="M413 1121l-399 318v4h237l223 -322h-61zM133 0v58h102q56 0 75.5 21t19.5 66v658q0 45 -19.5 66t-75.5 21h-102v58h559v-58h-101q-57 0 -76.5 -19.5t-19.5 -67.5v-658q0 -48 19.5 -67.5t76.5 -19.5h101v-58h-559z" />
    <glyph glyph-name="j.sc" horiz-adv-x="835" 
d="M139 -344q-75 0 -139 19t-106.5 60t-42.5 97q0 27 19 47.5t53 20.5q37 0 61 -17t24 -49q0 -11 -15 -29t-10 -30q32 -67 174 -67q123 0 176 74t53 226v793q0 42 -18 64.5t-76 22.5h-194v58h626v-58h-82q-53 0 -72 -20.5t-19 -66.5v-752q0 -393 -412 -393z" />
    <glyph glyph-name="k.sc" horiz-adv-x="1571" 
d="M132 0v58h103q49 0 68 19t19 68v656q0 48 -19.5 67.5t-73.5 19.5h-97v58h553v-58h-106q-57 0 -75 -22.5t-18 -65.5v-370l465 357q53 31 53 67q0 34 -53 34h-92v58h513v-58h-107q-25 0 -48.5 -5t-48.5 -18.5t-37.5 -21.5t-41 -29t-35.5 -26l-216 -178l378 -450
q37 -41 53.5 -57.5t42.5 -30.5t56 -14h111v-58h-572v58h94q66 0 66 35q0 30 -56 88l-296 342l-229 -178v-200q0 -46 16.5 -66t59.5 -21l114 -1l3 -57h-547z" />
    <glyph glyph-name="l.sc" horiz-adv-x="1292" 
d="M132 0v58h108q50 0 70 18t20 69v656q0 46 -19 66.5t-73 20.5h-106v58h563v-58h-105q-56 0 -76 -19t-20 -68v-645q0 -50 18.5 -72.5t77.5 -22.5h309q186 0 187 129l17 124h63l-22 -314h-1012z" />
    <glyph glyph-name="lslash.sc" horiz-adv-x="1292" 
d="M1103 314h63l-22 -314h-1012v58h108q50 0 70 18t20 69v157l-164 -126v100l164 126v399q0 46 -19 66.5t-73 20.5h-106v58h563v-58h-105q-56 0 -76 -19t-20 -68v-273l314 241v-100l-314 -241v-272q0 -50 18.5 -72.5t77.5 -22.5h309q186 0 187 129z" />
    <glyph glyph-name="m.sc" horiz-adv-x="1896" 
d="M1658 58h108v-58h-559v58h98q55 0 74 19t19 68v659h-18l-463 -804h-69l-457 804h-12v-627q0 -119 92 -119h80v-58h-409v58h81q89 0 89 120v623q0 42 -18 64.5t-72 22.5h-80v58h357l435 -760l442 760h388v-58h-106q-57 0 -75.5 -22.5t-18.5 -64.5v-656q0 -42 18.5 -64.5
t75.5 -22.5z" />
    <glyph glyph-name="n.sc" horiz-adv-x="1530" 
d="M1000 946h414v-58h-81q-45 0 -65.5 -31.5t-20.5 -79.5v-793h-76l-786 810v-621q0 -115 97 -115h79v-58h-420v58h80q31 0 52 14t28.5 36t10 36.5t2.5 28.5v612q0 47 -25 75t-73 28h-77v58h328l710 -719v551q0 24 -5.5 46t-28 43t-60.5 21h-83v58z" />
    <glyph glyph-name="ntilde.sc" horiz-adv-x="1530" 
d="M489 1103h-59q-2 121 50 190.5t148 69.5q34 0 70.5 -13.5t52 -23t57.5 -36.5q3 -2 16 -12t16.5 -12t14.5 -9.5t16 -10t15 -7t17 -6t17.5 -3t20.5 -1.5q52 0 84 38.5t34 111.5h60q5 -117 -47 -195.5t-149 -78.5q-38 0 -76 13.5t-57.5 26t-54.5 37.5q-76 60 -133 60
q-54 0 -82.5 -39t-30.5 -100zM1000 946h414v-58h-81q-45 0 -65.5 -31.5t-20.5 -79.5v-793h-76l-786 810v-621q0 -115 97 -115h79v-58h-420v58h80q31 0 52 14t28.5 36t10 36.5t2.5 28.5v612q0 47 -25 75t-73 28h-77v58h328l710 -719v551q0 24 -5.5 46t-28 43t-60.5 21h-83v58
z" />
    <glyph glyph-name="o.sc" horiz-adv-x="1462" 
d="M732 -18q-263 0 -422 138.5t-159 356.5q0 92 38.5 178.5t109 155.5t182.5 111t247 42q141 0 255 -43t184 -113.5t107 -157t37 -178.5q0 -96 -38.5 -183.5t-109.5 -156t-183 -109.5t-248 -41zM728 48q186 0 289 108t103 317q0 212 -104.5 318.5t-286.5 106.5
q-186 0 -287 -116t-101 -301q0 -80 22.5 -154.5t67.5 -138t122 -102t175 -38.5z" />
    <glyph glyph-name="oacute.sc" horiz-adv-x="1462" 
d="M731 1121h-61l223 322h237v-4zM732 -18q-263 0 -422 138.5t-159 356.5q0 92 38.5 178.5t109 155.5t182.5 111t247 42q141 0 255 -43t184 -113.5t107 -157t37 -178.5q0 -96 -38.5 -183.5t-109.5 -156t-183 -109.5t-248 -41zM728 48q186 0 289 108t103 317
q0 212 -104.5 318.5t-286.5 106.5q-186 0 -287 -116t-101 -301q0 -80 22.5 -154.5t67.5 -138t122 -102t175 -38.5z" />
    <glyph glyph-name="ocircumflex.sc" horiz-adv-x="1462" 
d="M375 1121l260 322h191l260 -322h-61l-294 242l-295 -242h-61zM732 -18q-263 0 -422 138.5t-159 356.5q0 92 38.5 178.5t109 155.5t182.5 111t247 42q141 0 255 -43t184 -113.5t107 -157t37 -178.5q0 -96 -38.5 -183.5t-109.5 -156t-183 -109.5t-248 -41zM728 48
q186 0 289 108t103 317q0 212 -104.5 318.5t-286.5 106.5q-186 0 -287 -116t-101 -301q0 -80 22.5 -154.5t67.5 -138t122 -102t175 -38.5z" />
    <glyph glyph-name="odieresis.sc" horiz-adv-x="1462" 
d="M543 1221q-40 0 -68 28.5t-28 66.5q0 40 28 68t68 28t68 -28t28 -68q0 -41 -28 -68t-68 -27zM915 1221q-40 0 -67.5 28.5t-27.5 66.5q0 40 28 68t67 28q40 0 68 -28t28 -68q0 -41 -28 -68t-68 -27zM732 -18q-263 0 -422 138.5t-159 356.5q0 92 38.5 178.5t109 155.5
t182.5 111t247 42q141 0 255 -43t184 -113.5t107 -157t37 -178.5q0 -96 -38.5 -183.5t-109.5 -156t-183 -109.5t-248 -41zM728 48q186 0 289 108t103 317q0 212 -104.5 318.5t-286.5 106.5q-186 0 -287 -116t-101 -301q0 -80 22.5 -154.5t67.5 -138t122 -102t175 -38.5z" />
    <glyph glyph-name="ograve.sc" horiz-adv-x="1462" 
d="M731 1121l-399 318v4h237l223 -322h-61zM732 -18q-263 0 -422 138.5t-159 356.5q0 92 38.5 178.5t109 155.5t182.5 111t247 42q141 0 255 -43t184 -113.5t107 -157t37 -178.5q0 -96 -38.5 -183.5t-109.5 -156t-183 -109.5t-248 -41zM728 48q186 0 289 108t103 317
q0 212 -104.5 318.5t-286.5 106.5q-186 0 -287 -116t-101 -301q0 -80 22.5 -154.5t67.5 -138t122 -102t175 -38.5z" />
    <glyph glyph-name="oslash.sc" horiz-adv-x="1462" 
d="M1111 854q98 -70 149 -171.5t51 -210.5q0 -96 -38.5 -183.5t-109.5 -156t-183 -109.5t-248 -41q-182 0 -319 70l-63 -72l-55 48l54 62q-95 67 -146.5 167t-51.5 220q0 92 38.5 178.5t109 155.5t182.5 111t247 42q183 0 321 -72l65 74l53 -48zM341 481q0 -174 92 -295
l553 633q-100 79 -257 79q-186 0 -287 -116t-101 -301zM728 48q186 0 289 108t103 317q0 186 -84 295l-553 -635q98 -85 245 -85z" />
    <glyph glyph-name="oslashacute.sc" horiz-adv-x="1462" 
d="M1130 1439l-399 -318h-61l223 322h237v-4zM1111 854q98 -70 149 -171.5t51 -210.5q0 -96 -38.5 -183.5t-109.5 -156t-183 -109.5t-248 -41q-182 0 -319 70l-63 -72l-55 48l54 62q-95 67 -146.5 167t-51.5 220q0 92 38.5 178.5t109 155.5t182.5 111t247 42q183 0 321 -72
l65 74l53 -48zM341 481q0 -174 92 -295l553 633q-100 79 -257 79q-186 0 -287 -116t-101 -301zM728 48q186 0 289 108t103 317q0 186 -84 295l-553 -635q98 -85 245 -85z" />
    <glyph glyph-name="otilde.sc" horiz-adv-x="1462" 
d="M386 1103q-2 121 50 190.5t148 69.5q34 0 70.5 -13.5t52 -23t57.5 -36.5q3 -2 16 -12t16.5 -12t14.5 -9.5t16 -10t15 -7t17 -6t17.5 -3t20.5 -1.5q52 0 84 38.5t34 111.5h60q5 -117 -47 -195.5t-149 -78.5q-38 0 -76 13.5t-57.5 26t-54.5 37.5q-76 60 -133 60
q-54 0 -82.5 -39t-30.5 -100h-59zM732 -18q-263 0 -422 138.5t-159 356.5q0 92 38.5 178.5t109 155.5t182.5 111t247 42q141 0 255 -43t184 -113.5t107 -157t37 -178.5q0 -96 -38.5 -183.5t-109.5 -156t-183 -109.5t-248 -41zM728 48q186 0 289 108t103 317
q0 212 -104.5 318.5t-286.5 106.5q-186 0 -287 -116t-101 -301q0 -80 22.5 -154.5t67.5 -138t122 -102t175 -38.5z" />
    <glyph glyph-name="p.sc" horiz-adv-x="1243" 
d="M142 0v58h82q52 0 71 20t19 67v658q0 42 -18.5 64.5t-75.5 22.5h-81v56h522q68 0 124.5 -4.5t110.5 -15.5t94 -30t70.5 -46.5t46.5 -67.5t16 -90q0 -261 -421 -261h-222v-286q0 -42 18.5 -64.5t76.5 -22.5h80v-58h-513zM480 493h208q124 0 191 44t67 152q0 106 -64.5 154
t-191.5 48h-210v-398z" />
    <glyph glyph-name="q.sc" horiz-adv-x="1367" 
d="M683 -18q-263 0 -422 138.5t-159 356.5q0 92 38.5 178.5t109 155.5t182.5 111t248 42q141 0 255 -43t184 -113.5t107 -157t37 -178.5q0 -96 -38.5 -183.5t-110 -156t-183.5 -109.5t-248 -41zM680 48q186 0 288.5 108t102.5 317q0 212 -104.5 318.5t-286.5 106.5
q-186 0 -287 -116t-101 -301q0 -80 22.5 -154.5t67.5 -138t122 -102t176 -38.5zM857 -118q51 -11 157 -60t179 -49q130 0 203 58l64 -74q-102 -95 -291 -95q-55 0 -101 9.5t-88 31.5t-64 37t-64 46q-116 85 -208 85q-53 0 -106 -25t-126 -77l-39 38q146 101 247 112
q106 16 237 -37z" />
    <glyph glyph-name="r.sc" horiz-adv-x="1433" 
d="M140 0v58h80q54 0 74 19.5t20 67.5v658q0 46 -19 65.5t-70 19.5h-85v58h597q189 0 296.5 -62.5t107.5 -193.5q0 -96 -71 -159t-187 -71q10 -7 19.5 -13.5t19.5 -15.5t16.5 -15t19 -19t17.5 -19t20.5 -23t21.5 -24l183 -213q59 -60 102 -60h51v-58h-245l-249 312
q-56 71 -98 94.5t-105 23.5h-176v-285q0 -47 19 -67t73 -20h79v-58h-511zM480 493h208q134 0 208 45.5t74 153.5q0 194 -275 194h-215v-393z" />
    <glyph glyph-name="s.sc" horiz-adv-x="1170" 
d="M643 -18q-115 0 -209.5 36.5t-148.5 110.5l-14 -114h-68v326h68q11 -121 108 -207t263 -86q86 0 152.5 39t66.5 120q0 27 -7.5 48.5t-26 39.5t-37 31t-52.5 27t-59.5 23t-71.5 23q-184 67 -240 97q-116 61 -141 148q-9 30 -9 64q0 110 98 183t234 73q85 0 163.5 -30
t128.5 -85l15 99h65v-278h-65q-14 108 -100 170.5t-195 62.5q-99 0 -156 -43t-57 -97q0 -38 17 -65t55 -49t82 -39t116 -41q24 -8 37 -12q64 -21 106.5 -37t92 -42.5t78.5 -54.5t49 -69.5t20 -90.5q0 -54 -22.5 -101t-59.5 -79.5t-84 -55.5t-96 -34t-96 -11z" />
    <glyph glyph-name="scaron.sc" horiz-adv-x="1170" 
d="M495 1121l-259 322h60l295 -242l294 242h61l-259 -322h-192zM643 -18q-115 0 -209.5 36.5t-148.5 110.5l-14 -114h-68v326h68q11 -121 108 -207t263 -86q86 0 152.5 39t66.5 120q0 27 -7.5 48.5t-26 39.5t-37 31t-52.5 27t-59.5 23t-71.5 23q-184 67 -240 97
q-116 61 -141 148q-9 30 -9 64q0 110 98 183t234 73q85 0 163.5 -30t128.5 -85l15 99h65v-278h-65q-14 108 -100 170.5t-195 62.5q-99 0 -156 -43t-57 -97q0 -38 17 -65t55 -49t82 -39t116 -41q24 -8 37 -12q64 -21 106.5 -37t92 -42.5t78.5 -54.5t49 -69.5t20 -90.5
q0 -54 -22.5 -101t-59.5 -79.5t-84 -55.5t-96 -34t-96 -11z" />
    <glyph glyph-name="t.sc" horiz-adv-x="1349" 
d="M399 0v58h99q57 0 76.5 23t19.5 64v740h-266q-27 0 -46 -3t-42 -13.5t-36.5 -36.5t-15.5 -66l-6 -80l-65 1l10 259h1095l11 -259l-65 -1l-5 82q-12 73 -47 95t-97 22h-262v-740q0 -43 18.5 -65t77.5 -22h98v-58h-552z" />
    <glyph glyph-name="u.sc" horiz-adv-x="1474" 
d="M742 -18q-232 0 -352 95.5t-120 282.5v441q0 45 -19.5 66t-74.5 21h-76v58h541v-58h-114q-54 0 -73.5 -20t-19.5 -67v-441q0 -307 346 -307q192 0 277.5 82.5t85.5 240.5v408q0 46 -24.5 75t-75.5 29h-71v58h393v-58h-65q-45 0 -66.5 -28.5t-21.5 -73.5v-412
q0 -392 -470 -392z" />
    <glyph glyph-name="uacute.sc" horiz-adv-x="1474" 
d="M737 1122h-61l223 322h237v-4zM742 -18q-232 0 -352 95.5t-120 282.5v441q0 45 -19.5 66t-74.5 21h-76v58h541v-58h-114q-54 0 -73.5 -20t-19.5 -67v-441q0 -307 346 -307q192 0 277.5 82.5t85.5 240.5v408q0 46 -24.5 75t-75.5 29h-71v58h393v-58h-65q-45 0 -66.5 -28.5
t-21.5 -73.5v-412q0 -392 -470 -392z" />
    <glyph glyph-name="ucircumflex.sc" horiz-adv-x="1474" 
d="M381 1122l260 322h191l260 -322h-61l-294 242l-295 -242h-61zM742 -18q-232 0 -352 95.5t-120 282.5v441q0 45 -19.5 66t-74.5 21h-76v58h541v-58h-114q-54 0 -73.5 -20t-19.5 -67v-441q0 -307 346 -307q192 0 277.5 82.5t85.5 240.5v408q0 46 -24.5 75t-75.5 29h-71v58
h393v-58h-65q-45 0 -66.5 -28.5t-21.5 -73.5v-412q0 -392 -470 -392z" />
    <glyph glyph-name="udieresis.sc" horiz-adv-x="1474" 
d="M549 1222q-40 0 -68 28.5t-28 66.5q0 40 28 68t68 28t68 -28t28 -68q0 -41 -28 -68t-68 -27zM921 1222q-40 0 -67.5 28.5t-27.5 66.5q0 40 28 68t67 28q40 0 68 -28t28 -68q0 -41 -28 -68t-68 -27zM742 -18q-232 0 -352 95.5t-120 282.5v441q0 45 -19.5 66t-74.5 21h-76
v58h541v-58h-114q-54 0 -73.5 -20t-19.5 -67v-441q0 -307 346 -307q192 0 277.5 82.5t85.5 240.5v408q0 46 -24.5 75t-75.5 29h-71v58h393v-58h-65q-45 0 -66.5 -28.5t-21.5 -73.5v-412q0 -392 -470 -392z" />
    <glyph glyph-name="ugrave.sc" horiz-adv-x="1474" 
d="M737 1122l-399 318v4h237l223 -322h-61zM742 -18q-232 0 -352 95.5t-120 282.5v441q0 45 -19.5 66t-74.5 21h-76v58h541v-58h-114q-54 0 -73.5 -20t-19.5 -67v-441q0 -307 346 -307q192 0 277.5 82.5t85.5 240.5v408q0 46 -24.5 75t-75.5 29h-71v58h393v-58h-65
q-45 0 -66.5 -28.5t-21.5 -73.5v-412q0 -392 -470 -392z" />
    <glyph glyph-name="v.sc" horiz-adv-x="1395" 
d="M927 946h391v-58h-56q-41 0 -64.5 -26.5t-69.5 -112.5l-366 -768h-94l-406 796q-41 72 -55 87q-23 24 -65 24h-66v58h537v-58h-127q-110 0 -55 -93l334 -637l299 611q30 47 18.5 83t-68.5 36h-87v58z" />
    <glyph glyph-name="w.sc" horiz-adv-x="1858" 
d="M1404 946h373v-58h-43q-39 0 -61.5 -31.5t-49.5 -106.5l-264 -768h-114l-314 785l-283 -785h-117l-303 810q-22 58 -41.5 77t-58.5 19h-49v58h494v-58h-129q-90 0 -49 -94l244 -632l283 790h107l314 -783l204 580q15 39 18 68.5t-13 50t-54 20.5h-94v58z" />
    <glyph glyph-name="wacute.sc" horiz-adv-x="1858" 
d="M1326 1439l-399 -318h-61l223 322h237v-4zM1404 946h373v-58h-43q-39 0 -61.5 -31.5t-49.5 -106.5l-264 -768h-114l-314 785l-283 -785h-117l-303 810q-22 58 -41.5 77t-58.5 19h-49v58h494v-58h-129q-90 0 -49 -94l244 -632l283 790h107l314 -783l204 580q15 39 18 68.5
t-13 50t-54 20.5h-94v58z" />
    <glyph glyph-name="wcircumflex.sc" horiz-adv-x="1858" 
d="M927 1363l-295 -242h-61l260 322h191l260 -322h-61zM1404 946h373v-58h-43q-39 0 -61.5 -31.5t-49.5 -106.5l-264 -768h-114l-314 785l-283 -785h-117l-303 810q-22 58 -41.5 77t-58.5 19h-49v58h494v-58h-129q-90 0 -49 -94l244 -632l283 790h107l314 -783l204 580
q15 39 18 68.5t-13 50t-54 20.5h-94v58z" />
    <glyph glyph-name="wdieresis.sc" horiz-adv-x="1858" 
d="M739 1221q-40 0 -68 28.5t-28 66.5q0 40 28 68t68 28t68 -28t28 -68q0 -41 -28 -68t-68 -27zM1111 1221q-40 0 -67.5 28.5t-27.5 66.5q0 40 28 68t67 28q40 0 68 -28t28 -68q0 -41 -28 -68t-68 -27zM1404 946h373v-58h-43q-39 0 -61.5 -31.5t-49.5 -106.5l-264 -768h-114
l-314 785l-283 -785h-117l-303 810q-22 58 -41.5 77t-58.5 19h-49v58h494v-58h-129q-90 0 -49 -94l244 -632l283 790h107l314 -783l204 580q15 39 18 68.5t-13 50t-54 20.5h-94v58z" />
    <glyph glyph-name="wgrave.sc" horiz-adv-x="1858" 
d="M988 1121h-61l-399 318v4h237zM1404 946h373v-58h-43q-39 0 -61.5 -31.5t-49.5 -106.5l-264 -768h-114l-314 785l-283 -785h-117l-303 810q-22 58 -41.5 77t-58.5 19h-49v58h494v-58h-129q-90 0 -49 -94l244 -632l283 790h107l314 -783l204 580q15 39 18 68.5t-13 50
t-54 20.5h-94v58z" />
    <glyph glyph-name="x.sc" horiz-adv-x="1592" 
d="M129 0v58h57q54 0 159 83l370 319l-350 328q-12 11 -33 31t-28 26.5t-21.5 18t-23.5 15t-22 6.5t-28 3h-91v58h566v-58h-103q-45 0 -52.5 -22t29.5 -56l268 -247l277 241q44 36 35.5 60t-60.5 24h-109v58h457v-58h-60q-65 0 -173 -85l-322 -282l372 -353q8 -8 33 -33.5
t33.5 -33t27 -21t35 -18t35.5 -4.5h82v-58h-604v58h125q61 0 71 25t-36 69l-288 266l-303 -268q-43 -36 -32 -64t68 -28h123v-58h-484z" />
    <glyph glyph-name="y.sc" horiz-adv-x="1343" 
d="M392 0v58h122q55 0 73.5 21.5t18.5 64.5v210l-353 452q-27 32 -38.5 45t-31.5 25t-42 12h-65v58h519v-58h-120q-46 0 -52 -27t23 -58l297 -367l281 346q39 41 27.5 73.5t-65.5 32.5h-101v58h382v-58h-26q-32 0 -57 -19.5t-63 -64.5l-349 -439l-1 -220q-1 -45 18 -66
t73 -21h121v-58h-591z" />
    <glyph glyph-name="yacute.sc" horiz-adv-x="1343" 
d="M674 1121h-61l223 322h237v-4zM392 0v58h122q55 0 73.5 21.5t18.5 64.5v210l-353 452q-27 32 -38.5 45t-31.5 25t-42 12h-65v58h519v-58h-120q-46 0 -52 -27t23 -58l297 -367l281 346q39 41 27.5 73.5t-65.5 32.5h-101v58h382v-58h-26q-32 0 -57 -19.5t-63 -64.5
l-349 -439l-1 -220q-1 -45 18 -66t73 -21h121v-58h-591z" />
    <glyph glyph-name="ycircumflex.sc" horiz-adv-x="1343" 
d="M318 1121l260 322h191l260 -322h-61l-294 242l-295 -242h-61zM392 0v58h122q55 0 73.5 21.5t18.5 64.5v210l-353 452q-27 32 -38.5 45t-31.5 25t-42 12h-65v58h519v-58h-120q-46 0 -52 -27t23 -58l297 -367l281 346q39 41 27.5 73.5t-65.5 32.5h-101v58h382v-58h-26
q-32 0 -57 -19.5t-63 -64.5l-349 -439l-1 -220q-1 -45 18 -66t73 -21h121v-58h-591z" />
    <glyph glyph-name="ydieresis.sc" horiz-adv-x="1343" 
d="M486 1221q-40 0 -68 28.5t-28 66.5q0 40 28 68t68 28t68 -28t28 -68q0 -41 -28 -68t-68 -27zM858 1221q-40 0 -67.5 28.5t-27.5 66.5q0 40 28 68t67 28q40 0 68 -28t28 -68q0 -41 -28 -68t-68 -27zM392 0v58h122q55 0 73.5 21.5t18.5 64.5v210l-353 452q-27 32 -38.5 45
t-31.5 25t-42 12h-65v58h519v-58h-120q-46 0 -52 -27t23 -58l297 -367l281 346q39 41 27.5 73.5t-65.5 32.5h-101v58h382v-58h-26q-32 0 -57 -19.5t-63 -64.5l-349 -439l-1 -220q-1 -45 18 -66t73 -21h121v-58h-591z" />
    <glyph glyph-name="ygrave.sc" horiz-adv-x="1343" 
d="M674 1121l-399 318v4h237l223 -322h-61zM392 0v58h122q55 0 73.5 21.5t18.5 64.5v210l-353 452q-27 32 -38.5 45t-31.5 25t-42 12h-65v58h519v-58h-120q-46 0 -52 -27t23 -58l297 -367l281 346q39 41 27.5 73.5t-65.5 32.5h-101v58h382v-58h-26q-32 0 -57 -19.5
t-63 -64.5l-349 -439l-1 -220q-1 -45 18 -66t73 -21h121v-58h-591z" />
    <glyph glyph-name="z.sc" horiz-adv-x="1353" 
d="M1131 295l66 -1l-30 -294h-1013v64l798 826h-512q-71 0 -110 -19t-64 -56l-33 -117l-64 1l28 252h958v-63l-805 -827h578q70 0 108 13.5t64 64.5z" />
    <glyph glyph-name="zcaron.sc" horiz-adv-x="1353" 
d="M766 1121h-192l-259 322h60l295 -242l294 242h61zM1131 295l66 -1l-30 -294h-1013v64l798 826h-512q-71 0 -110 -19t-64 -56l-33 -117l-64 1l28 252h958v-63l-805 -827h578q70 0 108 13.5t64 64.5z" />
    <glyph glyph-name="zero.sc" horiz-adv-x="1112" 
d="M555 -18q-65 0 -125 14.5t-119.5 50.5t-103 90.5t-70.5 142.5t-27 199q0 225 124 354t321 129q91 0 170 -29t142 -86.5t99 -153.5t36 -220q0 -231 -122 -361t-325 -130zM559 44q139 0 204 98.5t65 309.5q0 233 -65.5 340.5t-207.5 107.5q-138 0 -204.5 -113.5
t-66.5 -309.5q0 -219 66 -326t209 -107z" />
    <glyph glyph-name="one.sc" horiz-adv-x="1110" 
d="M758 61h220v-61h-819v61h253q49 0 69 17.5t20 53.5v715q-63 -27 -133 -37t-209 -10v59q180 2 268 23t155 80h88v-827q0 -36 18.5 -55t69.5 -19z" />
    <glyph glyph-name="two.sc" horiz-adv-x="1110" 
d="M963 223h69l-117 -257h-72q8 17 2 25.5t-37 8.5h-669v61q107 58 220.5 143.5t207.5 176.5q82 75 131 158t49 161q0 84 -64.5 141t-177.5 57q-104 0 -173 -42t-69 -103q0 -50 41 -98l-102 -43q-52 64 -52 122q0 101 113.5 164.5t276.5 63.5q167 0 274 -70t107 -185
q0 -78 -55.5 -151.5t-172.5 -178.5q-29 -27 -56.5 -50.5t-48 -40.5t-48 -36.5t-42 -30t-44.5 -30t-41.5 -26.5t-48 -29.5t-49.5 -30.5h507q76 0 101 41z" />
    <glyph glyph-name="three.sc" horiz-adv-x="1110" 
d="M467 -18q-141 0 -237.5 43t-116.5 105q-5 32 14.5 49.5t47.5 18.5q8 0 16 -2t13.5 -4t11.5 -7.5t9 -8.5t8 -10.5t6.5 -10t6 -11t5.5 -9.5q71 -91 226 -91q150 0 238 71t88 180q0 48 -15.5 83.5t-38.5 55t-55.5 31.5t-60 15.5t-57.5 3.5q-51 0 -95 -21l-63 -33l-44 48
l141 66q53 23 92 44t77.5 48.5t58.5 59t20 65.5q0 69 -66 102.5t-168 33.5q-103 0 -172 -34.5t-69 -88.5q0 -39 38 -82l-110 -45q-47 49 -47 103q0 93 117.5 152.5t282.5 59.5q95 0 174 -18t131.5 -59.5t52.5 -99.5q0 -46 -32 -88t-82 -71.5t-95 -48.5t-87 -31
q152 2 249.5 -56t97.5 -174q0 -99 -73.5 -176.5t-189 -117.5t-248.5 -40z" />
    <glyph glyph-name="four.sc" horiz-adv-x="1110" 
d="M434 0v61h117q56 0 73.5 18.5t17.5 61.5v187h-548v88l601 544h115v-557h197v-75h-197v-189q0 -36 18.5 -57t74.5 -21h105v-61h-574zM179 403h463v417h-12l-451 -406v-11z" />
    <glyph glyph-name="five.sc" horiz-adv-x="1110" 
d="M562 634q78 0 149 -18.5t130 -54.5t94 -97t35 -139q0 -73 -28.5 -132t-74.5 -97.5t-108 -64.5t-126 -37.5t-131 -11.5q-129 0 -234.5 35t-137.5 101q-4 24 13 42t43 20q23 2 38.5 -8t36.5 -33q92 -90 257 -90q121 0 201 73.5t80 193.5q0 109 -73 178t-199 69
q-142 0 -218 -85h-88l25 468h626l-45 -105h-514l-17 -289q42 40 113.5 61t152.5 21z" />
    <glyph glyph-name="six.sc" horiz-adv-x="1110" 
d="M578 -18q-91 0 -167 23t-137 70.5t-95.5 129t-34.5 188.5q0 143 40 253.5t110.5 178.5t161.5 102.5t199 34.5q106 0 184 -30t107 -79q5 -22 -10 -41t-42 -21q-5 0 -10 0.5t-9 1.5t-10 4l-9 4.5t-10 6.5t-9 7t-10.5 8t-10.5 8q-82 66 -199 66q-85 0 -146.5 -38t-94.5 -104
t-48.5 -135.5t-19.5 -151.5q83 138 289 135q168 -2 276.5 -85t108.5 -220q0 -100 -57.5 -173t-147.5 -108t-199 -35zM576 44q114 0 173 62t59 168q0 262 -249 262q-206 0 -241 -238q29 -254 258 -254z" />
    <glyph glyph-name="seven.sc" horiz-adv-x="1110" 
d="M436 -17q-64 1 -69.5 44.5t41.5 98.5l463 696h-555q-77 0 -101 -41l-39 -79h-69l121 278h71q-8 -17 -2 -25.5t37 -8.5h663l-464 -875q-22 -49 -42.5 -69t-54.5 -19z" />
    <glyph glyph-name="eight.sc" horiz-adv-x="1109" 
d="M557 -18q-86 0 -162 14t-142 44.5t-104.5 85t-38.5 127.5q0 210 305 251q-255 44 -255 216q0 64 33 112t89.5 75.5t125 41t146.5 13.5q109 0 195.5 -24t143 -80t56.5 -138q0 -51 -23 -91t-62.5 -64.5t-79 -38.5t-84.5 -22q47 -7 85.5 -17t80 -29t69.5 -45t46.5 -66.5
t18.5 -91.5q0 -70 -35.5 -123.5t-98 -85.5t-140.5 -48t-169 -16zM556 530q113 0 170 50.5t57 144.5q0 76 -58 126.5t-171 50.5t-170 -50.5t-57 -123.5q0 -92 56 -145t173 -53zM556 43q133 0 201.5 60t68.5 149q0 217 -273 217q-134 0 -201.5 -56.5t-67.5 -146.5
q0 -102 67.5 -162.5t204.5 -60.5z" />
    <glyph glyph-name="nine.sc" horiz-adv-x="1110" 
d="M457 -18q-105 0 -182 30t-108 79q-5 22 9.5 41t40.5 21q13 1 27.5 -5.5t22 -12t25.5 -19.5q84 -69 202 -69q69 0 123 25t88 66t56 98t30.5 115t8.5 122q-79 -133 -274 -133q-172 0 -284 83.5t-112 222.5q0 100 57.5 173t148 108t198.5 35q72 0 135.5 -14t118.5 -45.5
t94.5 -78.5t62 -116.5t22.5 -156.5q0 -143 -40 -253.5t-110.5 -178.5t-161.5 -102.5t-198 -34.5zM553 408q207 0 240 239q-28 253 -257 253q-113 0 -172.5 -62t-59.5 -168q0 -124 60.5 -193t188.5 -69z" />
    <glyph glyph-name="uni0308.case" 
d="M-586 1510q-40 0 -68 29t-28 67q0 39 28 67t68 28t68 -28t28 -67q0 -41 -28 -68.5t-68 -27.5zM-214 1510q-40 0 -67.5 29t-27.5 67q0 40 28 67.5t67 27.5q40 0 68 -28t28 -67q0 -41 -28 -68.5t-68 -27.5z" />
    <glyph glyph-name="gravecomb.case" 
d="M-111 1438l-399 317v4h237l223 -321h-61z" />
    <glyph glyph-name="acutecomb.case" 
d="M-481 1438l224 321h236v-4l-399 -317h-61z" />
    <glyph glyph-name="uni0302.case" 
d="M-761 1470l251 322h209l251 -322h-61l-294 242l-295 -242h-61z" />
    <glyph glyph-name="uni030C.case" 
d="M-504 1456l-259 322h60l295 -242l294 242h61l-259 -322h-192z" />
    <glyph glyph-name="uni030A.case" 
d="M-287 1443q-76 0 -130 54t-54 131t54 130.5t130 53.5q77 0 131.5 -54t54.5 -130t-54.5 -130.5t-131.5 -54.5zM-287 1500q54 0 91 37.5t37 90.5t-37 90.5t-91 37.5q-52 0 -89 -37.5t-37 -90.5t37 -90.5t89 -37.5z" />
    <glyph glyph-name="tildecomb.case" 
d="M-800 1440q-2 121 50 190.5t148 69.5q34 0 70.5 -13.5t52 -23t57.5 -36.5q4 -3 18.5 -14t18.5 -13.5t16 -10.5t18.5 -10.5t17.5 -6.5t21.5 -5.5t22.5 -1.5q52 0 84 38.5t34 111.5h60q5 -116 -47 -194.5t-149 -78.5q-38 0 -76 13.5t-57.5 26t-54.5 37.5q-26 20 -42.5 30.5
t-41.5 20t-49 9.5q-54 0 -82.5 -39t-30.5 -100h-59z" />
    <glyph glyph-name="uni0335.case" 
d="M-961 646v77h817v-77h-817z" />
    <glyph glyph-name="uni0337.case" 
d="M-813 349v109l806 618v-109z" />
    <glyph glyph-name="uni0338.case" 
d="M-1144 5l-56 48l1177 1337l54 -48z" />
    </font>
</defs>
</svg>
