<?xml version="1.0" standalone="no"?>
<!DOCTYPE svg PUBLIC "-//W3C//DTD SVG 1.1//EN" "http://www.w3.org/Graphics/SVG/1.1/DTD/svg11.dtd" >
<svg xmlns="http://www.w3.org/2000/svg" xmlns:xlink="http://www.w3.org/1999/xlink" version="1.1">
<metadata>
Created by FontForge 20170731 at Wed Dec 13 17:12:53 2017
 By ,,,
Copyright (c)2017 HK CartaTM by Alfredo Marco Pradil
</metadata>
<defs>
<font id="HKCarta-ThinItalic" horiz-adv-x="0" >
  <font-face 
    font-family="HK Carta Thin Italic"
    font-weight="100"
    font-style="italic"
    font-stretch="normal"
    units-per-em="2048"
    panose-1="0 0 2 0 0 0 0 0 0 0"
    ascent="1393"
    descent="-655"
    x-height="828"
    cap-height="1352"
    bbox="-1011 -545 2254 1806"
    underline-thickness="50"
    underline-position="-200"
    slope="-12"
    unicode-range="U+0020-FB02"
  />
<missing-glyph horiz-adv-x="1180" 
d="M118 0l287 1352h768l-286 -1352h-769zM172 45h679l268 1261h-679z" />
    <glyph glyph-name="fi" unicode="fi" horiz-adv-x="1043" 
d="M764 1374q120 0 182.5 -60.5t54.5 -171.5q-4 -36 -37 -39q-17 -1 -23 12.5t-5 37.5q4 84 -41 128.5t-135 44.5q-116 0 -192.5 -69.5t-105.5 -195.5l-54 -233h526l-173 -745q-5 -21 8 -28t41 -7h107l-10 -48h-237l184 780h-458l-296 -1269h-71l296 1269h-233l11 48h234
l56 234q36 150 133.5 231t237.5 81z" />
    <glyph glyph-name="fl" unicode="fl" horiz-adv-x="1026" 
d="M29 -489l296 1269h-234l12 48h234l54 234q36 150 134 231t236 81q131 0 188 -74l110 93l-305 -1310q-4 -21 9 -28t41 -7h107l-10 -48h-237l250 1068q59 258 -156 258q-116 0 -191 -70t-105 -195l-56 -233h316l-12 -48h-314l-296 -1269h-71z" />
    <glyph glyph-name="f_f" unicode="ff" horiz-adv-x="1176" 
d="M1280 1374q112 0 171.5 -60t52.5 -172q-3 -35 -34 -39q-15 -1 -23.5 11.5t-7.5 35.5q4 85 -39 130.5t-131 45.5q-109 0 -183.5 -70t-103.5 -195l-56 -233h316l-12 -48h-314l-296 -1269h-71l297 1269h-450l-296 -1269h-71l296 1269h-233l11 48h234l56 234
q35 149 132.5 230.5t234.5 81.5q90 0 147 -38.5t73 -112.5q105 151 300 151zM911 1062q1 7 15 53q-6 13 -5 35q4 85 -39.5 130.5t-130.5 45.5q-110 0 -185 -70t-104 -195l-54 -233h450z" />
    <glyph glyph-name="f_f_i" unicode="ffi" horiz-adv-x="1563" 
d="M1282 1374q121 0 182.5 -59.5t54.5 -172.5q-3 -35 -34 -39q-13 -1 -20 6t-8.5 17t-2.5 27q4 85 -40.5 129t-135.5 44q-115 0 -191 -69.5t-105 -195.5l-56 -233h528l-173 -745q-5 -21 8 -28t41 -7h107l-10 -48h-236l182 780h-457l-296 -1269h-71l297 1269h-450l-296 -1269
h-71l296 1269h-233l11 48h234l56 234q35 149 132.5 230.5t234.5 81.5q90 0 147 -38.5t73 -112.5q105 151 302 151zM911 1062q1 7 15 53q-6 13 -5 35q4 85 -39.5 130.5t-130.5 45.5q-110 0 -185 -70t-104 -195l-54 -233h450z" />
    <glyph glyph-name="f_f_l" unicode="ffl" horiz-adv-x="1546" 
d="M1275 83q-5 -21 8 -28t41 -7h107l-10 -48h-237l250 1068q59 258 -156 258q-116 0 -192 -70.5t-104 -194.5l-56 -233h316l-12 -48h-314l-296 -1269h-71l297 1269h-450l-296 -1269h-71l296 1269h-233l11 48h234l56 234q35 149 132.5 230.5t233.5 81.5q93 0 149.5 -39.5
t72.5 -111.5q105 151 300 151q131 0 188 -74l110 93zM911 1062q2 8 15 53q-8 14 -6 35q5 84 -38.5 130t-130.5 46q-110 0 -185 -70t-104 -195l-54 -233h450z" />
    <glyph glyph-name=".notdef" horiz-adv-x="1180" 
d="M118 0l287 1352h768l-286 -1352h-769zM172 45h679l268 1261h-679z" />
    <glyph glyph-name=".null" 
 />
    <glyph glyph-name="nonmarkingreturn" horiz-adv-x="682" 
 />
    <glyph glyph-name="space" unicode=" " horiz-adv-x="510" 
 />
    <glyph glyph-name="exclam" unicode="!" horiz-adv-x="558" 
d="M263 446l153 766q6 24 27 129q7 32 38 32q41 0 29 -45q-4 -17 -13 -57.5t-14 -62.5l-171 -762h-49zM204 -33q-38 0 -65 27.5t-27 65.5t27 65t65 27q37 0 63.5 -27t26.5 -65t-26.5 -65.5t-63.5 -27.5z" />
    <glyph glyph-name="quotedbl" unicode="&#x22;" horiz-adv-x="842" 
d="M278 713l95 503q5 22 13 63.5t12 61.5q7 32 37 32q18 0 25.5 -12t2.5 -33q-4 -17 -13.5 -57.5t-13.5 -60.5l-116 -497h-42zM650 713l94 503q13 62 25 125q7 32 38 32q18 0 25.5 -12t1.5 -33q-4 -17 -13.5 -57.5t-13.5 -60.5l-116 -497h-41z" />
    <glyph glyph-name="numbersign" unicode="#" horiz-adv-x="1432" 
d="M176 -34l187 441h-254l12 57h266l183 435h-356l11 57h368l182 430h61l-182 -430h484l182 430h60l-182 -430h238l-12 -57h-250l-182 -435h339l-11 -57h-353l-186 -441h-60l187 441h-486l-185 -441h-61zM447 464h485l183 435h-486z" />
    <glyph glyph-name="dollar" unicode="$" horiz-adv-x="1214" 
d="M946 1331q118 -66 185 -234l-22 -108q-7 -33 -26 -33q-26 0 -23 42q10 93 -26.5 167.5t-108.5 116.5l-220 -534h1q40 -13 66 -21.5t63.5 -23.5t61 -28t53.5 -32.5t47.5 -39.5t34.5 -47.5t23.5 -57t6.5 -67.5t-9 -81q-17 -79 -58 -144t-91.5 -106t-109.5 -69t-111.5 -40
t-97.5 -12q-105 0 -186 27l-69 -168h-45l76 184q-152 70 -218 289l29 142q6 33 28 33q27 0 22 -42q-20 -135 20.5 -231.5t137.5 -143.5l257 623q-36 12 -62.5 22t-58 24t-54.5 27t-47 31t-39.5 37t-29 44t-19 52t-5 60.5t8.5 70.5q28 137 150.5 226t278.5 89q81 0 147 -26
l51 124h46zM665 762l222 539q-57 24 -127 24q-137 0 -238.5 -75t-125.5 -189q-7 -30 -7 -57t4.5 -48.5t16.5 -41t25 -34.5t34.5 -29.5t40.5 -25.5t47.5 -23t51 -20.5t56.5 -19.5zM678 678q-1 0 -2 1l-257 -626q71 -24 164 -24q52 0 111 18t119 53.5t107.5 100.5t64.5 149
q7 35 7 65t-5.5 54t-20.5 46.5t-29 38.5t-40 32.5t-46 27t-54.5 23.5t-57 20.5z" />
    <glyph glyph-name="percent" unicode="%" horiz-adv-x="1663" 
d="M436 675q-57 0 -97 25.5t-58.5 63.5t-25.5 87.5t-4 92t11 81.5q35 163 118.5 255.5t195.5 92.5q121 0 163.5 -100t8.5 -261q-8 -38 -22.5 -79.5t-41.5 -88.5t-60.5 -83.5t-82.5 -61t-105 -24.5zM380 0l981 1352h60l-983 -1352h-58zM438 719q43 0 81.5 21t65 52.5t48 73.5
t33.5 79.5t20 75.5q31 154 2 231t-113 77q-88 0 -154 -83t-98 -234q-10 -48 -12.5 -94t5.5 -93.5t39 -76.5t83 -29zM1199 -21q-58 0 -98 25.5t-58.5 63.5t-25.5 87t-4 91.5t11 81.5q34 162 117.5 255.5t195.5 93.5q121 0 164 -100.5t9 -261.5q-8 -38 -23 -79t-41.5 -88.5
t-60 -83.5t-82.5 -60.5t-104 -24.5zM1199 23q43 0 81 21t64.5 52.5t48.5 73.5t34.5 79.5t21.5 75.5q31 154 1.5 231t-113.5 77q-88 0 -154 -83t-98 -234q-10 -48 -12.5 -93.5t5 -93.5t38.5 -77t83 -29z" />
    <glyph glyph-name="ampersand" unicode="&#x26;" horiz-adv-x="1637" 
d="M413 -21q-172 0 -261 88t-60 228q15 71 48 125t102 108.5t160 105.5t243 124q-20 21 -33.5 36.5t-30.5 36t-28 37.5t-23 37.5t-18.5 40t-11 41t-4 44t5.5 45.5q21 98 110 158t209 60q127 0 191 -62t42 -163q-20 -99 -100 -175t-213 -146q73 -77 114.5 -133t76 -129.5
t59.5 -170.5q153 154 308 401q19 29 10.5 46.5t-42.5 17.5h-114l10 48h387l-10 -48h-80q-57 0 -106 -73q-195 -295 -347 -444q2 -8 6 -22q28 -115 50 -149q37 -57 116 -57q95 0 159.5 68.5t93.5 196.5l48 -7q-33 -154 -116 -234t-198 -80q-25 0 -46.5 4.5t-38 9.5
t-31.5 18.5t-24.5 22t-20.5 29.5t-16 31.5t-14 38t-12 38.5t-12 43q-258 -235 -538 -235zM707 788q126 66 201 135t94 161q17 74 -33 118t-150 44q-97 0 -168.5 -48t-87.5 -125q-10 -49 10 -100.5t49 -88t85 -96.5zM432 35q256 0 501 228q-21 84 -42.5 143t-55 112.5
t-66 93.5t-93.5 105q-248 -126 -304 -160q-126 -75 -173 -154q-27 -46 -40 -107q-24 -113 51 -187t222 -74z" />
    <glyph glyph-name="quotesingle" unicode="'" horiz-adv-x="470" 
d="M278 713l95 503q5 22 13 63.5t12 61.5q7 32 37 32q18 0 25.5 -12t2.5 -33q-4 -17 -13.5 -57.5t-13.5 -60.5l-116 -497h-42z" />
    <glyph glyph-name="parenleft" unicode="(" horiz-adv-x="515" 
d="M219 -484q-102 198 -126.5 434.5t30.5 492.5q22 103 59 212t94 233.5t144 251.5t192 233l62 -7q-197 -194 -322.5 -444.5t-177.5 -491.5q-109 -512 104 -920z" />
    <glyph glyph-name="parenright" unicode=")" horiz-adv-x="519" 
d="M-147 -484q389 411 500 927q32 150 38 302.5t-27.5 323.5t-112.5 304l58 -7q60 -106 93 -233t37.5 -252t-4.5 -235.5t-31 -215.5q-54 -252 -178.5 -487.5t-308.5 -432.5z" />
    <glyph glyph-name="asterisk" unicode="*" horiz-adv-x="1123" 
d="M427 475q-19 0 -34 14t-15 33q0 7 2 14t8 16t12 17t18 21.5t22.5 25t29 31.5t33.5 37q20 21 40.5 44.5t45.5 51.5t39 44q20 27 15 39q-6 16 -35 24q-84 21 -182 40q-23 5 -51.5 10.5t-63 12.5t-52.5 11q-20 3 -31.5 15.5t-11.5 30.5q0 19 13.5 35t32.5 16q22 0 172 -73
q55 -26 180 -81q29 -14 41 -2q13 13 10 39q-2 19 -8.5 83t-11.5 99q-10 68 -18 181q-1 23 12.5 37t34.5 14q22 0 35 -14t12 -37q-4 -60 -17 -172q-5 -36 -11 -102t-9 -89q-3 -26 10 -39q9 -9 41 4q31 13 88.5 39t84.5 37q20 9 44 20.5t37.5 18t29.5 13.5t24.5 11t17.5 7
t15 4.5t10 1.5q22 0 35.5 -15.5t13.5 -34.5t-12 -31.5t-32 -14.5q-27 -6 -84.5 -17.5t-84.5 -18.5q-160 -34 -179 -39q-29 -8 -35 -24t14 -39q12 -13 61 -69t78 -86q31 -33 46.5 -50.5t33.5 -39t25 -35t7 -23.5q0 -19 -15.5 -32.5t-35.5 -13.5q-30 0 -45 37
q-15 26 -40.5 72.5t-36.5 65.5q-68 121 -94 164q-16 27 -31 27q-17 0 -32 -27q-7 -12 -39.5 -69.5t-48.5 -87.5q-58 -105 -83 -149q-19 -33 -45 -33z" />
    <glyph glyph-name="plus" unicode="+" horiz-adv-x="1308" 
d="M681 121v525h-526v59h526v526h59v-526h526v-59h-526v-525h-59z" />
    <glyph glyph-name="comma" unicode="," horiz-adv-x="605" 
d="M29 -331l-9 45q98 31 163 103.5t78 130.5q5 15 0 21t-18 1q-21 -3 -32 -3q-37 0 -58.5 28.5t-14.5 69.5q9 35 39.5 60.5t68.5 25.5q57 0 79 -43t8 -113q-22 -103 -108 -197.5t-196 -128.5z" />
    <glyph glyph-name="hyphen" unicode="-" horiz-adv-x="923" 
d="M157 373l13 65h592l-13 -65h-592z" />
    <glyph glyph-name="period" unicode="." horiz-adv-x="605" 
d="M228 -33q-38 0 -65 27.5t-27 65.5t27 65t65 27q37 0 63.5 -27t26.5 -65t-26.5 -65.5t-63.5 -27.5z" />
    <glyph glyph-name="slash" unicode="/" horiz-adv-x="784" 
d="M-100 -33l1012 1385h75l-1010 -1385h-77z" />
    <glyph glyph-name="zero" unicode="0" horiz-adv-x="1010" 
d="M416 -21q-109 0 -173 78t-78 235t36 392q71 332 203.5 510.5t301.5 178.5q168 0 226.5 -179.5t-11.5 -524.5q-72 -332 -204 -511t-301 -179zM420 27q143 0 255 168t178 483q67 315 28.5 480.5t-178.5 165.5q-144 0 -257 -171t-179 -483q-67 -311 -28 -477t181 -166z" />
    <glyph glyph-name="one" unicode="1" horiz-adv-x="1010" 
d="M561 48h227l-10 -48h-672l10 48h251q28 0 51 21.5t30 51.5l250 1176q-73 -94 -152 -129.5t-222 -35.5l7 48q149 1 227.5 42t150.5 153l71 -2l-265 -1258q-8 -30 4 -48.5t42 -18.5z" />
    <glyph glyph-name="two" unicode="2" horiz-adv-x="1010" 
d="M672 -39q8 16 9.5 23t-3 11.5t-19.5 4.5h-636l17 81q334 260 526 469q256 267 300 469q29 137 -26 220.5t-177 83.5t-220.5 -80t-123.5 -197q-14 -69 7 -143l-52 -20q-24 93 -7 172q29 136 146 227t260 91q149 0 221.5 -101.5t36.5 -264.5q-42 -204 -316 -489
q-207 -212 -519 -457l-12 -3h584q54 0 82 55l88 167h46l-167 -322z" />
    <glyph glyph-name="three" unicode="3" horiz-adv-x="1010" 
d="M353 -21q-125 0 -206.5 67t-93.5 156q-4 16 0 24.5t8 11t11 3.5q10 1 16 0t10 -8.5t4.5 -9.5t4.5 -16q12 -34 26.5 -59.5t41.5 -56t72.5 -47.5t104.5 -17q162 0 300 119t174 289q9 59 6.5 101.5t-23.5 72.5t-45 48.5t-57.5 29.5t-60.5 14.5t-55 3.5q-64 0 -107 -21
l-68 -34l-14 42l154 79q319 159 357 342q20 95 -41.5 152.5t-181.5 57.5q-132 0 -226 -69t-117 -185q-12 -62 2 -121l-53 -18q-20 73 -4 150q29 130 142.5 211.5t267.5 81.5q146 0 224 -74t52 -194q-13 -59 -50 -113t-92.5 -98.5t-106 -75.5t-114.5 -64q161 1 236.5 -84.5
t42.5 -241.5q-27 -125 -112 -229.5t-199 -162t-230 -57.5z" />
    <glyph glyph-name="four" unicode="4" horiz-adv-x="1010" 
d="M353 0l12 48h151q64 0 79 74l76 357h-580l16 82l742 811h80l-178 -841h199l-11 -52h-201l-76 -364q-14 -67 47 -67h140l-12 -48h-484zM149 531h535l162 765h-11l-682 -746z" />
    <glyph glyph-name="five" unicode="5" horiz-adv-x="1010" 
d="M949 1293h-499l-134 -543q54 64 131 97t163 33q167 0 245.5 -114t36.5 -315q-21 -99 -66.5 -181t-101 -135t-120.5 -89t-124 -51.5t-113 -15.5q-92 0 -175.5 42.5t-114.5 127.5q-10 29 15 42q11 4 18.5 -0.5t11 -11.5t7.5 -20q36 -68 103 -99.5t141 -31.5q64 0 130.5 26
t131 76.5t116 137.5t74.5 197q36 169 -22.5 267t-203.5 98q-177 0 -282 -149l-62 3l167 668h557z" />
    <glyph glyph-name="six" unicode="6" horiz-adv-x="1010" 
d="M445 -21q-186 0 -258 153t-12 434q85 396 238 601.5t347 205.5q95 0 163 -40t98 -114q10 -31 -15 -42q-24 -11 -37 27q-67 119 -222 119q-79 0 -149.5 -45t-122.5 -116.5t-97 -173t-75.5 -202.5t-55.5 -217q127 273 363 273q170 0 246 -113t33 -323
q-42 -192 -165.5 -309.5t-278.5 -117.5zM447 27q134 0 235.5 106t138.5 280q39 184 -16.5 282.5t-204.5 98.5q-128 0 -223.5 -95t-155.5 -273q-42 -399 226 -399z" />
    <glyph glyph-name="seven" unicode="7" horiz-adv-x="1010" 
d="M284 -14q-15 1 -19.5 10.5t-0.5 24t16 32.5l750 1235h-586q-51 0 -82 -55l-88 -166h-46l169 326h45q-8 -17 -9.5 -24.5t3 -12t19.5 -4.5h661l-786 -1333q-25 -42 -46 -33z" />
    <glyph glyph-name="eight" unicode="8" horiz-adv-x="1010" 
d="M415 -21q-180 0 -273.5 104t-56.5 282q30 138 123 229t224 126q-86 34 -127.5 117t-16.5 203q33 155 147.5 244t268.5 89q157 0 235 -93t45 -253q-25 -115 -99.5 -194.5t-177.5 -114.5q114 -35 168 -129t24 -237q-37 -172 -170 -272.5t-314 -100.5zM570 741q134 0 227 80
t122 220q28 132 -29 207.5t-188 75.5q-134 0 -227 -80t-123 -216q-29 -134 28.5 -210.5t189.5 -76.5zM419 27q157 0 269.5 93t145.5 245q32 152 -39.5 239.5t-227.5 87.5q-159 0 -270.5 -92.5t-143.5 -244.5q-32 -150 38.5 -239t227.5 -89z" />
    <glyph glyph-name="nine" unicode="9" horiz-adv-x="1010" 
d="M360 -21q-96 0 -163 39.5t-97 113.5q-10 31 15 43q22 8 37 -27q66 -120 221 -120q79 0 149 44.5t122.5 116.5t98 173.5t76 202.5t55.5 217q-127 -273 -363 -273q-171 0 -247 113.5t-32 323.5q42 192 165.5 309.5t277.5 117.5q187 0 259 -153.5t12 -434.5
q-85 -395 -238 -600.5t-348 -205.5zM521 558q256 0 379 367q42 399 -227 399q-134 0 -235.5 -106t-137.5 -280q-39 -184 17 -282t204 -98z" />
    <glyph glyph-name="colon" unicode=":" horiz-adv-x="594" 
d="M370 665q-38 0 -65 27t-27 65t27 65t65 27q37 0 63.5 -27t26.5 -65t-26.5 -65t-63.5 -27zM220 -33q-38 0 -65 27.5t-27 65.5t27 65t65 27q37 0 64 -27t27 -65t-27 -65.5t-64 -27.5z" />
    <glyph glyph-name="semicolon" unicode=";" horiz-adv-x="600" 
d="M371 665q-38 0 -65 27t-27 65t27 65t65 27q37 0 64 -27t27 -65t-27 -65t-64 -27zM24 -331l-10 45q98 31 163.5 103.5t77.5 130.5q4 15 -0.5 21t-16.5 1q-21 -3 -33 -3q-37 0 -58.5 28.5t-14.5 69.5q9 35 40 60.5t69 25.5q57 0 78.5 -43t8.5 -113q-22 -103 -108 -197.5
t-196 -128.5z" />
    <glyph glyph-name="less" unicode="&#x3c;" horiz-adv-x="1168" 
d="M1036 232l-859 395v95l859 396v-65l-808 -369v-19l808 -369v-64z" />
    <glyph glyph-name="equal" unicode="=" horiz-adv-x="1509" 
d="M195 884v59h1110v-59h-1110zM195 409v59h1110v-59h-1110z" />
    <glyph glyph-name="greater" unicode="&#x3e;" horiz-adv-x="1168" 
d="M242 232v64l808 369v19l-808 369v65l860 -396v-95z" />
    <glyph glyph-name="question" unicode="?" horiz-adv-x="891" 
d="M621 1373q102 0 177 -50t105.5 -135.5t9.5 -185.5q-33 -151 -140.5 -246.5t-238.5 -95.5q-48 0 -96 14l-50 -229h-50l61 282l40 -1q34 -15 89 -15q111 0 200.5 87.5t116.5 215.5q27 124 -38.5 217t-190.5 93q-96 0 -186.5 -55.5t-140.5 -148.5q-18 -32 -39 -24
q-14 1 -20 13.5t3 32.5q57 102 163.5 166.5t224.5 64.5zM281 152q37 0 63.5 -27t26.5 -65t-26.5 -65.5t-63.5 -27.5q-38 0 -65 27.5t-27 65.5t27 65t65 27z" />
    <glyph glyph-name="at" unicode="@" horiz-adv-x="1994" 
d="M852 -449q-147 0 -274 40.5t-220.5 114.5t-155 179t-77 233t13.5 277q61 287 228 510.5t404 345.5t503 122q329 0 488 -170t97 -472q-39 -179 -144.5 -351t-252.5 -284.5t-289 -112.5q-103 0 -138 56t3 150q-82 -95 -169.5 -151.5t-163.5 -56.5q-83 0 -125 63.5t-36 170
t58 232.5q87 210 236 354t285 144q100 0 140 -73.5t20 -193.5l120 243l67 1l-363 -725q-82 -170 80 -170q90 0 192 63t188.5 163.5t155 231.5t96.5 261q29 143 3.5 252t-99 183t-187.5 111.5t-261 37.5q-255 0 -483 -119t-389 -336.5t-220 -496.5q-38 -173 -1 -317.5
t126.5 -248t231.5 -161t314 -57.5q261 0 511.5 150t401.5 401l45 -7q-163 -275 -428 -431t-532 -156zM725 37q109 0 249 140.5t216 326.5q50 112 62 201.5t-19.5 142.5t-104.5 53q-80 0 -170.5 -69.5t-165.5 -174.5t-126 -225q-48 -109 -56.5 -200t22 -143t93.5 -52z" />
    <glyph glyph-name="A" unicode="A" horiz-adv-x="1306" 
d="M1107 48h86l-10 -48h-406l10 48h122q31 0 51 20t16 52l-34 360h-569l-210 -362q-19 -34 -10.5 -52t39.5 -18h148l-10 -48h-383l10 48h59q25 0 51 20.5t44 50.5l732 1254h85l118 -1261q5 -64 61 -64zM401 529h537l-71 751h-30z" />
    <glyph glyph-name="B" unicode="B" horiz-adv-x="1253" 
d="M1210 1015q-31 -119 -109 -191.5t-189 -99.5q122 -36 179 -131t20 -236q-30 -114 -109.5 -195.5t-187.5 -120.5t-235 -39h-593l10 48h110q29 0 50.5 20t29.5 56l258 1106q14 69 -43 69h-113l10 49h571q202 0 292.5 -88.5t48.5 -246.5zM740 749q155 0 256 62t141 215
q37 134 -40 205t-256 71h-312l-128 -553h339zM1041 379q40 154 -45 237.5t-268 83.5h-338l-134 -581q-15 -68 41 -68h288q176 0 295.5 87.5t160.5 240.5z" />
    <glyph glyph-name="C" unicode="C" horiz-adv-x="1425" 
d="M588 -21q-97 0 -178 36t-135.5 100t-88 152t-35 193t23.5 223q33 141 106 268.5t170 220t216 147t238 54.5q154 0 264 -100t142 -270l80 311h44l-105 -458l-44 3q2 131 -43 236.5t-133.5 166.5t-204.5 61q-143 0 -280 -88.5t-236.5 -239t-141.5 -329.5
q-39 -187 -9 -328.5t126 -225t235 -83.5q174 0 345 133t262 345l44 -3l-107 -464h-44l66 305q-105 -167 -260.5 -266.5t-316.5 -99.5z" />
    <glyph glyph-name="D" unicode="D" horiz-adv-x="1451" 
d="M-27 0l10 48h136q30 0 51.5 21t28.5 55l258 1111q16 69 -43 69h-138l10 48h595q146 0 258.5 -47.5t179.5 -135.5t88 -213.5t-16 -281.5q-48 -208 -168 -362t-287.5 -233t-362.5 -79h-600zM318 49h287q256 0 451.5 177t261.5 462q65 280 -55.5 448t-377.5 168h-341
l-276 -1182q-8 -35 2.5 -54t47.5 -19z" />
    <glyph glyph-name="E" unicode="E" horiz-adv-x="1313" 
d="M287 1352h1029l-61 -349l-44 -3l38 238q2 36 -11.5 50t-45.5 14h-654l-132 -567h438q29 0 52 17t31 51l30 131h45l-107 -461h-45l35 149q12 63 -48 63h-442l-131 -564q-17 -72 46 -72h620q71 0 100 72l110 327l44 -4l-138 -444h-1072l10 48h127q31 0 54.5 21t30.5 55
l256 1110q7 35 -3.5 52t-44.5 17h-127z" />
    <glyph glyph-name="F" unicode="F" horiz-adv-x="1203" 
d="M-25 0l10 48h124q32 0 56 20.5t31 55.5l256 1110q8 36 -2.5 52.5t-45.5 16.5h-127l10 49h1027l-62 -350l-45 -3l40 236q2 38 -13 52.5t-46 14.5h-650l-131 -567h435q29 0 51.5 18.5t30.5 53.5l30 127h45l-108 -461h-44l34 146q7 34 -4 50.5t-43 16.5h-437l-133 -568
q-17 -70 48 -70h160l-12 -48h-485z" />
    <glyph glyph-name="G" unicode="G" horiz-adv-x="1469" 
d="M608 -21q-103 0 -187.5 35.5t-141 99.5t-91 152t-36.5 193t23 223q44 190 156 348.5t264.5 250.5t308.5 92q161 0 271 -101.5t137 -267.5l79 313h44l-104 -455l-44 3q2 199 -101.5 327.5t-278.5 128.5q-144 0 -282 -88.5t-237.5 -238t-140.5 -327.5
q-33 -135 -20.5 -251.5t58.5 -202.5t131.5 -135t197.5 -49q172 0 322 98t231 294q14 66 -51 66h-452l12 48h737l-10 -48h-90q-27 0 -47.5 -20t-29.5 -57l-101 -431h-46l54 287q-121 -158 -251.5 -222.5t-283.5 -64.5z" />
    <glyph glyph-name="H" unicode="H" horiz-adv-x="1560" 
d="M-27 0l10 48h174q32 0 55.5 20t30.5 56l256 1110q8 35 -2.5 52t-43.5 17h-177l10 49h550l-10 -49h-174q-31 0 -53 -20t-30 -56l-115 -486h793l117 493q16 69 -48 69h-177l10 49h551l-10 -49h-174q-32 0 -54.5 -20t-29.5 -56l-258 -1109q-8 -37 3.5 -53.5t42.5 -16.5h179
l-12 -48h-550l12 48h173q31 0 53.5 20.5t30.5 55.5l131 567h-793l-133 -573q-17 -70 44 -70h178l-10 -48h-550z" />
    <glyph glyph-name="I" unicode="I" horiz-adv-x="697" 
d="M-27 0l10 48h173q32 0 56 20.5t31 55.5l256 1111q8 36 -3 52.5t-45 16.5h-175l10 48h551l-10 -48h-172q-70 0 -86 -76l-258 -1110q-17 -70 48 -70h175l-9 -48h-552z" />
    <glyph glyph-name="J" unicode="J" horiz-adv-x="735" 
d="M-119 -502q-44 0 -86 9.5t-83.5 30.5t-68 55.5t-38.5 83.5t5 115q5 23 24.5 39t40.5 16q27 0 39.5 -18.5t7.5 -47.5q-3 -15 -32 -43.5t-26 -51.5q8 -51 46.5 -84t83 -44t95.5 -11q165 0 271.5 114t159.5 348l284 1225q7 35 -3.5 52t-44.5 17h-332l10 49h664l-10 -49h-130
q-68 0 -86 -76l-282 -1215q-57 -248 -179 -381t-330 -133z" />
    <glyph glyph-name="K" unicode="K" horiz-adv-x="1503" 
d="M-27 0l10 48h158q31 0 54.5 20t31.5 56l256 1110q8 37 -3 53t-45 16h-160l10 49h536l-10 -49h-174q-33 0 -55 -20.5t-30 -55.5l-167 -717l777 706q36 32 42 56q3 15 -8 23t-33 8h-137l10 49h543l-12 -49h-183q-49 0 -117 -57l-425 -380l289 -762q11 -28 26.5 -42
t46.5 -14h176l-12 -48h-534l10 48h138q26 0 44 13.5t22 33.5q4 18 -10 50l-255 670l-413 -375l-75 -322q-16 -69 43 -69l178 -1l-9 -48h-534z" />
    <glyph glyph-name="L" unicode="L" horiz-adv-x="1226" 
d="M-27 0l10 48h174q33 0 56 20t30 56l256 1110q8 36 -2.5 52.5t-44.5 16.5h-177l10 49h553l-10 -49h-174q-32 0 -55 -19.5t-30 -56.5l-257 -1106q-8 -36 1 -54t46 -18h531q33 0 64 20t49 64l103 316l44 -4l-139 -445h-1038z" />
    <glyph glyph-name="M" unicode="M" horiz-adv-x="1845" 
d="M-25 0l10 48h125q33 0 56.5 26t30.5 59l254 1101q8 35 -2 52t-44 17h-128l10 49h297l217 -1280h7l826 1280h351l-9 -49h-174q-34 0 -57 -21t-30 -55l-256 -1109q-8 -35 2.5 -52.5t44.5 -17.5h177l-10 -48h-537l10 48h157q33 0 55.5 20t30.5 56l269 1158h-20l-826 -1282
h-73l-216 1282h-14l-269 -1156q-17 -78 46 -78h128l-10 -48h-429z" />
    <glyph glyph-name="N" unicode="N" horiz-adv-x="1471" 
d="M1195 1352h436l-11 -49h-123q-31 0 -55 -23.5t-32 -58.5l-287 -1244h-55l-538 1309l-18 4l-270 -1165q-18 -77 47 -77h127l-10 -48h-431l10 48h124q33 0 57.5 26t31.5 58l253 1098q16 73 -47 73h-127l10 49h301l514 -1261l265 1137q8 34 -3.5 54.5t-43.5 20.5h-135z" />
    <glyph glyph-name="O" unicode="O" horiz-adv-x="1372" 
d="M584 -21q-167 0 -276 91t-140 248t13 367q34 146 103.5 273t162.5 218.5t210 144t241 52.5q126 0 220.5 -53t145 -147t63 -223t-24.5 -282q-45 -196 -150.5 -353t-254 -246.5t-313.5 -89.5zM586 29q221 0 398.5 182.5t243.5 472.5q67 292 -26.5 465.5t-307.5 173.5
q-219 0 -396 -181.5t-243 -468.5q-34 -138 -26 -256t48.5 -204.5t120 -135t188.5 -48.5z" />
    <glyph glyph-name="P" unicode="P" horiz-adv-x="1137" 
d="M-25 0l10 48h125q32 0 55.5 20.5t30.5 55.5l256 1111q7 34 -3.5 51.5t-44.5 17.5h-127l9 48h592q185 0 259 -96.5t35 -268.5q-38 -163 -152.5 -257.5t-293.5 -94.5h-343l-119 -517q-7 -35 3.5 -52.5t44.5 -17.5h129l-11 -48h-455zM397 684h333q153 0 245.5 84.5
t126.5 231.5q70 304 -224 304h-339z" />
    <glyph glyph-name="Q" unicode="Q" horiz-adv-x="1374" 
d="M584 -21q-167 0 -276 91t-140 248t13 367q34 146 103.5 273t162.5 218.5t210 144t241 52.5q128 0 222.5 -53.5t144 -148t62 -223t-24.5 -278.5q-45 -198 -150 -354.5t-253.5 -246.5t-314.5 -90zM586 29q220 0 397 181.5t245 473.5q42 193 17.5 335t-116.5 223t-235 81
q-220 0 -396 -181.5t-243 -468.5q-34 -138 -26 -256t48.5 -204.5t120 -135t188.5 -48.5zM963 -418q-45 0 -84 12.5t-72 37.5t-54.5 46t-50.5 55q-60 69 -87 90q-50 37 -105 37q-54 0 -121 -35.5t-173 -110.5l-21 43q108 77 182 112.5t138 35.5q110 0 223 -126q32 -34 50 -51
t49 -39.5t64 -32.5t73 -10q185 0 306 133l33 -42q-135 -155 -350 -155z" />
    <glyph glyph-name="R" unicode="R" horiz-adv-x="1375" 
d="M-26 0l10 48h125q32 0 56 20t31 56l256 1111q7 35 -3 51.5t-44 16.5h-128l10 49h610q181 0 261 -100t42 -262q-30 -135 -128 -227.5t-243 -118.5q46 -37 87 -143l157 -408q9 -23 45 -34t70 -11h74l-10 -48h-220l-181 483q-33 86 -73.5 119t-112.5 33h-282l-119 -517
q-8 -36 3 -53t44 -17h129l-11 -48h-455zM397 684h332q158 0 263 86.5t139 233.5q32 136 -33 217t-219 81h-341z" />
    <glyph glyph-name="S" unicode="S" horiz-adv-x="1109" 
d="M518 -21q-147 0 -240 71t-114 200l-57 -229h-46l107 465l46 -4q-46 -209 34 -331t270 -122q48 0 102 18t110 54t101.5 102t65.5 151q9 38 10 70.5t-8.5 59t-20.5 47.5t-34.5 40t-42.5 32.5t-52.5 28t-56.5 23.5t-62 23q-40 15 -61 23.5t-57 24t-55 27.5t-46.5 31.5
t-41 38t-28.5 44.5t-19.5 54t-3.5 63.5t10 75.5q31 136 146.5 225.5t257.5 89.5q108 0 186 -63t102 -165l54 205h45l-91 -396l-44 4q32 155 -43.5 260t-210.5 105q-124 0 -219 -75t-122 -189q-7 -29 -9 -55t3.5 -48t10.5 -39.5t21 -35t26.5 -29t35.5 -26t39 -22t46 -20.5
t47 -19t51 -19t59.5 -22t56.5 -23.5t54.5 -28t47 -32.5t41 -39t30 -47t19 -56.5t3.5 -67t-11 -79.5q-18 -80 -57.5 -145.5t-87 -107t-103 -69.5t-104 -40t-90.5 -12z" />
    <glyph glyph-name="T" unicode="T" horiz-adv-x="1299" 
d="M283 0l11 48h154q33 0 57 21t31 55l274 1178h-402q-75 0 -99 -82l-64 -224l-45 4l100 352h1111l-63 -352l-45 -4l40 231q4 42 -10 58.5t-49 16.5h-404l-276 -1184q-7 -34 3 -52t47 -18h158l-9 -48h-520z" />
    <glyph glyph-name="U" unicode="U" horiz-adv-x="1429" 
d="M611 -21q-237 0 -331 129.5t-37 373.5l174 752q18 69 -47 69h-128l11 49h519l-12 -49h-187q-33 0 -57 -20t-31 -56l-173 -751q-50 -222 25.5 -334t285.5 -112q436 0 541 456l174 744q16 73 -50 73h-113l10 49h388l-11 -49h-96q-31 0 -54 -22.5t-31 -57.5l-173 -744
q-116 -500 -597 -500z" />
    <glyph glyph-name="V" unicode="V" horiz-adv-x="1350" 
d="M537 -22l-155 1259q-6 38 -19.5 52t-42.5 14h-96l10 49h510l-10 -49h-209q-38 0 -57 -24t-14 -62l146 -1169h13l655 1170q49 85 -26 85h-139l10 49h403l-10 -49h-83q-56 0 -102 -80l-698 -1245h-86z" />
    <glyph glyph-name="W" unicode="W" horiz-adv-x="1883" 
d="M408 -21l-47 1261q-2 35 -15 49t-43 14h-79l10 49h499l-16 -49h-221q-26 0 -47 -25t-19 -60l46 -1164h30l617 1316h93l25 -1316h30l553 1159q41 90 -28 90h-157l10 49h398l-12 -49h-62q-53 0 -95 -82l-596 -1242h-107l-26 1319l-13 1l-619 -1320h-109z" />
    <glyph glyph-name="X" unicode="X" horiz-adv-x="1544" 
d="M-27 0l10 48h80q50 0 105 53l621 589l-311 561q-16 30 -33 41t-46 11h-141l9 49h532l-12 -49h-153q-40 0 -56.5 -25.5t2.5 -60.5l269 -473l499 477q23 22 30.5 41t-3 30t-37.5 11h-175l10 49h481l-10 -49h-94q-50 0 -107 -55l-572 -541l335 -604q30 -55 80 -55h126
l-11 -48h-562l12 48h197q43 0 60.5 27t-2.5 64l-293 513l-544 -519q-36 -35 -33 -60t44 -25h198l-10 -48h-495z" />
    <glyph glyph-name="Y" unicode="Y" horiz-adv-x="1325" 
d="M279 0l10 48h198q33 0 55.5 20.5t30.5 55.5l76 327l-260 800q-10 27 -24 39.5t-41 12.5h-100l10 49h452l-10 -49h-141q-36 0 -53.5 -26t-6.5 -60l236 -709l561 710q20 25 25.5 44t-5 30t-37.5 11h-119l11 49h345l-12 -49h-34q-47 0 -94 -59l-632 -791l-79 -335
q-8 -37 3.5 -53.5t44.5 -16.5h202l-10 -48h-602z" />
    <glyph glyph-name="Z" unicode="Z" horiz-adv-x="1309" 
d="M11 0l22 95l1248 1207l12 17h-805q-81 0 -110 -74l-85 -239l-43 4l120 358h999l-20 -90l-1249 -1207l-13 -22h858q72 0 108 77l106 318l44 -4l-139 -440h-1053z" />
    <glyph glyph-name="bracketleft" unicode="[" horiz-adv-x="642" 
d="M21 -474l387 1826h395l-10 -48h-256q-35 0 -57.5 -19.5t-29.5 -51.5l-338 -1596q-14 -63 54 -63h259l-9 -48h-395z" />
    <glyph glyph-name="backslash" unicode="\" horiz-adv-x="776" 
d="M617 -33l-420 1385h66l422 -1385h-68z" />
    <glyph glyph-name="bracketright" unicode="]" horiz-adv-x="642" 
d="M-150 -474l10 48h255q36 0 58 19t29 51l339 1595q14 65 -53 65h-261l10 48h395l-388 -1826h-394z" />
    <glyph glyph-name="asciicircum" unicode="^" horiz-adv-x="1099" 
d="M156 635l554 717h77l249 -717h-70l-226 661h-5l-511 -661h-68z" />
    <glyph glyph-name="underscore" unicode="_" horiz-adv-x="1377" 
d="M44 -154l12 56h1048l-11 -56h-1049z" />
    <glyph glyph-name="grave" unicode="`" horiz-adv-x="740" 
d="M782 1030l-358 318v4h134l270 -322h-46z" />
    <glyph glyph-name="a" unicode="a" horiz-adv-x="1014" 
d="M377 -21q-158 0 -241 127.5t-40 313.5q29 127 108 227.5t176 151.5t192 51q75 0 140.5 -33t107.5 -93l24 104h67l-172 -739q-8 -40 26 -40h103l-10 -49h-202l23 103q-144 -124 -302 -124zM394 32q76 0 156 38.5t143 107.5l114 486q-30 64 -89.5 98.5t-136.5 34.5
q-138 0 -259.5 -114t-159.5 -274q-36 -158 30.5 -267.5t201.5 -109.5z" />
    <glyph glyph-name="b" unicode="b" horiz-adv-x="990" 
d="M417 -21q-78 0 -144 35t-106 96l-47 -112h-42l289 1243q8 35 -4.5 50.5t-46.5 8.5l-114 -31v48l263 66l-151 -652q138 119 296 119q103 0 178.5 -57t105.5 -159t1 -226q-43 -183 -183.5 -306t-294.5 -123zM410 31q138 0 260 116.5t159 273.5q36 156 -30.5 266.5
t-202.5 110.5q-77 0 -156 -39t-141 -104l-113 -484q28 -65 88 -102.5t136 -37.5z" />
    <glyph glyph-name="c" unicode="c" horiz-adv-x="897" 
d="M382 -22q-166 0 -246 125t-35 318q44 186 179 307.5t300 121.5q102 0 176.5 -51.5t91.5 -142.5q6 -41 -23 -46q-14 -3 -22 9t-11 30q-22 73 -77.5 113t-138.5 40q-140 0 -255 -112t-153 -275q-39 -174 24.5 -280t199.5 -106q104 0 195 60t151 160l37 -27
q-71 -115 -173 -179.5t-220 -64.5z" />
    <glyph glyph-name="d" unicode="d" horiz-adv-x="1014" 
d="M377 -21q-158 0 -241 127.5t-40 313.5q29 127 108 227.5t176 151.5t192 51q75 0 140.5 -33t107.5 -93l120 516q8 36 -4.5 52t-47.5 8l-113 -31v47l265 67l-301 -1294q-8 -40 26 -40h103l-10 -49h-202l23 103q-144 -124 -302 -124zM394 32q76 0 156 38.5t143 107.5
l114 486q-30 64 -89.5 98.5t-136.5 34.5q-138 0 -259.5 -114t-159.5 -274q-36 -158 30.5 -267.5t201.5 -109.5z" />
    <glyph glyph-name="e" unicode="e" horiz-adv-x="891" 
d="M374 -22q-162 0 -238.5 126t-31.5 319q43 187 173 307t288 120q117 0 191.5 -55t74.5 -149q0 -54 -31 -95t-93 -65t-120 -38.5t-147 -20t-136 -7t-123 -1.5h-3q-44 -181 14 -286t194 -105q97 0 185.5 58t146.5 153l37 -27q-68 -109 -169.5 -171.5t-211.5 -62.5zM189 463
q61 2 102.5 3.5t99.5 5t98 10t86.5 15.5t77 22.5t57 31.5t39.5 43t13 55q0 78 -53.5 115t-146.5 37q-121 0 -225 -94.5t-148 -243.5z" />
    <glyph glyph-name="f" unicode="f" horiz-adv-x="592" 
d="M7 -489l301 1269h-215l9 48h215l56 234q35 149 127 230.5t217 81.5q105 0 159 -60t44 -172q-4 -33 -32 -39q-30 -3 -30 42q0 96 -34.5 138.5t-116.5 42.5q-100 0 -170.5 -70t-99.5 -195l-54 -233h290l-12 -48h-287l-303 -1269h-64z" />
    <glyph glyph-name="g" unicode="g" horiz-adv-x="979" 
d="M246 -484q-174 0 -258.5 54t-55.5 177q21 89 83.5 139.5t177.5 74.5q-83 15 -121 52t-22 109q31 154 246 199q-57 23 -90.5 65.5t-40 91t3.5 100.5q26 115 134 193.5t242 78.5q81 0 142.5 -33t91.5 -88q101 115 182 115q30 0 50.5 -19t25.5 -53q5 -33 -18 -35
q-10 -1 -15.5 5.5t-9.5 19.5q-9 33 -44 33q-31 0 -73.5 -30.5t-79.5 -78.5q18 -48 1 -124q-27 -117 -136.5 -194t-240.5 -77q-131 -1 -213.5 -41.5t-99.5 -112.5q-11 -48 8 -71.5t76 -36.5q60 -13 256 -13q187 0 257 -48.5t43 -162.5q-31 -134 -171 -211.5t-331 -77.5z
M428 340q108 0 196.5 68.5t111.5 170.5q20 89 -34 155.5t-159 66.5q-110 0 -199.5 -70t-111.5 -166q-21 -92 34.5 -158.5t161.5 -66.5zM252 -435q107 0 200.5 27.5t160 83t83.5 130.5q12 54 -8 84.5t-82.5 45.5t-180.5 15q-393 0 -443 -211q-21 -93 45 -134t225 -41z" />
    <glyph glyph-name="h" unicode="h" horiz-adv-x="1031" 
d="M79 0l287 1240q8 35 -4.5 51t-46.5 8l-113 -32v49l265 67l-192 -827q88 123 198 208.5t209 85.5q140 0 179.5 -81.5t2.5 -236.5l-97 -417q-16 -67 44 -67h107l-10 -48h-234l124 538q19 83 17.5 140.5t-37.5 87t-112 29.5q-74 0 -159.5 -59.5t-151 -139.5t-108.5 -163
l-99 -433h-69z" />
    <glyph glyph-name="i" unicode="i" horiz-adv-x="488" 
d="M428 1159q-31 0 -51.5 22.5t-20.5 50.5q0 30 21.5 51t50.5 21q30 0 51 -21t21 -51q0 -32 -21.5 -52.5t-50.5 -20.5zM117 0l166 716q17 74 -51 59l-116 -31l3 48l264 67l-176 -761q-6 -29 5.5 -39.5t42.5 -10.5h107l-10 -48h-235z" />
    <glyph glyph-name="j" unicode="j" horiz-adv-x="454" 
d="M428 1159q-31 0 -51.5 22.5t-20.5 50.5q0 30 21.5 51t50.5 21q30 0 51 -21t21 -51q0 -32 -21.5 -52.5t-50.5 -20.5zM-204 -498q-103 0 -155 59.5t-44 168.5q3 32 31 36q28 3 26 -43q-5 -79 33 -125.5t120 -46.5q98 0 168 71.5t99 199.5l208 894q8 36 -4.5 51t-48.5 8
l-115 -32l2 49l266 67l-237 -1027q-37 -161 -126 -245.5t-223 -84.5z" />
    <glyph glyph-name="k" unicode="k" horiz-adv-x="1108" 
d="M79 0l287 1241q9 36 -3.5 51.5t-47.5 7.5l-114 -32l1 48l264 67l-247 -1069l708 514h164l-10 -48h-79q-39 0 -96 -38l-285 -198l245 -449q26 -47 66 -47h68l-10 -48h-154l-274 504l-357 -251l-59 -253h-67z" />
    <glyph glyph-name="l" unicode="l" horiz-adv-x="452" 
d="M79 0l287 1241q9 36 -3.5 51.5t-47.5 7.5l-114 -32l1 48l264 67l-293 -1268q-16 -67 39 -67h127l-12 -48h-248z" />
    <glyph glyph-name="m" unicode="m" horiz-adv-x="1704" 
d="M147 0l167 714q8 35 -4 50.5t-45 8.5l-116 -32l3 49l262 68l-69 -302q90 123 202 208.5t212 85.5q125 0 170 -69t16 -216q89 121 199.5 203t208.5 82q137 0 178.5 -80t4.5 -238l-98 -417q-16 -67 44 -67h107l-10 -48h-234l124 538q34 130 5.5 193.5t-136.5 63.5
q-72 0 -154.5 -54t-147.5 -129t-111 -156l-109 -456h-67l125 538q19 83 18 140.5t-37 87t-113 29.5q-75 0 -162 -59.5t-153.5 -139.5t-109.5 -163l-101 -433h-69z" />
    <glyph glyph-name="n" unicode="n" horiz-adv-x="1071" 
d="M116 0l166 714q8 35 -4 50.5t-45 8.5l-116 -32l3 49l262 68l-70 -302q86 122 197 208t211 86q133 0 176.5 -77.5t5.5 -240.5l-98 -417q-15 -67 45 -67h107l-10 -48h-234l124 538q19 83 17.5 140.5t-38 87t-112.5 29.5q-75 0 -160.5 -59.5t-150 -139.5t-107.5 -163
l-101 -433h-68z" />
    <glyph glyph-name="o" unicode="o" horiz-adv-x="961" 
d="M383 -22q-26 0 -54 5t-63.5 18t-65 35t-57 55.5t-41 80t-16 109t17.5 142.5q20 89 61 163t90 122t106.5 81t111.5 47t104 14t97.5 -15t91.5 -47.5t71 -83.5t36 -123.5t-14 -167.5q-24 -105 -72 -186.5t-100.5 -127t-113.5 -74.5t-106 -38t-84 -9zM386 27q35 0 76 10.5
t91.5 39t94.5 71t83 113.5t60 160q43 185 -24.5 282.5t-191.5 97.5q-127 0 -244 -101.5t-161 -289.5q-15 -65 -15.5 -120t10 -93.5t30.5 -69t43.5 -49t51 -30.5t51 -16.5t45.5 -4.5z" />
    <glyph glyph-name="p" unicode="p" horiz-adv-x="1030" 
d="M6 -489l277 1205q8 36 -4.5 51t-47.5 8l-114 -31l3 48l262 67l-31 -133q68 60 146.5 92t154.5 32q78 0 141 -34t100.5 -94t51 -140.5t-9.5 -173.5q-42 -180 -181.5 -305t-295.5 -125q-80 0 -143.5 34.5t-102.5 93.5l-139 -595h-67zM449 31q139 0 261 116.5t159 274.5
q19 76 9 144.5t-40 119.5t-83 81t-119 30q-77 0 -156.5 -39.5t-142.5 -107.5l-112 -482q30 -65 90.5 -101t133.5 -36z" />
    <glyph glyph-name="q" unicode="q" horiz-adv-x="988" 
d="M541 -489l135 588q-139 -121 -296 -121q-159 0 -243.5 127t-41.5 314q29 123 105 223t174.5 154t198.5 54q80 0 145.5 -35t106.5 -94l45 110h42l-306 -1320h-65zM394 30q73 0 152.5 38t144.5 107l115 485q-31 65 -91 101.5t-135 36.5q-136 0 -258 -113t-161 -278
q-35 -154 31 -265.5t202 -111.5z" />
    <glyph glyph-name="r" unicode="r" horiz-adv-x="772" 
d="M118 0l164 715q8 35 -4 50.5t-44 8.5l-117 -32l3 48l258 69l-57 -262q157 253 348 253q63 0 100 -30.5t46 -83.5q8 -42 -23 -47q-21 -6 -31 29q-25 73 -113 73q-127 0 -232 -121t-144 -290l-86 -380h-68z" />
    <glyph glyph-name="s" unicode="s" horiz-adv-x="945" 
d="M821 601l-39 2q2 96 -63.5 148t-193.5 52q-113 0 -190.5 -42.5t-95.5 -120.5q-8 -37 2.5 -63.5t27.5 -41.5t58.5 -26t71.5 -15t90 -11q76 -9 126.5 -21t102 -37.5t70.5 -73.5t5 -117q-26 -123 -129.5 -189.5t-254.5 -66.5q-114 0 -190.5 38.5t-104.5 102.5l-47 -141h-35
l59 253l43 -2q0 -92 76.5 -148t206.5 -56q123 0 211 52.5t108 148.5q10 44 -2 76t-33.5 50.5t-66 31.5t-76.5 18t-90 12q-61 7 -97.5 12.5t-82.5 20.5t-68.5 36t-35 58t-2.5 87q22 107 116 164.5t235 57.5q213 0 268 -132l42 132h35z" />
    <glyph glyph-name="t" unicode="t" horiz-adv-x="706" 
d="M346 -22q-109 0 -150.5 80.5t-7.5 227.5l115 494h-210l9 48h152q36 0 65 25t38 64l43 190h44l-65 -279h328l-9 -48h-328l-116 -496q-59 -254 107 -254q60 0 113 39t77 111l42 -7q-33 -98 -101.5 -146.5t-145.5 -48.5z" />
    <glyph glyph-name="u" unicode="u" horiz-adv-x="1071" 
d="M349 -22q-138 0 -177 80t-3 238l96 417q13 67 -43 67h-109l10 48h235l-124 -538q-34 -129 -5.5 -193t137.5 -64q75 0 160.5 59.5t150 139t107.5 163.5l76 318q17 67 -41 67h-124l10 48h248l-165 -711q-8 -36 4 -51t47 -8l116 31l-3 -48l-263 -62l68 293
q-85 -122 -195.5 -208t-212.5 -86z" />
    <glyph glyph-name="v" unicode="v" horiz-adv-x="934" 
d="M722 828h277l-581 -846h-65l-133 743q-6 31 -19.5 43t-40.5 12h-75l9 48h171l145 -786l446 659q25 35 21 57t-36 22h-131z" />
    <glyph glyph-name="w" unicode="w" horiz-adv-x="1428" 
d="M1199 828h278l-492 -848h-83l-101 798l-401 -798h-86l-72 744q-4 32 -16.5 44t-39.5 12h-99l9 48h201l77 -781l2 -7l408 806h78l103 -807h5l382 661q45 80 -24 80h-141z" />
    <glyph glyph-name="x" unicode="x" horiz-adv-x="1025" 
d="M-16 0l502 428l-229 318q-24 34 -64 34h-86l12 48h165l252 -361l272 237q34 30 33 53t-39 23h-136l10 48h348l-465 -395l245 -347q24 -38 68 -38h51l-12 -48h-134l-268 393l-310 -269q-34 -28 -33 -52t39 -24h164l-12 -48h-373z" />
    <glyph glyph-name="y" unicode="y" horiz-adv-x="914" 
d="M-46 -441q-37 -6 -37 30q0 24 39 34q95 20 180 86.5t182 206.5l108 163l-188 651q-15 50 -60 50h-95l11 48h186l197 -675l359 546q52 81 -17 81h-161l10 48h308l-624 -942q-101 -152 -192.5 -227t-205.5 -100z" />
    <glyph glyph-name="z" unicode="z" horiz-adv-x="895" 
d="M-4 0l18 79l780 690l6 11h-470q-51 0 -81 -67l-54 -145l-43 4l89 256h641l-17 -77l-781 -690l-7 -13h498q55 0 83 68l54 151l45 -4l-87 -263h-674z" />
    <glyph glyph-name="braceleft" unicode="{" horiz-adv-x="603" 
d="M365 -528q-177 -6 -262 87t-55 248q17 88 78 204.5t72 170.5q21 99 -8.5 143t-110.5 49l17 97q89 7 137.5 57t71.5 149q10 48 4.5 113t-10 116.5t14.5 144.5q33 145 152.5 235.5t298.5 86.5l-5 -42q-149 3 -252.5 -73.5t-134.5 -210.5q-16 -65 -13.5 -137t9.5 -118.5
t-6 -118.5q-22 -104 -78 -163.5t-152 -75.5l-10 -23q175 -34 131 -253q-12 -56 -72 -169t-77 -204q-25 -133 46.5 -205t217.5 -67z" />
    <glyph glyph-name="bar" unicode="|" horiz-adv-x="587" 
d="M71 -483l389 1835h65l-390 -1835h-64z" />
    <glyph glyph-name="braceright" unicode="}" horiz-adv-x="603" 
d="M-157 -528l4 42q144 -5 249.5 71t137.5 214q17 68 13.5 138t-11 114t6.5 121q46 207 231 240l10 22q-177 32 -129 253q10 53 71 170.5t77 203.5q25 129 -45 201.5t-220 69.5l5 41q179 4 261.5 -91t52.5 -245q-16 -85 -76.5 -201t-72.5 -172q-20 -93 6.5 -140t112.5 -54
l-17 -96q-82 -5 -133.5 -53.5t-72.5 -152.5q-11 -49 0 -166t-10 -208q-36 -150 -157 -239t-294 -83z" />
    <glyph glyph-name="asciitilde" unicode="~" horiz-adv-x="1269" 
d="M269 567q0 111 58 182.5t166 71.5q46 0 88 -16t66 -33t66 -52q35 -32 54 -47t54 -28.5t76 -13.5q81 0 128.5 52t48.5 146h45q2 -116 -58.5 -187.5t-170.5 -71.5q-42 0 -75.5 7.5t-65.5 27.5t-47 31.5t-50 41.5q-30 29 -48.5 43.5t-50 27t-67.5 12.5q-80 0 -125.5 -51
t-46.5 -143h-45z" />
    <glyph glyph-name="uni00A0" unicode="&#xa0;" horiz-adv-x="553" 
 />
    <glyph glyph-name="exclamdown" unicode="&#xa1;" horiz-adv-x="558" 
d="M354 861q38 0 65 -27.5t27 -65.5t-27 -65t-65 -27q-37 0 -63.5 27t-26.5 65t26.5 65.5t63.5 27.5zM295 382l-153 -766q-6 -24 -27 -129q-7 -32 -38 -32q-41 0 -29 45q4 17 13 57.5t14 62.5l171 762h49z" />
    <glyph glyph-name="cent" unicode="&#xa2;" horiz-adv-x="1053" 
d="M992 859q6 -35 -23 -45q-17 -1 -25 9.5t-11 30.5q-44 110 -162 142l-312 -757q30 -5 59 -5q113 0 210.5 60t159.5 160l40 -27q-73 -115 -182 -179.5t-238 -64.5q-37 0 -70 6l-153 -371h-45l157 380q-131 36 -190.5 151.5t-25.5 275.5q40 186 184.5 308t324.5 122
q34 0 59 -4l165 401h45l-169 -409q78 -18 131 -65.5t71 -118.5zM418 249l311 755q-28 2 -43 2q-155 0 -276.5 -111.5t-155.5 -275.5q-30 -139 14.5 -238t149.5 -132z" />
    <glyph glyph-name="sterling" unicode="&#xa3;" horiz-adv-x="1492" 
d="M62 -34q-23 0 -25 25q0 15 10 29q25 24 68.5 62.5t75 67.5t49.5 48q169 181 292 441l-339 -2l26 53l338 2q13 25 76.5 154.5t102.5 194.5q64 106 132 176.5t162 113t207 42.5q205 0 236 -196q0 -29 -24 -39q-15 -1 -24.5 10t-11.5 30q-35 145 -186 145q-79 0 -145 -23
t-118 -68t-92 -97.5t-80 -124.5q-36 -58 -97 -182.5t-68 -138.5l381 1l-24 -53l-384 -2q-108 -214 -215 -345q81 47 163 47q35 0 63.5 -10.5t51.5 -33t37.5 -41.5t34.5 -50q2 -3 3 -5t3 -4.5t3 -4.5q27 -40 41.5 -59.5t43.5 -46.5t64.5 -38.5t82.5 -11.5q77 0 144 53
t101.5 130.5t27.5 150.5q-4 29 22 41q14 2 23.5 -7.5t12.5 -29.5q8 -47 -10 -104q-30 -113 -129 -201t-209 -88q-47 0 -86.5 12t-65 27.5t-51 44t-37.5 47t-32 51.5q-26 42 -43 64t-47 40t-67 18q-118 0 -255 -127q-20 -20 -43 -43.5t-36.5 -37.5t-29.5 -30.5t-25.5 -25.5
t-20.5 -19t-18 -15t-14.5 -9.5t-13.5 -6t-12 -1.5z" />
    <glyph glyph-name="currency" unicode="&#xa4;" horiz-adv-x="1302" 
d="M325 303l-35 35l128 128q-96 115 -96 255q0 146 99 261l-131 132l35 35l132 -130q116 100 256 100q144 0 260 -100l130 130l34 -35l-129 -130q98 -120 98 -263q0 -138 -96 -253l127 -130l-34 -35l-130 130q-116 -100 -260 -100t-258 98zM713 383q140 0 241.5 100
t101.5 239q0 142 -101.5 244.5t-241.5 102.5q-139 0 -240 -103t-101 -244q0 -140 100 -239.5t241 -99.5z" />
    <glyph glyph-name="yen" unicode="&#xa5;" horiz-adv-x="1595" 
d="M406 0l10 48h221q71 0 88 76l47 223h-515l9 47h515l14 57l-52 127h-437l9 47h408l-249 626q-11 29 -27 41t-44 12h-111l10 48h489l-9 -48h-156q-40 0 -58.5 -25.5t-5.5 -60.5l292 -710l590 712q30 36 24.5 60t-46.5 24h-150l9 48h392l-9 -48h-37q-50 0 -98 -59l-520 -620
h413l-10 -47h-440l-106 -126l-14 -58h520l-9 -47h-520l-49 -229q-15 -70 51 -70h226l-10 -48h-655z" />
    <glyph glyph-name="brokenbar" unicode="&#xa6;" horiz-adv-x="587" 
d="M270 456l167 785h64l-166 -785h-65zM95 -370l168 790h64l-168 -790h-64z" />
    <glyph glyph-name="section" unicode="&#xa7;" horiz-adv-x="1119" 
d="M365 -496q-148 0 -219.5 69t-52.5 196q3 17 12.5 25.5t21.5 8.5q30 0 27 -46q-13 -101 42 -153t176 -52q131 0 212 64.5t106 189.5q12 53 0 96.5t-56.5 84.5t-77.5 63.5t-107 67.5q-10 6 -16 9.5t-14.5 9t-15.5 9.5q-32 18 -57.5 33.5t-53.5 35.5t-48 39t-41 42.5t-32 47
t-20.5 52.5t-8 59t6.5 66q28 125 119 196.5t234 74.5q-159 122 -125 282q32 146 132.5 222.5t254.5 76.5q149 0 220 -70t52 -195q-2 -16 -11.5 -25t-22.5 -9q-30 0 -27 48q13 99 -42 150.5t-176 51.5q-132 0 -213 -64.5t-107 -188.5q-5 -32 -4 -58.5t13 -52t27.5 -46t39 -41
t49 -38.5t56 -37t60.5 -37q28 -16 42 -25q29 -16 51.5 -29.5t48.5 -31t45.5 -33.5t39.5 -36t34 -40t25.5 -44.5t16.5 -49.5t5 -54.5t-7 -61.5q-29 -132 -121.5 -201t-229.5 -71q157 -123 123 -282q-32 -146 -132.5 -222t-253.5 -76zM550 137q150 -22 247 36.5t123 184.5
q9 35 5.5 66t-14.5 58t-32.5 52t-49.5 48t-64.5 47t-78 48.5t-90.5 52.5q-12 7 -18 10q-150 22 -247 -36.5t-123 -184.5q-24 -111 60 -196q56 -57 221 -151q16 -10 61 -35z" />
    <glyph glyph-name="dieresis" unicode="&#xa8;" horiz-adv-x="767" 
d="M385 1154q-29 0 -48.5 21t-19.5 47q0 28 20 48t48 20t48 -20t20 -48q0 -30 -20 -49t-48 -19zM725 1154q-30 0 -49.5 21t-19.5 47q0 28 20.5 48t48.5 20t48 -20t20 -48q0 -30 -20 -49t-48 -19z" />
    <glyph glyph-name="copyright" unicode="&#xa9;" horiz-adv-x="1719" 
d="M913 -22q-142 0 -270.5 55t-222 148.5t-148.5 223t-55 272.5q0 141 55.5 270t149 222t222 148.5t269.5 55.5q189 0 350.5 -93.5t255.5 -254t94 -348.5q0 -189 -94 -350t-255 -255t-351 -94zM913 24q133 0 253.5 52t208 139.5t139.5 208t52 253.5q0 176 -87.5 325.5
t-238 237t-327.5 87.5q-132 0 -252.5 -51.5t-207.5 -138.5t-138.5 -207.5t-51.5 -252.5q0 -133 51.5 -254t138.5 -208.5t207.5 -139t252.5 -51.5zM912 246q-176 0 -293 121t-117 309q0 186 117 307.5t294 121.5q138 0 239 -69q30 -21 47.5 -14.5t17.5 39.5h41v-169h-41
q-45 83 -124.5 127t-174.5 44q-158 0 -256.5 -110t-98.5 -274q0 -171 99.5 -280.5t255.5 -109.5q111 0 196.5 57.5t127.5 155.5l33 -22q-49 -110 -145 -172t-218 -62z" />
    <glyph glyph-name="guillemotleft" unicode="&#xab;" horiz-adv-x="969" 
d="M270 0l-193 440l379 441h55l-359 -441l170 -440h-52zM736 0l-194 440l380 441h55l-360 -441l171 -440h-52z" />
    <glyph glyph-name="logicalnot" unicode="&#xac;" horiz-adv-x="1466" 
d="M1194 334v550h-976v59h1035v-609h-59z" />
    <glyph glyph-name="uni00AD" unicode="&#xad;" horiz-adv-x="923" 
d="M157 373l13 65h592l-13 -65h-592z" />
    <glyph glyph-name="registered" unicode="&#xae;" horiz-adv-x="1719" 
d="M913 1373q189 0 350.5 -93.5t255.5 -253.5t94 -348q0 -190 -94 -351t-255 -255t-351 -94q-189 0 -349 93.5t-253.5 254.5t-93.5 352q0 141 55.5 269.5t149 221.5t222 148.5t269.5 55.5zM913 24q133 0 253.5 52t208 139.5t139.5 208.5t52 254q0 176 -87.5 325.5t-238 237
t-327.5 87.5q-132 0 -252.5 -51.5t-207.5 -138.5t-138.5 -207.5t-51.5 -252.5q0 -178 87 -328.5t236.5 -238t326.5 -87.5zM1259 346q16 -22 42 -22h54v-39h-111l-191 282q-33 48 -63 66.5t-72 18.5h-179v-294q0 -34 33 -34h89v-39h-295v39h89q34 0 34 34v647q0 36 -33 36
h-90v36h395q112 0 179.5 -56t67.5 -154q0 -79 -47.5 -134t-129.5 -72q32 -25 64 -74zM739 691h214q97 0 151 45.5t54 129.5q0 81 -54 127t-148 46h-217v-348z" />
    <glyph glyph-name="macron" unicode="&#xaf;" horiz-adv-x="915" 
d="M312 1140l24 61h589l-25 -61h-588z" />
    <glyph glyph-name="degree" unicode="&#xb0;" horiz-adv-x="1078" 
d="M667 662q-147 0 -251.5 104.5t-104.5 251.5q0 146 104.5 250.5t251.5 104.5q146 0 251 -104.5t105 -250.5q0 -147 -105 -251.5t-251 -104.5zM667 715q126 0 214 88.5t88 214.5t-88 214t-214 88t-214.5 -88t-88.5 -214t88.5 -214.5t214.5 -88.5z" />
    <glyph glyph-name="plusminus" unicode="&#xb1;" horiz-adv-x="1480" 
d="M724 358v526h-525v59h525v525h59v-525h526v-59h-526v-526h-59zM199 0v59h1110v-59h-1110z" />
    <glyph glyph-name="acute" unicode="&#xb4;" horiz-adv-x="319" 
d="M110 1030h-46l270 322h134v-4z" />
    <glyph glyph-name="uni00B5" unicode="&#xb5;" horiz-adv-x="1306" 
d="M107 -429l245 1142q13 67 -50 67h-120l9 48h255l-115 -538q-29 -140 6.5 -198.5t151.5 -58.5q83 0 175 59.5t160.5 139.5t112.5 163l68 318q14 67 -46 67h-139l10 48h270l-150 -711q-8 -36 6 -52t50 -7l127 31l-1 -48l-284 -62l63 293q-84 -118 -198 -203t-221 -87
q-162 -3 -206 93l-108 -504h-71z" />
    <glyph glyph-name="paragraph" unicode="&#xb6;" horiz-adv-x="1138" 
d="M299 -510l254 1187q-68 3 -122.5 17t-100 40.5t-71 67t-35.5 97.5t8 132q17 80 53.5 137.5t86 93.5t121.5 57t150 29t182 8h443l-10 -41h-43q-197 0 -243 -210l-343 -1615h-47l386 1821h-235l-387 -1821h-47z" />
    <glyph glyph-name="periodcentered" unicode="&#xb7;" horiz-adv-x="607" 
d="M361 583q-39 0 -66 26.5t-27 68.5q0 39 25.5 63.5t67.5 24.5q38 0 64 -25t26 -63q0 -42 -26 -68.5t-64 -26.5z" />
    <glyph glyph-name="cedilla" unicode="&#xb8;" horiz-adv-x="624" 
d="M87 -491q-93 0 -196 27l13 48q88 -25 178 -25q114 0 184.5 41.5t70.5 103.5q0 16 -5 28.5t-13.5 21t-21 15t-28 10t-33.5 6t-38 3t-41 1t-43.5 0.5h-44.5l46 230l50 -8l-36 -171q39 0 65.5 -1t60 -5t55.5 -13.5t42 -23.5t30 -37t10 -54q0 -84 -85.5 -140.5t-219.5 -56.5z
" />
    <glyph glyph-name="guillemotright" unicode="&#xbb;" horiz-adv-x="967" 
d="M3 0l359 440l-170 441h50l195 -441l-381 -440h-53zM469 0l359 440l-171 441h51l195 -441l-382 -440h-52z" />
    <glyph glyph-name="questiondown" unicode="&#xbf;" horiz-adv-x="891" 
d="M610 861q38 0 65 -27.5t27 -65.5t-27 -65t-65 -27q-37 0 -63.5 27t-26.5 65t26.5 65.5t63.5 27.5zM641 -268q14 -1 20 -13.5t-3 -32.5q-57 -102 -163.5 -166.5t-224.5 -64.5q-102 0 -177 50t-105.5 135.5t-9.5 185.5q33 151 140.5 246.5t238.5 95.5q48 0 96 -14l50 229
h50l-61 -282l-40 1q-34 15 -89 15q-111 0 -200.5 -87.5t-116.5 -215.5q-27 -124 38.5 -217t190.5 -93q96 0 186.5 55.5t140.5 148.5q18 32 39 24z" />
    <glyph glyph-name="Agrave" unicode="&#xc0;" horiz-adv-x="1306" 
d="M906 1438h-46l-358 317v4h134zM1107 48h86l-10 -48h-406l10 48h122q31 0 51 20t16 52l-34 360h-569l-210 -362q-19 -34 -10.5 -52t39.5 -18h148l-10 -48h-383l10 48h59q25 0 51 20.5t44 50.5l732 1254h85l118 -1261q5 -64 61 -64zM401 529h537l-71 751h-30z" />
    <glyph glyph-name="Aacute" unicode="&#xc1;" horiz-adv-x="1306" 
d="M1130 1759h134v-4l-358 -317h-46zM1046 112q5 -64 61 -64h86l-10 -48h-406l10 48h122q31 0 51 20t16 52l-34 360h-569l-210 -362q-19 -34 -10.5 -52t39.5 -18h148l-10 -48h-383l10 48h59q25 0 51 20.5t44 50.5l732 1254h85zM401 529h537l-71 751h-30z" />
    <glyph glyph-name="Acircumflex" unicode="&#xc2;" horiz-adv-x="1306" 
d="M969 1746l-338 -276h-41l316 322h140l181 -322h-39zM1046 112q5 -64 61 -64h86l-10 -48h-406l10 48h122q31 0 51 20t16 52l-34 360h-569l-210 -362q-19 -34 -10.5 -52t39.5 -18h148l-10 -48h-383l10 48h59q25 0 51 20.5t44 50.5l732 1254h85zM401 529h537l-71 751h-30z
" />
    <glyph glyph-name="Atilde" unicode="&#xc3;" horiz-adv-x="1306" 
d="M796 1622q-60 0 -103.5 -50t-60.5 -136l-40 7q23 113 80 176.5t135 63.5q35 0 63 -16.5t40 -33.5t29 -46q12 -21 20.5 -32.5t22 -25t31 -19.5t40.5 -6q61 0 106 50.5t65 141.5l39 -7q-22 -113 -80 -179.5t-138 -66.5q-31 0 -54 8t-41 27t-26 30.5t-23 36.5
q-12 21 -19.5 31t-20.5 23t-28.5 18t-36.5 5zM1046 112q5 -64 61 -64h86l-10 -48h-406l10 48h122q31 0 51 20t16 52l-34 360h-569l-210 -362q-19 -34 -10.5 -52t39.5 -18h148l-10 -48h-383l10 48h59q25 0 51 20.5t44 50.5l732 1254h85zM401 529h537l-71 751h-30z" />
    <glyph glyph-name="Adieresis" unicode="&#xc4;" horiz-adv-x="1306" 
d="M712 1538q-29 0 -48.5 21t-19.5 47q0 28 20 48t48 20t48 -20t20 -48q0 -30 -20 -49t-48 -19zM1052 1538q-29 0 -48.5 21t-19.5 47q0 28 20 48t48 20t48 -20t20 -48q0 -30 -20 -49t-48 -19zM1107 48h86l-10 -48h-406l10 48h122q31 0 51 20t16 52l-34 360h-569l-210 -362
q-19 -34 -10.5 -52t39.5 -18h148l-10 -48h-383l10 48h59q25 0 51 20.5t44 50.5l732 1254h85l118 -1261q5 -64 61 -64zM401 529h537l-71 751h-30z" />
    <glyph glyph-name="Aring" unicode="&#xc5;" horiz-adv-x="1306" 
d="M924 1450q-73 0 -124.5 52t-51.5 126q0 75 51.5 126.5t124.5 51.5q74 0 126 -52t52 -126q0 -73 -52.5 -125.5t-125.5 -52.5zM924 1762q-55 0 -93 -39t-38 -95t38 -94.5t93 -38.5q56 0 95 38.5t39 94.5t-39 95t-95 39zM1107 48h86l-10 -48h-406l10 48h122q31 0 51 20
t16 52l-34 360h-569l-210 -362q-19 -34 -10.5 -52t39.5 -18h148l-10 -48h-383l10 48h59q25 0 51 20.5t44 50.5l732 1254h85l118 -1261q5 -64 61 -64zM401 529h537l-71 751h-30z" />
    <glyph glyph-name="AE" unicode="&#xc6;" horiz-adv-x="1854" 
d="M907 1352h923l-47 -349l-44 -3l30 238q1 36 -13.5 50t-48.5 14h-653l-110 -567h440q29 0 50.5 18t28.5 50l25 131h45l-89 -461h-45l29 149q11 63 -51 63h-441l-110 -564q-16 -72 49 -72h620q69 0 98 72l95 327l45 -4l-122 -444h-1070l8 48h127q32 0 53 20.5t28 55.5
l68 356h-431l-235 -362q-22 -34 -12 -51.5t43 -17.5l148 -1l-8 -48h-383l10 48l57 2q52 8 91 69zM834 529l149 773h-54l-503 -773h408z" />
    <glyph glyph-name="Ccedilla" unicode="&#xc7;" horiz-adv-x="1425" 
d="M1391 1314h44l-105 -458l-44 3q2 131 -43 236.5t-133.5 166.5t-204.5 61q-143 0 -280 -88.5t-236.5 -239t-141.5 -329.5q-39 -187 -9 -328.5t126 -225t235 -83.5q174 0 345 133t262 345l44 -3l-107 -464h-44l66 305q-100 -159 -246.5 -257t-300.5 -108l-29 -140
q39 0 65.5 -1t60 -5t55.5 -13.5t42 -23.5t30 -37t10 -54q0 -84 -85.5 -140.5t-219.5 -56.5q-93 0 -196 27l13 48q88 -25 178 -25q114 0 184.5 41.5t70.5 103.5q0 16 -5 28.5t-13.5 21t-21 15t-28 10t-33.5 6t-38 3t-41 1t-43.5 0.5h-44.5l38 190q-116 5 -206.5 62
t-140.5 152t-65 221t20 269q33 141 106 268.5t170 220t216 147t238 54.5q154 0 264 -100t142 -270z" />
    <glyph glyph-name="Egrave" unicode="&#xc8;" horiz-adv-x="1313" 
d="M893 1438h-46l-358 317v4h134zM287 1352h1029l-61 -349l-44 -3l38 238q2 36 -11.5 50t-45.5 14h-654l-132 -567h438q29 0 52 17t31 51l30 131h45l-107 -461h-45l35 149q12 63 -48 63h-442l-131 -564q-17 -72 46 -72h620q71 0 100 72l110 327l44 -4l-138 -444h-1072l10 48
h127q31 0 54.5 21t30.5 55l256 1110q7 35 -3.5 52t-44.5 17h-127z" />
    <glyph glyph-name="Eacute" unicode="&#xc9;" horiz-adv-x="1313" 
d="M1251 1755l-358 -317h-46l270 321h134v-4zM287 1352h1029l-61 -349l-44 -3l38 238q2 36 -11.5 50t-45.5 14h-654l-132 -567h438q29 0 52 17t31 51l30 131h45l-107 -461h-45l35 149q12 63 -48 63h-442l-131 -564q-17 -72 46 -72h620q71 0 100 72l110 327l44 -4l-138 -444
h-1072l10 48h127q31 0 54.5 21t30.5 55l256 1110q7 35 -3.5 52t-44.5 17h-127z" />
    <glyph glyph-name="Ecircumflex" unicode="&#xca;" horiz-adv-x="1313" 
d="M956 1746l-338 -276h-41l316 322h140l181 -322h-39zM287 1352h1029l-61 -349l-44 -3l38 238q2 36 -11.5 50t-45.5 14h-654l-132 -567h438q29 0 52 17t31 51l30 131h45l-107 -461h-45l35 149q12 63 -48 63h-442l-131 -564q-17 -72 46 -72h620q71 0 100 72l110 327l44 -4
l-138 -444h-1072l10 48h127q31 0 54.5 21t30.5 55l256 1110q7 35 -3.5 52t-44.5 17h-127z" />
    <glyph glyph-name="Edieresis" unicode="&#xcb;" horiz-adv-x="1313" 
d="M699 1538q-29 0 -48.5 21t-19.5 47q0 28 20 48t48 20t48 -20t20 -48q0 -30 -20 -49t-48 -19zM1039 1538q-29 0 -48.5 21t-19.5 47q0 28 20 48t48 20t48 -20t20 -48q0 -30 -20 -49t-48 -19zM287 1352h1029l-61 -349l-44 -3l38 238q2 36 -11.5 50t-45.5 14h-654l-132 -567
h438q29 0 52 17t31 51l30 131h45l-107 -461h-45l35 149q12 63 -48 63h-442l-131 -564q-17 -72 46 -72h620q71 0 100 72l110 327l44 -4l-138 -444h-1072l10 48h127q31 0 54.5 21t30.5 55l256 1110q7 35 -3.5 52t-44.5 17h-127z" />
    <glyph glyph-name="Igrave" unicode="&#xcc;" horiz-adv-x="697" 
d="M539 1438l-358 317v4h134l270 -321h-46zM-27 0l10 48h173q32 0 56 20.5t31 55.5l256 1111q8 36 -3 52.5t-45 16.5h-175l10 48h551l-10 -48h-172q-70 0 -86 -76l-258 -1110q-17 -70 48 -70h175l-9 -48h-552z" />
    <glyph glyph-name="Iacute" unicode="&#xcd;" horiz-adv-x="697" 
d="M539 1438l270 321h134v-4l-358 -317h-46zM-27 0l10 48h173q32 0 56 20.5t31 55.5l256 1111q8 36 -3 52.5t-45 16.5h-175l10 48h551l-10 -48h-172q-70 0 -86 -76l-258 -1110q-17 -70 48 -70h175l-9 -48h-552z" />
    <glyph glyph-name="Icircumflex" unicode="&#xce;" horiz-adv-x="697" 
d="M269 1470l316 322h140l181 -322h-39l-219 276l-338 -276h-41zM-27 0l10 48h173q32 0 56 20.5t31 55.5l256 1111q8 36 -3 52.5t-45 16.5h-175l10 48h551l-10 -48h-172q-70 0 -86 -76l-258 -1110q-17 -70 48 -70h175l-9 -48h-552z" />
    <glyph glyph-name="Idieresis" unicode="&#xcf;" horiz-adv-x="697" 
d="M391 1538q-29 0 -48.5 21t-19.5 47q0 28 20 48t48 20t48 -20t20 -48q0 -30 -20 -49t-48 -19zM731 1538q-29 0 -48.5 21t-19.5 47q0 28 20 48t48 20t48 -20t20 -48q0 -30 -20 -49t-48 -19zM-27 0l10 48h173q32 0 56 20.5t31 55.5l256 1111q8 36 -3 52.5t-45 16.5h-175
l10 48h551l-10 -48h-172q-70 0 -86 -76l-258 -1110q-17 -70 48 -70h175l-9 -48h-552z" />
    <glyph glyph-name="Eth" unicode="&#xd0;" horiz-adv-x="1451" 
d="M881 1352q146 0 258.5 -47.5t179.5 -135.5t88 -213.5t-16 -281.5q-48 -208 -168 -362t-287.5 -233t-362.5 -79h-600l10 48h136q30 0 51.5 21t28.5 55l122 527h-197l10 50h199l124 534q16 69 -43 69h-138l10 48h595zM1318 688q65 280 -55.5 448t-377.5 168h-341l-141 -603
h467l-11 -50h-467l-124 -529q-8 -35 2.5 -54t47.5 -19h287q256 0 451.5 177t261.5 462z" />
    <glyph glyph-name="Ntilde" unicode="&#xd1;" horiz-adv-x="1471" 
d="M868 1622q-60 0 -103.5 -50t-60.5 -136l-40 7q23 113 80 176.5t135 63.5q35 0 63 -16.5t40 -33.5t29 -46q12 -21 20.5 -32.5t22 -25t31 -19.5t40.5 -6q61 0 106 50.5t65 141.5l39 -7q-22 -113 -80 -179.5t-138 -66.5q-31 0 -54 8t-41 27t-26 30.5t-23 36.5
q-12 21 -19.5 31t-20.5 23t-28.5 18t-36.5 5zM1195 1352h436l-11 -49h-123q-31 0 -55 -23.5t-32 -58.5l-287 -1244h-55l-538 1309l-18 4l-270 -1165q-18 -77 47 -77h127l-10 -48h-431l10 48h124q33 0 57.5 26t31.5 58l253 1098q16 73 -47 73h-127l10 49h301l514 -1261
l265 1137q8 34 -3.5 54.5t-43.5 20.5h-135z" />
    <glyph glyph-name="Ograve" unicode="&#xd2;" horiz-adv-x="1372" 
d="M875 1438l-358 317v4h134l270 -321h-46zM584 -21q-167 0 -276 91t-140 248t13 367q34 146 103.5 273t162.5 218.5t210 144t241 52.5q126 0 220.5 -53t145 -147t63 -223t-24.5 -282q-45 -196 -150.5 -353t-254 -246.5t-313.5 -89.5zM586 29q221 0 398.5 182.5t243.5 472.5
q67 292 -26.5 465.5t-307.5 173.5q-219 0 -396 -181.5t-243 -468.5q-34 -138 -26 -256t48.5 -204.5t120 -135t188.5 -48.5z" />
    <glyph glyph-name="Oacute" unicode="&#xd3;" horiz-adv-x="1372" 
d="M875 1438l270 321h134v-4l-358 -317h-46zM584 -21q-167 0 -276 91t-140 248t13 367q34 146 103.5 273t162.5 218.5t210 144t241 52.5q126 0 220.5 -53t145 -147t63 -223t-24.5 -282q-45 -196 -150.5 -353t-254 -246.5t-313.5 -89.5zM586 29q221 0 398.5 182.5
t243.5 472.5q67 292 -26.5 465.5t-307.5 173.5q-219 0 -396 -181.5t-243 -468.5q-34 -138 -26 -256t48.5 -204.5t120 -135t188.5 -48.5z" />
    <glyph glyph-name="Ocircumflex" unicode="&#xd4;" horiz-adv-x="1372" 
d="M605 1470l316 322h140l181 -322h-39l-219 276l-338 -276h-41zM584 -21q-167 0 -276 91t-140 248t13 367q34 146 103.5 273t162.5 218.5t210 144t241 52.5q126 0 220.5 -53t145 -147t63 -223t-24.5 -282q-45 -196 -150.5 -353t-254 -246.5t-313.5 -89.5zM586 29
q221 0 398.5 182.5t243.5 472.5q67 292 -26.5 465.5t-307.5 173.5q-219 0 -396 -181.5t-243 -468.5q-34 -138 -26 -256t48.5 -204.5t120 -135t188.5 -48.5z" />
    <glyph glyph-name="Otilde" unicode="&#xd5;" horiz-adv-x="1372" 
d="M647 1436l-40 7q23 113 80 176.5t135 63.5q35 0 63 -16.5t40 -33.5t29 -46q12 -21 20.5 -32.5t22 -25t31 -19.5t40.5 -6q61 0 106 50.5t65 141.5l39 -7q-22 -113 -80 -179.5t-138 -66.5q-31 0 -54 8t-41 27t-26 30.5t-23 36.5q-12 21 -19.5 31t-20.5 23t-28.5 18t-36.5 5
q-60 0 -103.5 -50t-60.5 -136zM584 -21q-167 0 -276 91t-140 248t13 367q34 146 103.5 273t162.5 218.5t210 144t241 52.5q126 0 220.5 -53t145 -147t63 -223t-24.5 -282q-45 -196 -150.5 -353t-254 -246.5t-313.5 -89.5zM586 29q221 0 398.5 182.5t243.5 472.5
q67 292 -26.5 465.5t-307.5 173.5q-219 0 -396 -181.5t-243 -468.5q-34 -138 -26 -256t48.5 -204.5t120 -135t188.5 -48.5z" />
    <glyph glyph-name="Odieresis" unicode="&#xd6;" horiz-adv-x="1372" 
d="M727 1538q-29 0 -48.5 21t-19.5 47q0 28 20 48t48 20t48 -20t20 -48q0 -30 -20 -49t-48 -19zM1067 1538q-29 0 -48.5 21t-19.5 47q0 28 20 48t48 20t48 -20t20 -48q0 -30 -20 -49t-48 -19zM584 -21q-167 0 -276 91t-140 248t13 367q34 146 103.5 273t162.5 218.5t210 144
t241 52.5q126 0 220.5 -53t145 -147t63 -223t-24.5 -282q-45 -196 -150.5 -353t-254 -246.5t-313.5 -89.5zM586 29q221 0 398.5 182.5t243.5 472.5q67 292 -26.5 465.5t-307.5 173.5q-219 0 -396 -181.5t-243 -468.5q-34 -138 -26 -256t48.5 -204.5t120 -135t188.5 -48.5z
" />
    <glyph glyph-name="multiply" unicode="&#xd7;" horiz-adv-x="1170" 
d="M259 227l-41 42l373 370l-373 373l41 41l373 -371l371 371l41 -41l-371 -373l371 -370l-41 -42l-371 371z" />
    <glyph glyph-name="Oslash" unicode="&#xd8;" horiz-adv-x="1372" 
d="M1349 1327l-106 -121q66 -95 81.5 -233t-22.5 -305q-45 -196 -150.5 -353t-254 -246.5t-313.5 -89.5q-198 0 -312 125l-100 -114l-39 33l107 121q-66 96 -81.5 233t22.5 308q34 146 103.5 273t162.5 218.5t210 144t241 52.5q198 0 313 -126l100 113zM255 673
q-69 -296 31 -476l883 1002q-96 124 -275 124q-219 0 -396 -181.5t-243 -468.5zM1228 684q68 296 -30 471l-883 -1003q95 -123 271 -123q221 0 398.5 182.5t243.5 472.5z" />
    <glyph glyph-name="Ugrave" unicode="&#xd9;" horiz-adv-x="1429" 
d="M890 1438l-358 317v4h134l270 -321h-46zM611 -21q-237 0 -331 129.5t-37 373.5l174 752q18 69 -47 69h-128l11 49h519l-12 -49h-187q-33 0 -57 -20t-31 -56l-173 -751q-50 -222 25.5 -334t285.5 -112q436 0 541 456l174 744q16 73 -50 73h-113l10 49h388l-11 -49h-96
q-31 0 -54 -22.5t-31 -57.5l-173 -744q-116 -500 -597 -500z" />
    <glyph glyph-name="Uacute" unicode="&#xda;" horiz-adv-x="1429" 
d="M890 1438l270 321h134v-4l-358 -317h-46zM611 -21q-237 0 -331 129.5t-37 373.5l174 752q18 69 -47 69h-128l11 49h519l-12 -49h-187q-33 0 -57 -20t-31 -56l-173 -751q-50 -222 25.5 -334t285.5 -112q436 0 541 456l174 744q16 73 -50 73h-113l10 49h388l-11 -49h-96
q-31 0 -54 -22.5t-31 -57.5l-173 -744q-116 -500 -597 -500z" />
    <glyph glyph-name="Ucircumflex" unicode="&#xdb;" horiz-adv-x="1429" 
d="M620 1470l316 322h140l181 -322h-39l-219 276l-338 -276h-41zM611 -21q-237 0 -331 129.5t-37 373.5l174 752q18 69 -47 69h-128l11 49h519l-12 -49h-187q-33 0 -57 -20t-31 -56l-173 -751q-50 -222 25.5 -334t285.5 -112q436 0 541 456l174 744q16 73 -50 73h-113l10 49
h388l-11 -49h-96q-31 0 -54 -22.5t-31 -57.5l-173 -744q-116 -500 -597 -500z" />
    <glyph glyph-name="Udieresis" unicode="&#xdc;" horiz-adv-x="1429" 
d="M742 1538q-29 0 -48.5 21t-19.5 47q0 28 20 48t48 20t48 -20t20 -48q0 -30 -20 -49t-48 -19zM1082 1538q-29 0 -48.5 21t-19.5 47q0 28 20 48t48 20t48 -20t20 -48q0 -30 -20 -49t-48 -19zM611 -21q-237 0 -331 129.5t-37 373.5l174 752q18 69 -47 69h-128l11 49h519
l-12 -49h-187q-33 0 -57 -20t-31 -56l-173 -751q-50 -222 25.5 -334t285.5 -112q436 0 541 456l174 744q16 73 -50 73h-113l10 49h388l-11 -49h-96q-31 0 -54 -22.5t-31 -57.5l-173 -744q-116 -500 -597 -500z" />
    <glyph glyph-name="Yacute" unicode="&#xdd;" horiz-adv-x="1325" 
d="M842 1438l270 321h134v-4l-358 -317h-46zM279 0l10 48h198q33 0 55.5 20.5t30.5 55.5l76 327l-260 800q-10 27 -24 39.5t-41 12.5h-100l10 49h452l-10 -49h-141q-36 0 -53.5 -26t-6.5 -60l236 -709l561 710q20 25 25.5 44t-5 30t-37.5 11h-119l11 49h345l-12 -49h-34
q-47 0 -94 -59l-632 -791l-79 -335q-8 -37 3.5 -53.5t44.5 -16.5h202l-10 -48h-602z" />
    <glyph glyph-name="Thorn" unicode="&#xde;" horiz-adv-x="1102" 
d="M-106 0l10 48h124q68 0 83 76l236 1111q15 69 -49 69h-126l9 48h453l-10 -48h-123q-32 0 -54 -18.5t-29 -50.5l-18 -84h334q183 -1 257 -98t38 -265q-34 -163 -145 -258.5t-294 -95.5h-342l-66 -316q-16 -70 50 -70h127l-10 -48h-455zM258 483h334q151 0 243 84.5
t124 233.5q30 141 -24.5 221.5t-206.5 80.5h-337z" />
    <glyph glyph-name="germandbls" unicode="&#xdf;" horiz-adv-x="1212" 
d="M732 -20q-46 0 -79.5 11t-50 28.5t-26.5 39t-8.5 43.5t3.5 42q4 32 24 32q27 0 19 -38q-9 -46 14 -78.5t100 -32.5q112 0 191.5 85.5t112.5 241.5q40 185 -65.5 267t-330.5 82l7 48q65 0 116.5 7t102.5 26t88 50.5t66.5 83.5t44.5 122q62 288 -254 288q-336 0 -425 -418
l-166 -798q-13 -64 47 -64h135l-10 -48h-441l10 48h107q33 0 55 20t29 53l162 778q97 478 500 478q193 0 273.5 -90.5t44.5 -258.5q-48 -232 -278 -296q152 -30 219.5 -130.5t34.5 -258.5q-36 -170 -136.5 -266.5t-235.5 -96.5z" />
    <glyph glyph-name="agrave" unicode="&#xe0;" horiz-adv-x="1014" 
d="M604 1030l-358 318v4h134l270 -322h-46zM377 -21q-158 0 -241 127.5t-40 313.5q29 127 108 227.5t176 151.5t192 51q75 0 140.5 -33t107.5 -93l24 104h67l-172 -739q-8 -40 26 -40h103l-10 -49h-202l23 103q-144 -124 -302 -124zM394 32q76 0 156 38.5t143 107.5l114 486
q-30 64 -89.5 98.5t-136.5 34.5q-138 0 -259.5 -114t-159.5 -274q-36 -158 30.5 -267.5t201.5 -109.5z" />
    <glyph glyph-name="aacute" unicode="&#xe1;" horiz-adv-x="1014" 
d="M604 1030h-46l270 322h134v-4zM377 -21q-158 0 -241 127.5t-40 313.5q29 127 108 227.5t176 151.5t192 51q75 0 140.5 -33t107.5 -93l24 104h67l-172 -739q-8 -40 26 -40h103l-10 -49h-202l23 103q-144 -124 -302 -124zM394 32q76 0 156 38.5t143 107.5l114 486
q-30 64 -89.5 98.5t-136.5 34.5q-138 0 -259.5 -114t-159.5 -274q-36 -158 30.5 -267.5t201.5 -109.5z" />
    <glyph glyph-name="acircumflex" unicode="&#xe2;" horiz-adv-x="1014" 
d="M327 1030l320 322h137l183 -322h-41l-219 276l-336 -276h-44zM377 -21q-158 0 -241 127.5t-40 313.5q29 127 108 227.5t176 151.5t192 51q75 0 140.5 -33t107.5 -93l24 104h67l-172 -739q-8 -40 26 -40h103l-10 -49h-202l23 103q-144 -124 -302 -124zM394 32
q76 0 156 38.5t143 107.5l114 486q-30 64 -89.5 98.5t-136.5 34.5q-138 0 -259.5 -114t-159.5 -274q-36 -158 30.5 -267.5t201.5 -109.5z" />
    <glyph glyph-name="atilde" unicode="&#xe3;" horiz-adv-x="1014" 
d="M370 993l-41 7q25 113 82 176t133 63q27 0 49 -8t38 -24.5t25 -29t22 -34.5q18 -29 28 -42.5t32.5 -26.5t53.5 -13q60 0 105 50.5t64 141.5l41 -7q-24 -113 -81.5 -179.5t-136.5 -66.5q-31 0 -54 8t-41 27t-25.5 29.5t-23.5 36.5q-17 27 -27 40.5t-31 25.5t-49 12
q-59 0 -102 -50t-61 -136zM377 -21q-158 0 -241 127.5t-40 313.5q29 127 108 227.5t176 151.5t192 51q75 0 140.5 -33t107.5 -93l24 104h67l-172 -739q-8 -40 26 -40h103l-10 -49h-202l23 103q-144 -124 -302 -124zM394 32q76 0 156 38.5t143 107.5l114 486
q-30 64 -89.5 98.5t-136.5 34.5q-138 0 -259.5 -114t-159.5 -274q-36 -158 30.5 -267.5t201.5 -109.5z" />
    <glyph glyph-name="adieresis" unicode="&#xe4;" horiz-adv-x="1014" 
d="M433 1154q-29 0 -48.5 21t-19.5 47q0 28 20 48t48 20t48 -20t20 -48q0 -30 -20 -49t-48 -19zM773 1154q-30 0 -49.5 21t-19.5 47q0 28 20.5 48t48.5 20t48 -20t20 -48q0 -30 -20 -49t-48 -19zM377 -21q-158 0 -241 127.5t-40 313.5q29 127 108 227.5t176 151.5t192 51
q75 0 140.5 -33t107.5 -93l24 104h67l-172 -739q-8 -40 26 -40h103l-10 -49h-202l23 103q-144 -124 -302 -124zM394 32q76 0 156 38.5t143 107.5l114 486q-30 64 -89.5 98.5t-136.5 34.5q-138 0 -259.5 -114t-159.5 -274q-36 -158 30.5 -267.5t201.5 -109.5z" />
    <glyph glyph-name="aring" unicode="&#xe5;" horiz-adv-x="1014" 
d="M604 961q-74 0 -126 52t-52 128t52 128t126 52q75 0 128 -53t53 -127t-53 -127t-128 -53zM604 1006q58 0 97 38.5t39 96.5t-39 96.5t-97 38.5q-56 0 -94.5 -39t-38.5 -96t38.5 -96t94.5 -39zM377 -21q-158 0 -241 127.5t-40 313.5q29 127 108 227.5t176 151.5t192 51
q75 0 140.5 -33t107.5 -93l24 104h67l-172 -739q-8 -40 26 -40h103l-10 -49h-202l23 103q-144 -124 -302 -124zM394 32q76 0 156 38.5t143 107.5l114 486q-30 64 -89.5 98.5t-136.5 34.5q-138 0 -259.5 -114t-159.5 -274q-36 -158 30.5 -267.5t201.5 -109.5z" />
    <glyph glyph-name="ae" unicode="&#xe6;" horiz-adv-x="1476" 
d="M1389 427h-662q-35 -176 26.5 -287.5t200.5 -111.5q96 0 182.5 57t142.5 154l36 -27q-63 -109 -162 -171.5t-209 -62.5q-119 0 -197 71.5t-96 193.5q-140 -145 -238 -204t-203 -59q-88 0 -125.5 49.5t-19.5 139.5q17 87 73 140t158 103l390 193q13 110 -29 153t-145 43
q-206 0 -293 -176q-17 -30 -41 -23q-15 2 -19.5 15t4.5 33q102 200 359 200q37 0 67.5 -4.5t62 -17t53.5 -33t36 -56t15 -82.5q65 90 156 141.5t190 51.5q153 0 236 -117.5t51 -305.5zM1101 801q-121 0 -221.5 -93t-142.5 -234l598 7q12 141 -51 230.5t-183 89.5zM227 32
q176 0 396 249l55 270l-367 -186q-90 -46 -130.5 -93.5t-51.5 -109.5q-26 -130 98 -130z" />
    <glyph glyph-name="ccedilla" unicode="&#xe7;" horiz-adv-x="897" 
d="M848 656q6 -41 -23 -46q-14 -3 -22 9t-11 30q-22 73 -77.5 113t-138.5 40q-140 0 -255 -112t-153 -275q-39 -174 24.5 -280t199.5 -106q104 0 195 60t151 160l37 -27q-71 -115 -173 -179.5t-220 -64.5h-12l-29 -138q39 0 65.5 -1t60 -5t55.5 -13.5t42 -23.5t30 -37
t10 -54q0 -84 -85.5 -140.5t-219.5 -56.5q-93 0 -196 27l13 48q88 -25 178 -25q114 0 184.5 41.5t70.5 103.5q0 16 -5 28.5t-13.5 21t-21 15t-28 10t-33.5 6t-38 3t-41 1t-43.5 0.5h-44.5l39 194q-137 24 -198 144.5t-21 293.5q44 186 179 307.5t300 121.5
q102 0 176.5 -51.5t91.5 -142.5z" />
    <glyph glyph-name="egrave" unicode="&#xe8;" horiz-adv-x="891" 
d="M558 1030l-358 318v4h134l270 -322h-46zM374 -22q-162 0 -238.5 126t-31.5 319q43 187 173 307t288 120q117 0 191.5 -55t74.5 -149q0 -54 -31 -95t-93 -65t-120 -38.5t-147 -20t-136 -7t-123 -1.5h-3q-44 -181 14 -286t194 -105q97 0 185.5 58t146.5 153l37 -27
q-68 -109 -169.5 -171.5t-211.5 -62.5zM189 463q61 2 102.5 3.5t99.5 5t98 10t86.5 15.5t77 22.5t57 31.5t39.5 43t13 55q0 78 -53.5 115t-146.5 37q-121 0 -225 -94.5t-148 -243.5z" />
    <glyph glyph-name="eacute" unicode="&#xe9;" horiz-adv-x="891" 
d="M558 1030h-46l270 322h134v-4zM374 -22q-162 0 -238.5 126t-31.5 319q43 187 173 307t288 120q117 0 191.5 -55t74.5 -149q0 -54 -31 -95t-93 -65t-120 -38.5t-147 -20t-136 -7t-123 -1.5h-3q-44 -181 14 -286t194 -105q97 0 185.5 58t146.5 153l37 -27
q-68 -109 -169.5 -171.5t-211.5 -62.5zM189 463q61 2 102.5 3.5t99.5 5t98 10t86.5 15.5t77 22.5t57 31.5t39.5 43t13 55q0 78 -53.5 115t-146.5 37q-121 0 -225 -94.5t-148 -243.5z" />
    <glyph glyph-name="ecircumflex" unicode="&#xea;" horiz-adv-x="891" 
d="M281 1030l320 322h137l183 -322h-41l-219 276l-336 -276h-44zM374 -22q-162 0 -238.5 126t-31.5 319q43 187 173 307t288 120q117 0 191.5 -55t74.5 -149q0 -54 -31 -95t-93 -65t-120 -38.5t-147 -20t-136 -7t-123 -1.5h-3q-44 -181 14 -286t194 -105q97 0 185.5 58
t146.5 153l37 -27q-68 -109 -169.5 -171.5t-211.5 -62.5zM189 463q61 2 102.5 3.5t99.5 5t98 10t86.5 15.5t77 22.5t57 31.5t39.5 43t13 55q0 78 -53.5 115t-146.5 37q-121 0 -225 -94.5t-148 -243.5z" />
    <glyph glyph-name="edieresis" unicode="&#xeb;" horiz-adv-x="891" 
d="M387 1154q-29 0 -48.5 21t-19.5 47q0 28 20 48t48 20t48 -20t20 -48q0 -30 -20 -49t-48 -19zM727 1154q-30 0 -49.5 21t-19.5 47q0 28 20.5 48t48.5 20t48 -20t20 -48q0 -30 -20 -49t-48 -19zM374 -22q-162 0 -238.5 126t-31.5 319q43 187 173 307t288 120
q117 0 191.5 -55t74.5 -149q0 -54 -31 -95t-93 -65t-120 -38.5t-147 -20t-136 -7t-123 -1.5h-3q-44 -181 14 -286t194 -105q97 0 185.5 58t146.5 153l37 -27q-68 -109 -169.5 -171.5t-211.5 -62.5zM189 463q61 2 102.5 3.5t99.5 5t98 10t86.5 15.5t77 22.5t57 31.5t39.5 43
t13 55q0 78 -53.5 115t-146.5 37q-121 0 -225 -94.5t-148 -243.5z" />
    <glyph glyph-name="igrave" unicode="&#xec;" horiz-adv-x="488" 
d="M334 1030l-358 318v4h134l270 -322h-46zM117 0l166 716q17 74 -51 59l-116 -31l3 48l264 67l-176 -761q-6 -29 5.5 -39.5t42.5 -10.5h107l-10 -48h-235z" />
    <glyph glyph-name="iacute" unicode="&#xed;" horiz-adv-x="488" 
d="M334 1030h-46l270 322h134v-4zM117 0l166 716q17 74 -51 59l-116 -31l3 48l264 67l-176 -761q-6 -29 5.5 -39.5t42.5 -10.5h107l-10 -48h-235z" />
    <glyph glyph-name="icircumflex" unicode="&#xee;" horiz-adv-x="488" 
d="M57 1030l320 322h137l183 -322h-41l-219 276l-336 -276h-44zM117 0l166 716q17 74 -51 59l-116 -31l3 48l264 67l-176 -761q-6 -29 5.5 -39.5t42.5 -10.5h107l-10 -48h-235z" />
    <glyph glyph-name="idieresis" unicode="&#xef;" horiz-adv-x="488" 
d="M163 1154q-29 0 -48.5 21t-19.5 47q0 28 20 48t48 20t48 -20t20 -48q0 -30 -20 -49t-48 -19zM503 1154q-30 0 -49.5 21t-19.5 47q0 28 20.5 48t48.5 20t48 -20t20 -48q0 -30 -20 -49t-48 -19zM117 0l166 716q17 74 -51 59l-116 -31l3 48l264 67l-176 -761
q-6 -29 5.5 -39.5t42.5 -10.5h107l-10 -48h-235z" />
    <glyph glyph-name="eth" unicode="&#xf0;" horiz-adv-x="1042" 
d="M1136 1219l-191 -63q89 -197 3 -603q-59 -277 -201 -425.5t-344 -148.5q-174 0 -259 121.5t-43 318.5q43 205 173 314t316 109q130 0 202.5 -69.5t83.5 -201.5q25 119 37 207t8.5 189t-32.5 171l-364 -120l-6 45l350 115q-92 155 -343 145l5 49q287 0 393 -176l208 68z
M843 440q14 172 -47.5 263t-199.5 91q-167 0 -277.5 -103t-150.5 -291q-35 -169 28 -271t208 -102q303 0 439 413z" />
    <glyph glyph-name="ntilde" unicode="&#xf1;" horiz-adv-x="1071" 
d="M379 993l-41 7q25 113 82 176t133 63q27 0 49 -8t38 -24.5t25 -29t22 -34.5q18 -29 28 -42.5t32.5 -26.5t53.5 -13q60 0 105 50.5t64 141.5l41 -7q-24 -113 -81.5 -179.5t-136.5 -66.5q-31 0 -54 8t-41 27t-25.5 29.5t-23.5 36.5q-17 27 -27 40.5t-31 25.5t-49 12
q-59 0 -102 -50t-61 -136zM116 0l166 714q8 35 -4 50.5t-45 8.5l-116 -32l3 49l262 68l-70 -302q86 122 197 208t211 86q133 0 176.5 -77.5t5.5 -240.5l-98 -417q-15 -67 45 -67h107l-10 -48h-234l124 538q19 83 17.5 140.5t-38 87t-112.5 29.5q-75 0 -160.5 -59.5
t-150 -139.5t-107.5 -163l-101 -433h-68z" />
    <glyph glyph-name="ograve" unicode="&#xf2;" horiz-adv-x="961" 
d="M576 1030l-358 318v4h134l270 -322h-46zM383 -22q-26 0 -54 5t-63.5 18t-65 35t-57 55.5t-41 80t-16 109t17.5 142.5q20 89 61 163t90 122t106.5 81t111.5 47t104 14t97.5 -15t91.5 -47.5t71 -83.5t36 -123.5t-14 -167.5q-24 -105 -72 -186.5t-100.5 -127t-113.5 -74.5
t-106 -38t-84 -9zM386 27q35 0 76 10.5t91.5 39t94.5 71t83 113.5t60 160q43 185 -24.5 282.5t-191.5 97.5q-127 0 -244 -101.5t-161 -289.5q-15 -65 -15.5 -120t10 -93.5t30.5 -69t43.5 -49t51 -30.5t51 -16.5t45.5 -4.5z" />
    <glyph glyph-name="oacute" unicode="&#xf3;" horiz-adv-x="961" 
d="M576 1030h-46l270 322h134v-4zM383 -22q-26 0 -54 5t-63.5 18t-65 35t-57 55.5t-41 80t-16 109t17.5 142.5q20 89 61 163t90 122t106.5 81t111.5 47t104 14t97.5 -15t91.5 -47.5t71 -83.5t36 -123.5t-14 -167.5q-24 -105 -72 -186.5t-100.5 -127t-113.5 -74.5t-106 -38
t-84 -9zM386 27q35 0 76 10.5t91.5 39t94.5 71t83 113.5t60 160q43 185 -24.5 282.5t-191.5 97.5q-127 0 -244 -101.5t-161 -289.5q-15 -65 -15.5 -120t10 -93.5t30.5 -69t43.5 -49t51 -30.5t51 -16.5t45.5 -4.5z" />
    <glyph glyph-name="ocircumflex" unicode="&#xf4;" horiz-adv-x="961" 
d="M299 1030l320 322h137l183 -322h-41l-219 276l-336 -276h-44zM383 -22q-26 0 -54 5t-63.5 18t-65 35t-57 55.5t-41 80t-16 109t17.5 142.5q20 89 61 163t90 122t106.5 81t111.5 47t104 14t97.5 -15t91.5 -47.5t71 -83.5t36 -123.5t-14 -167.5q-24 -105 -72 -186.5
t-100.5 -127t-113.5 -74.5t-106 -38t-84 -9zM386 27q35 0 76 10.5t91.5 39t94.5 71t83 113.5t60 160q43 185 -24.5 282.5t-191.5 97.5q-127 0 -244 -101.5t-161 -289.5q-15 -65 -15.5 -120t10 -93.5t30.5 -69t43.5 -49t51 -30.5t51 -16.5t45.5 -4.5z" />
    <glyph glyph-name="otilde" unicode="&#xf5;" horiz-adv-x="961" 
d="M342 993l-41 7q25 113 82 176t133 63q27 0 49 -8t38 -24.5t25 -29t22 -34.5q18 -29 28 -42.5t32.5 -26.5t53.5 -13q60 0 105 50.5t64 141.5l41 -7q-24 -113 -81.5 -179.5t-136.5 -66.5q-31 0 -54 8t-41 27t-25.5 29.5t-23.5 36.5q-17 27 -27 40.5t-31 25.5t-49 12
q-59 0 -102 -50t-61 -136zM383 -22q-26 0 -54 5t-63.5 18t-65 35t-57 55.5t-41 80t-16 109t17.5 142.5q20 89 61 163t90 122t106.5 81t111.5 47t104 14t97.5 -15t91.5 -47.5t71 -83.5t36 -123.5t-14 -167.5q-24 -105 -72 -186.5t-100.5 -127t-113.5 -74.5t-106 -38t-84 -9z
M386 27q35 0 76 10.5t91.5 39t94.5 71t83 113.5t60 160q43 185 -24.5 282.5t-191.5 97.5q-127 0 -244 -101.5t-161 -289.5q-15 -65 -15.5 -120t10 -93.5t30.5 -69t43.5 -49t51 -30.5t51 -16.5t45.5 -4.5z" />
    <glyph glyph-name="odieresis" unicode="&#xf6;" horiz-adv-x="961" 
d="M405 1154q-29 0 -48.5 21t-19.5 47q0 28 20 48t48 20t48 -20t20 -48q0 -30 -20 -49t-48 -19zM745 1154q-30 0 -49.5 21t-19.5 47q0 28 20.5 48t48.5 20t48 -20t20 -48q0 -30 -20 -49t-48 -19zM383 -22q-26 0 -54 5t-63.5 18t-65 35t-57 55.5t-41 80t-16 109t17.5 142.5
q20 89 61 163t90 122t106.5 81t111.5 47t104 14t97.5 -15t91.5 -47.5t71 -83.5t36 -123.5t-14 -167.5q-24 -105 -72 -186.5t-100.5 -127t-113.5 -74.5t-106 -38t-84 -9zM386 27q35 0 76 10.5t91.5 39t94.5 71t83 113.5t60 160q43 185 -24.5 282.5t-191.5 97.5
q-127 0 -244 -101.5t-161 -289.5q-15 -65 -15.5 -120t10 -93.5t30.5 -69t43.5 -49t51 -30.5t51 -16.5t45.5 -4.5z" />
    <glyph glyph-name="divide" unicode="&#xf7;" horiz-adv-x="1340" 
d="M718 1011q-36 0 -60.5 24.5t-24.5 60.5q0 34 24.5 59t60.5 25q34 0 59.5 -25t25.5 -59q0 -36 -25 -60.5t-60 -24.5zM163 646v59h1110v-59h-1110zM718 171q-36 0 -60.5 24.5t-24.5 60.5q0 35 24.5 60t60.5 25q34 0 59.5 -25.5t25.5 -59.5q0 -36 -25 -60.5t-60 -24.5z" />
    <glyph glyph-name="oslash" unicode="&#xf8;" horiz-adv-x="961" 
d="M897 853l-91 -104q102 -120 53 -336q-24 -105 -72 -186.5t-100.5 -127t-113.5 -74.5t-106 -38t-84 -9q-109 0 -193 66l-90 -104l-38 34l92 105q-103 119 -50 344q20 89 61 163t90 122t106.5 81t111.5 47t104 14q113 0 193 -66l90 103zM170 410q-42 -181 25 -283l539 616
q-62 58 -159 58q-127 0 -244 -101.5t-161 -289.5zM791 421q42 180 -24 283l-538 -617q64 -60 157 -60q35 0 76 10.5t91.5 39t94.5 71t83 113.5t60 160z" />
    <glyph glyph-name="ugrave" unicode="&#xf9;" horiz-adv-x="1071" 
d="M629 1030l-358 318v4h134l270 -322h-46zM349 -22q-138 0 -177 80t-3 238l96 417q13 67 -43 67h-109l10 48h235l-124 -538q-34 -129 -5.5 -193t137.5 -64q75 0 160.5 59.5t150 139t107.5 163.5l76 318q17 67 -41 67h-124l10 48h248l-165 -711q-8 -36 4 -51t47 -8l116 31
l-3 -48l-263 -62l68 293q-85 -122 -195.5 -208t-212.5 -86z" />
    <glyph glyph-name="uacute" unicode="&#xfa;" horiz-adv-x="1071" 
d="M629 1030h-46l270 322h134v-4zM349 -22q-138 0 -177 80t-3 238l96 417q13 67 -43 67h-109l10 48h235l-124 -538q-34 -129 -5.5 -193t137.5 -64q75 0 160.5 59.5t150 139t107.5 163.5l76 318q17 67 -41 67h-124l10 48h248l-165 -711q-8 -36 4 -51t47 -8l116 31l-3 -48
l-263 -62l68 293q-85 -122 -195.5 -208t-212.5 -86z" />
    <glyph glyph-name="ucircumflex" unicode="&#xfb;" horiz-adv-x="1071" 
d="M352 1030l320 322h137l183 -322h-41l-219 276l-336 -276h-44zM349 -22q-138 0 -177 80t-3 238l96 417q13 67 -43 67h-109l10 48h235l-124 -538q-34 -129 -5.5 -193t137.5 -64q75 0 160.5 59.5t150 139t107.5 163.5l76 318q17 67 -41 67h-124l10 48h248l-165 -711
q-8 -36 4 -51t47 -8l116 31l-3 -48l-263 -62l68 293q-85 -122 -195.5 -208t-212.5 -86z" />
    <glyph glyph-name="udieresis" unicode="&#xfc;" horiz-adv-x="1071" 
d="M458 1154q-29 0 -48.5 21t-19.5 47q0 28 20 48t48 20t48 -20t20 -48q0 -30 -20 -49t-48 -19zM798 1154q-30 0 -49.5 21t-19.5 47q0 28 20.5 48t48.5 20t48 -20t20 -48q0 -30 -20 -49t-48 -19zM349 -22q-138 0 -177 80t-3 238l96 417q13 67 -43 67h-109l10 48h235
l-124 -538q-34 -129 -5.5 -193t137.5 -64q75 0 160.5 59.5t150 139t107.5 163.5l76 318q17 67 -41 67h-124l10 48h248l-165 -711q-8 -36 4 -51t47 -8l116 31l-3 -48l-263 -62l68 293q-85 -122 -195.5 -208t-212.5 -86z" />
    <glyph glyph-name="yacute" unicode="&#xfd;" horiz-adv-x="914" 
d="M544 1030h-46l270 322h134v-4zM-46 -441q-37 -6 -37 30q0 24 39 34q95 20 180 86.5t182 206.5l108 163l-188 651q-15 50 -60 50h-95l11 48h186l197 -675l359 546q52 81 -17 81h-161l10 48h308l-624 -942q-101 -152 -192.5 -227t-205.5 -100z" />
    <glyph glyph-name="thorn" unicode="&#xfe;" horiz-adv-x="1054" 
d="M-206 -489l10 49h122q33 0 55 19.5t29 53.5l342 1607q7 36 -8 51.5t-53 7.5l-123 -32l-1 48l284 67l-140 -656q150 124 325 124q114 0 198.5 -58t120.5 -160.5t10 -223.5q-38 -180 -186.5 -305t-320.5 -125q-86 0 -158 34.5t-117 93.5l-104 -480q-14 -66 52 -66h140
l-10 -49h-467zM448 31q153 0 283 116.5t164 272.5q33 155 -46 266t-227 111q-86 0 -171.5 -39.5t-153.5 -107.5l-103 -482q37 -66 104.5 -101.5t149.5 -35.5z" />
    <glyph glyph-name="ydieresis" unicode="&#xff;" horiz-adv-x="914" 
d="M373 1154q-29 0 -48.5 21t-19.5 47q0 28 20 48t48 20t48 -20t20 -48q0 -30 -20 -49t-48 -19zM713 1154q-30 0 -49.5 21t-19.5 47q0 28 20.5 48t48.5 20t48 -20t20 -48q0 -30 -20 -49t-48 -19zM-46 -441q-37 -6 -37 30q0 24 39 34q95 20 180 86.5t182 206.5l108 163
l-188 651q-15 50 -60 50h-95l11 48h186l197 -675l359 546q52 81 -17 81h-161l10 48h308l-624 -942q-101 -152 -192.5 -227t-205.5 -100z" />
    <glyph glyph-name="dotlessi" unicode="&#x131;" horiz-adv-x="488" 
d="M117 0l166 716q17 74 -51 59l-116 -31l3 48l264 67l-176 -761q-6 -29 5.5 -39.5t42.5 -10.5h107l-10 -48h-235z" />
    <glyph glyph-name="Lslash" unicode="&#x141;" horiz-adv-x="1226" 
d="M1106 449l44 -4l-139 -445h-1038l10 48h174q33 0 56 20t30 56l92 400l-260 -188l13 65l263 190l148 643q8 36 -2.5 52.5t-44.5 16.5h-177l10 49h553l-10 -49h-174q-32 0 -55 -19.5t-30 -56.5l-133 -575l499 362l-13 -65l-502 -363l-108 -465q-8 -36 1 -54t46 -18h531
q33 0 64 20t49 64z" />
    <glyph glyph-name="lslash" unicode="&#x142;" horiz-adv-x="452" 
d="M307 693l-134 -578q-16 -67 39 -67h127l-12 -48h-248l147 635l-298 -215l13 63l300 216l125 542q9 36 -3.5 51.5t-47.5 7.5l-114 -32l1 48l264 67l-145 -625l303 218l-12 -63z" />
    <glyph glyph-name="OE" unicode="&#x152;" horiz-adv-x="2156" 
d="M697 0q-295 0 -439.5 186t-85.5 498q59 304 273 485t508 182l1179 1l-47 -349l-44 -3l29 238q2 36 -12.5 50t-48.5 14l-597 -1q-27 -1 -45.5 -21t-25.5 -52l-95 -493h439q30 0 51 18t28 50l26 131h44l-89 -461h-44l29 149q10 63 -51 63h-441l-111 -564q-14 -72 50 -72
h619q71 0 98 72l96 327l45 -4l-123 -444h-1215zM692 49h291q29 0 49 21t27 56l214 1108q15 69 -43 69h-287q-166 0 -310.5 -75.5t-246.5 -220t-139 -336.5q-54 -278 66.5 -450t378.5 -172z" />
    <glyph glyph-name="oe" unicode="&#x153;" horiz-adv-x="1619" 
d="M1531 427h-661q-35 -176 26.5 -287.5t200.5 -111.5q96 0 182.5 57t142.5 154l36 -27q-64 -109 -163 -171.5t-209 -62.5q-116 0 -192.5 68t-97.5 184q-38 -72 -93 -125t-112 -78.5t-104 -37t-87 -11.5q-23 0 -47.5 4t-55.5 13.5t-58 25t-55 40t-47 58t-32.5 78t-13 100.5
t12.5 126q21 111 73 196.5t118 134t134 72.5t132 24q66 0 126.5 -24t110.5 -82.5t65 -142.5q63 114 165 181.5t216 67.5q153 0 236 -117.5t51 -305.5zM401 27q36 0 76.5 10.5t90 39t92 71t78.5 114t53 160.5q17 99 6 170.5t-47 118t-84.5 68.5t-105.5 22q-59 0 -118.5 -24
t-114 -70.5t-97 -123t-60.5 -173.5q-13 -76 -11 -134.5t21.5 -101t44 -71t57.5 -45.5t62 -24t57 -7zM1244 801q-122 0 -222.5 -93t-141.5 -234l598 7q11 142 -51.5 231t-182.5 89z" />
    <glyph glyph-name="Scaron" unicode="&#x160;" horiz-adv-x="1109" 
d="M727 1456l-183 322h41l217 -276l338 276h42l-319 -322h-136zM518 -21q-147 0 -240 71t-114 200l-57 -229h-46l107 465l46 -4q-46 -209 34 -331t270 -122q48 0 102 18t110 54t101.5 102t65.5 151q9 38 10 70.5t-8.5 59t-20.5 47.5t-34.5 40t-42.5 32.5t-52.5 28
t-56.5 23.5t-62 23q-40 15 -61 23.5t-57 24t-55 27.5t-46.5 31.5t-41 38t-28.5 44.5t-19.5 54t-3.5 63.5t10 75.5q31 136 146.5 225.5t257.5 89.5q108 0 186 -63t102 -165l54 205h45l-91 -396l-44 4q32 155 -43.5 260t-210.5 105q-124 0 -219 -75t-122 -189q-7 -29 -9 -55
t3.5 -48t10.5 -39.5t21 -35t26.5 -29t35.5 -26t39 -22t46 -20.5t47 -19t51 -19t59.5 -22t56.5 -23.5t54.5 -28t47 -32.5t41 -39t30 -47t19 -56.5t3.5 -67t-11 -79.5q-18 -80 -57.5 -145.5t-87 -107t-103 -69.5t-104 -40t-90.5 -12z" />
    <glyph glyph-name="scaron" unicode="&#x161;" horiz-adv-x="945" 
d="M681 1030h-136l-183 322h39l219 -276l338 276h41zM801 718l42 132h35l-57 -249l-39 2q2 96 -63.5 148t-193.5 52q-113 0 -190.5 -42.5t-95.5 -120.5q-8 -37 2.5 -63.5t27.5 -41.5t58.5 -26t71.5 -15t90 -11q76 -9 126.5 -21t102 -37.5t70.5 -73.5t5 -117
q-26 -123 -129.5 -189.5t-254.5 -66.5q-114 0 -190.5 38.5t-104.5 102.5l-47 -141h-35l59 253l43 -2q0 -92 76.5 -148t206.5 -56q123 0 211 52.5t108 148.5q10 44 -2 76t-33.5 50.5t-66 31.5t-76.5 18t-90 12q-61 7 -97.5 12.5t-82.5 20.5t-68.5 36t-35 58t-2.5 87
q22 107 116 164.5t235 57.5q213 0 268 -132z" />
    <glyph glyph-name="Wcircumflex" unicode="&#x174;" horiz-adv-x="1883" 
d="M845 1470l316 322h140l181 -322h-39l-219 276l-338 -276h-41zM408 -21l-47 1261q-2 35 -15 49t-43 14h-79l10 49h499l-16 -49h-221q-26 0 -47 -25t-19 -60l46 -1164h30l617 1316h93l25 -1316h30l553 1159q41 90 -28 90h-157l10 49h398l-12 -49h-62q-53 0 -95 -82
l-596 -1242h-107l-26 1319l-13 1l-619 -1320h-109z" />
    <glyph glyph-name="wcircumflex" unicode="&#x175;" horiz-adv-x="1428" 
d="M939 1306l-336 -276h-44l320 322h137l183 -322h-41zM1199 828h278l-492 -848h-83l-101 798l-401 -798h-86l-72 744q-4 32 -16.5 44t-39.5 12h-99l9 48h201l77 -781l2 -7l408 806h78l103 -807h5l382 661q45 80 -24 80h-141z" />
    <glyph glyph-name="Ycircumflex" unicode="&#x176;" horiz-adv-x="1325" 
d="M572 1470l316 322h140l181 -322h-39l-219 276l-338 -276h-41zM279 0l10 48h198q33 0 55.5 20.5t30.5 55.5l76 327l-260 800q-10 27 -24 39.5t-41 12.5h-100l10 49h452l-10 -49h-141q-36 0 -53.5 -26t-6.5 -60l236 -709l561 710q20 25 25.5 44t-5 30t-37.5 11h-119l11 49
h345l-12 -49h-34q-47 0 -94 -59l-632 -791l-79 -335q-8 -37 3.5 -53.5t44.5 -16.5h202l-10 -48h-602z" />
    <glyph glyph-name="ycircumflex" unicode="&#x177;" horiz-adv-x="914" 
d="M267 1030l320 322h137l183 -322h-41l-219 276l-336 -276h-44zM-46 -441q-37 -6 -37 30q0 24 39 34q95 20 180 86.5t182 206.5l108 163l-188 651q-15 50 -60 50h-95l11 48h186l197 -675l359 546q52 81 -17 81h-161l10 48h308l-624 -942q-101 -152 -192.5 -227t-205.5 -100
z" />
    <glyph glyph-name="Ydieresis" unicode="&#x178;" horiz-adv-x="1325" 
d="M694 1538q-29 0 -48.5 21t-19.5 47q0 28 20 48t48 20t48 -20t20 -48q0 -30 -20 -49t-48 -19zM1034 1538q-29 0 -48.5 21t-19.5 47q0 28 20 48t48 20t48 -20t20 -48q0 -30 -20 -49t-48 -19zM279 0l10 48h198q33 0 55.5 20.5t30.5 55.5l76 327l-260 800q-10 27 -24 39.5
t-41 12.5h-100l10 49h452l-10 -49h-141q-36 0 -53.5 -26t-6.5 -60l236 -709l561 710q20 25 25.5 44t-5 30t-37.5 11h-119l11 49h345l-12 -49h-34q-47 0 -94 -59l-632 -791l-79 -335q-8 -37 3.5 -53.5t44.5 -16.5h202l-10 -48h-602z" />
    <glyph glyph-name="Zcaron" unicode="&#x17d;" horiz-adv-x="1309" 
d="M811 1456l-183 322h41l217 -276l338 276h42l-319 -322h-136zM11 0l22 95l1248 1207l12 17h-805q-81 0 -110 -74l-85 -239l-43 4l120 358h999l-20 -90l-1249 -1207l-13 -22h858q72 0 108 77l106 318l44 -4l-139 -440h-1053z" />
    <glyph glyph-name="zcaron" unicode="&#x17e;" horiz-adv-x="895" 
d="M521 1030l-183 322h39l219 -276l338 276h41l-318 -322h-136zM-4 0l18 79l780 690l6 11h-470q-51 0 -81 -67l-54 -145l-43 4l89 256h641l-17 -77l-781 -690l-7 -13h498q55 0 83 68l54 151l45 -4l-87 -263h-674z" />
    <glyph glyph-name="florin" unicode="&#x192;" horiz-adv-x="1130" 
d="M51 -453q-62 0 -90 32t-23 88q3 32 15.5 47t23.5 13q23 -1 16 -69q-1 -39 14.5 -53.5t52.5 -14.5q54 0 93.5 45t94.5 163q124 269 216 496l203 498h-213l15 50h98q81 0 115 29t64 108q19 46 30.5 73.5t33.5 74t40.5 75.5t46 64.5t54 56t61 34.5t71.5 14q50 0 82 -25.5
t37 -70.5q4 -27 -6 -45.5t-23 -18.5q-5 0 -8.5 2t-6 6.5t-4 8t-3 11t-2 11.5t-1.5 13t-1 11q-7 28 -20.5 41.5t-44.5 13.5q-88 0 -159 -106q-58 -80 -127 -276q-16 -44 -41 -109l271 4l-14 -50h-276l-207 -510q-146 -349 -238 -532q-56 -109 -111.5 -156t-128.5 -47z" />
    <glyph glyph-name="oslashacute" unicode="&#x1ff;" horiz-adv-x="961" 
d="M800 1352h134v-4l-358 -318h-46zM860 887l37 -34l-91 -104q102 -120 53 -336q-24 -105 -72 -186.5t-100.5 -127t-113.5 -74.5t-106 -38t-84 -9q-109 0 -193 66l-90 -104l-38 34l92 105q-103 119 -50 344q20 89 61 163t90 122t106.5 81t111.5 47t104 14q113 0 193 -66z
M170 410q-42 -181 25 -283l539 616q-62 58 -159 58q-127 0 -244 -101.5t-161 -289.5zM791 421q42 180 -24 283l-538 -617q64 -60 157 -60q35 0 76 10.5t91.5 39t94.5 71t83 113.5t60 160z" />
    <glyph glyph-name="uni0237" unicode="&#x237;" horiz-adv-x="464" 
d="M-202 -498q-112 0 -172 59.5t-56 168.5q1 32 31 36q14 2 22 -10t7 -33q0 -172 177 -172q110 0 184 71.5t102 199.5l189 894q8 36 -7 52t-53 7l-127 -32l1 49l288 67l-219 -1027q-34 -161 -127 -245.5t-240 -84.5z" />
    <glyph glyph-name="circumflex" unicode="&#x2c6;" horiz-adv-x="750" 
d="M185 1030l320 322h137l183 -322h-41l-219 276l-336 -276h-44z" />
    <glyph glyph-name="caron" unicode="&#x2c7;" horiz-adv-x="752" 
d="M440 1030l-183 322h39l219 -276l338 276h41l-318 -322h-136z" />
    <glyph glyph-name="breve" unicode="&#x2d8;" horiz-adv-x="786" 
d="M552 1017q-112 0 -187.5 56.5t-104.5 155.5h48q58 -157 245 -157q177 0 237 157h45q-6 -22 -14.5 -43.5t-30 -54t-50.5 -56t-78.5 -41t-109.5 -17.5z" />
    <glyph glyph-name="dotaccent" unicode="&#x2d9;" horiz-adv-x="598" 
d="M553 1146q-29 0 -48.5 21t-19.5 47q0 28 20 48t48 20t48 -20t20 -48q0 -30 -20 -49t-48 -19z" />
    <glyph glyph-name="ring" unicode="&#x2da;" horiz-adv-x="634" 
d="M480 981q-82 0 -139.5 57.5t-57.5 139.5q0 81 57.5 137.5t139.5 56.5q81 0 138.5 -56.5t57.5 -137.5q0 -82 -57.5 -139.5t-138.5 -57.5zM480 1059q49 0 83.5 35t34.5 84t-34.5 83.5t-83.5 34.5t-83 -34.5t-34 -83.5q0 -50 34 -84.5t83 -34.5z" />
    <glyph glyph-name="ogonek" unicode="&#x2db;" horiz-adv-x="618" 
d="M231 -360q-108 0 -177 71t-69 162q0 86 68 151l25 -24q-47 -43 -47 -108q0 -79 61.5 -143t148.5 -64q80 0 152 56l24 -32q-83 -69 -186 -69z" />
    <glyph glyph-name="tilde" unicode="&#x2dc;" horiz-adv-x="885" 
d="M296 993l-41 7q25 113 82 176t133 63q27 0 49 -8t38 -24.5t25 -29t22 -34.5q18 -29 28 -42.5t32.5 -26.5t53.5 -13q60 0 105 50.5t64 141.5l41 -7q-24 -113 -81.5 -179.5t-136.5 -66.5q-31 0 -54 8t-41 27t-25.5 29.5t-23.5 36.5q-17 27 -27 40.5t-31 25.5t-49 12
q-59 0 -102 -50t-61 -136z" />
    <glyph glyph-name="hungarumlaut" unicode="&#x2dd;" horiz-adv-x="946" 
d="M338 1030l270 322h134v-4l-358 -318h-46zM690 1030l270 322h135v-4l-359 -318h-46z" />
    <glyph glyph-name="gravecomb" unicode="&#x300;" 
d="M42 1030l-358 318v4h134l270 -322h-46z" />
    <glyph glyph-name="acutecomb" unicode="&#x301;" 
d="M-588 1030h-46l270 322h134v-4z" />
    <glyph glyph-name="uni0302" unicode="&#x302;" 
d="M-565 1030l320 322h137l183 -322h-41l-219 276l-336 -276h-44z" />
    <glyph glyph-name="tildecomb" unicode="&#x303;" 
d="M-589 993l-41 7q25 113 82 176t133 63q27 0 49 -8t38 -24.5t25 -29t22 -34.5q18 -29 28 -42.5t32.5 -26.5t53.5 -13q60 0 105 50.5t64 141.5l41 -7q-24 -113 -81.5 -179.5t-136.5 -66.5q-31 0 -54 8t-41 27t-25.5 29.5t-23.5 36.5q-17 27 -27 40.5t-31 25.5t-49 12
q-59 0 -102 -50t-61 -136z" />
    <glyph glyph-name="uni0304" unicode="&#x304;" 
d="M-663 1140l12 61h654l-13 -61h-653z" />
    <glyph glyph-name="uni0306" unicode="&#x306;" 
d="M-234 1017q-112 0 -187.5 56.5t-104.5 155.5h48q58 -157 245 -157q177 0 237 157h45q-6 -22 -14.5 -43.5t-30 -54t-50.5 -56t-78.5 -41t-109.5 -17.5z" />
    <glyph glyph-name="uni0307" unicode="&#x307;" 
d="M-45 1146q-29 0 -48.5 21t-19.5 47q0 28 20 48t48 20t48 -20t20 -48q0 -30 -20 -49t-48 -19z" />
    <glyph glyph-name="uni0308" unicode="&#x308;" 
d="M-382 1154q-29 0 -48.5 21t-19.5 47q0 28 20 48t48 20t48 -20t20 -48q0 -30 -20 -49t-48 -19zM-42 1154q-30 0 -49.5 21t-19.5 47q0 28 20.5 48t48.5 20t48 -20t20 -48q0 -30 -20 -49t-48 -19z" />
    <glyph glyph-name="uni030A" unicode="&#x30a;" 
d="M-151 961q-74 0 -126 52t-52 128t52 128t126 52q75 0 128 -53t53 -127t-53 -127t-128 -53zM-151 1006q58 0 97 38.5t39 96.5t-39 96.5t-97 38.5q-56 0 -94.5 -39t-38.5 -96t38.5 -96t94.5 -39z" />
    <glyph glyph-name="uni030B" unicode="&#x30b;" 
d="M-607 1030l270 322h134v-4l-358 -318h-46zM-255 1030l270 322h135v-4l-359 -318h-46z" />
    <glyph glyph-name="uni030C" unicode="&#x30c;" 
d="M-312 1030l-183 322h39l219 -276l338 276h41l-318 -322h-136z" />
    <glyph glyph-name="uni0327" unicode="&#x327;" 
d="M-537 -491q-93 0 -196 27l13 48q88 -25 178 -25q114 0 184.5 41.5t70.5 103.5q0 16 -5 28.5t-13.5 21t-21 15t-28 10t-33.5 6t-38 3t-41 1t-43.5 0.5h-44.5l46 230l50 -8l-36 -171q39 0 65.5 -1t60 -5t55.5 -13.5t42 -23.5t30 -37t10 -54q0 -84 -85.5 -140.5
t-219.5 -56.5z" />
    <glyph glyph-name="uni0328" unicode="&#x328;" 
d="M-387 -360q-108 0 -177 71t-69 162q0 86 68 151l25 -24q-47 -43 -47 -108q0 -79 61.5 -143t148.5 -64q80 0 152 56l24 -32q-83 -69 -186 -69z" />
    <glyph glyph-name="uni0337" unicode="&#x337;" 
d="M-598 467l13 63l683 493l-12 -63z" />
    <glyph glyph-name="uni0338" unicode="&#x338;" 
d="M-705 -27l-38 34l798 913l37 -34z" />
    <glyph glyph-name="uni0394" unicode="&#x394;" horiz-adv-x="874" 
d="M2 0l580 1418h137l-25 -1418h-692zM67 48h566l23 1305h-54z" />
    <glyph glyph-name="uni03A9" unicode="&#x3a9;" horiz-adv-x="1290" 
d="M43 0l53 253h40l-27 -128q-14 -67 47 -67h309l46 211q-311 188 -224 593q57 262 205 407.5t363 145.5q217 0 305.5 -151t31.5 -415q-83 -398 -468 -580l-46 -211h304q31 0 52 20.5t28 53.5l27 121h40l-55 -253h-452l61 301q363 173 444 561q53 248 -18 377.5t-256 129.5
q-189 0 -319 -135.5t-182 -384.5q-82 -385 206 -551l-62 -298h-453z" />
    <glyph glyph-name="Wgrave" unicode="&#x1e80;" horiz-adv-x="1883" 
d="M1115 1438l-358 317v4h134l270 -321h-46zM408 -21l-47 1261q-2 35 -15 49t-43 14h-79l10 49h499l-16 -49h-221q-26 0 -47 -25t-19 -60l46 -1164h30l617 1316h93l25 -1316h30l553 1159q41 90 -28 90h-157l10 49h398l-12 -49h-62q-53 0 -95 -82l-596 -1242h-107l-26 1319
l-13 1l-619 -1320h-109z" />
    <glyph glyph-name="wgrave" unicode="&#x1e81;" horiz-adv-x="1428" 
d="M882 1030h-46l-358 318v4h134zM1199 828h278l-492 -848h-83l-101 798l-401 -798h-86l-72 744q-4 32 -16.5 44t-39.5 12h-99l9 48h201l77 -781l2 -7l408 806h78l103 -807h5l382 661q45 80 -24 80h-141z" />
    <glyph glyph-name="Wacute" unicode="&#x1e82;" horiz-adv-x="1883" 
d="M1115 1438l270 321h134v-4l-358 -317h-46zM408 -21l-47 1261q-2 35 -15 49t-43 14h-79l10 49h499l-16 -49h-221q-26 0 -47 -25t-19 -60l46 -1164h30l617 1316h93l25 -1316h30l553 1159q41 90 -28 90h-157l10 49h398l-12 -49h-62q-53 0 -95 -82l-596 -1242h-107l-26 1319
l-13 1l-619 -1320h-109z" />
    <glyph glyph-name="wacute" unicode="&#x1e83;" horiz-adv-x="1428" 
d="M1194 1348l-358 -318h-46l270 322h134v-4zM1199 828h278l-492 -848h-83l-101 798l-401 -798h-86l-72 744q-4 32 -16.5 44t-39.5 12h-99l9 48h201l77 -781l2 -7l408 806h78l103 -807h5l382 661q45 80 -24 80h-141z" />
    <glyph glyph-name="Wdieresis" unicode="&#x1e84;" horiz-adv-x="1883" 
d="M967 1538q-29 0 -48.5 21t-19.5 47q0 28 20 48t48 20t48 -20t20 -48q0 -30 -20 -49t-48 -19zM1307 1538q-29 0 -48.5 21t-19.5 47q0 28 20 48t48 20t48 -20t20 -48q0 -30 -20 -49t-48 -19zM408 -21l-47 1261q-2 35 -15 49t-43 14h-79l10 49h499l-16 -49h-221
q-26 0 -47 -25t-19 -60l46 -1164h30l617 1316h93l25 -1316h30l553 1159q41 90 -28 90h-157l10 49h398l-12 -49h-62q-53 0 -95 -82l-596 -1242h-107l-26 1319l-13 1l-619 -1320h-109z" />
    <glyph glyph-name="wdieresis" unicode="&#x1e85;" horiz-adv-x="1428" 
d="M665 1154q-29 0 -48.5 21t-19.5 47q0 28 20 48t48 20t48 -20t20 -48q0 -30 -20 -49t-48 -19zM1005 1154q-30 0 -49.5 21t-19.5 47q0 28 20.5 48t48.5 20t48 -20t20 -48q0 -30 -20 -49t-48 -19zM1199 828h278l-492 -848h-83l-101 798l-401 -798h-86l-72 744
q-4 32 -16.5 44t-39.5 12h-99l9 48h201l77 -781l2 -7l408 806h78l103 -807h5l382 661q45 80 -24 80h-141z" />
    <glyph glyph-name="Ygrave" unicode="&#x1ef2;" horiz-adv-x="1325" 
d="M842 1438l-358 317v4h134l270 -321h-46zM279 0l10 48h198q33 0 55.5 20.5t30.5 55.5l76 327l-260 800q-10 27 -24 39.5t-41 12.5h-100l10 49h452l-10 -49h-141q-36 0 -53.5 -26t-6.5 -60l236 -709l561 710q20 25 25.5 44t-5 30t-37.5 11h-119l11 49h345l-12 -49h-34
q-47 0 -94 -59l-632 -791l-79 -335q-8 -37 3.5 -53.5t44.5 -16.5h202l-10 -48h-602z" />
    <glyph glyph-name="ygrave" unicode="&#x1ef3;" horiz-adv-x="914" 
d="M544 1030l-358 318v4h134l270 -322h-46zM-46 -441q-37 -6 -37 30q0 24 39 34q95 20 180 86.5t182 206.5l108 163l-188 651q-15 50 -60 50h-95l11 48h186l197 -675l359 546q52 81 -17 81h-161l10 48h308l-624 -942q-101 -152 -192.5 -227t-205.5 -100z" />
    <glyph glyph-name="endash" unicode="&#x2013;" horiz-adv-x="1379" 
d="M157 378l12 56h1048l-11 -56h-1049z" />
    <glyph glyph-name="emdash" unicode="&#x2014;" horiz-adv-x="2378" 
d="M157 378l12 56h2048l-12 -56h-2048z" />
    <glyph glyph-name="quoteleft" unicode="&#x2018;" horiz-adv-x="535" 
d="M373 898q-58 0 -80 43.5t-7 112.5q22 103 107.5 197.5t195.5 128.5l9 -45q-97 -31 -163 -104t-78 -130q-3 -16 1 -22t16 0q21 3 33 3q38 0 60 -28.5t13 -69.5q-7 -35 -38 -60.5t-69 -25.5z" />
    <glyph glyph-name="quoteright" unicode="&#x2019;" horiz-adv-x="533" 
d="M253 898l-9 46q67 21 122.5 66.5t83.5 88.5t36 78q3 16 -1.5 22t-16.5 1q-28 -4 -33 -4q-38 0 -60 28.5t-13 69.5q9 36 39.5 61t69.5 25q56 0 78.5 -43.5t7.5 -111.5q-22 -104 -108 -198.5t-196 -128.5z" />
    <glyph glyph-name="quotesinglbase" unicode="&#x201a;" horiz-adv-x="537" 
d="M-7 -331l-9 45q99 31 164.5 103.5t77.5 130.5q5 15 0 21t-18 1q-21 -3 -32 -3q-38 0 -59.5 28t-14.5 70q9 35 40 60.5t69 25.5q57 0 79 -43t9 -113q-22 -103 -108.5 -197.5t-197.5 -128.5z" />
    <glyph glyph-name="quotedblleft" unicode="&#x201c;" horiz-adv-x="901" 
d="M373 898q-58 0 -80 43.5t-7 112.5q22 103 107 197.5t195 128.5l9 -45q-97 -31 -162.5 -103.5t-78.5 -130.5q-3 -15 1.5 -21.5t16.5 -0.5q21 3 32 3q38 0 60 -28.5t13 -69.5q-7 -35 -37.5 -60.5t-68.5 -25.5zM739 898q-57 0 -79.5 43.5t-7.5 112.5q23 103 108 197.5
t195 128.5l9 -45q-97 -31 -163 -104t-78 -130q-3 -16 1 -22t16 0q22 3 33 3q38 0 60 -28.5t13 -69.5q-7 -35 -38 -60.5t-69 -25.5z" />
    <glyph glyph-name="quotedblright" unicode="&#x201d;" horiz-adv-x="899" 
d="M254 898l-10 46q97 31 163 103.5t78 129.5q3 15 -1 21.5t-16 1.5q-28 -4 -33 -4q-38 0 -60 28.5t-13 69.5q9 36 39 61t69 25q57 0 79 -43.5t7 -111.5q-22 -104 -107.5 -198.5t-194.5 -128.5zM620 898l-9 46q97 31 163 103.5t78 129.5q3 16 -1.5 22t-16.5 1q-28 -4 -32 -4
q-38 0 -60 28.5t-13 69.5q9 36 39 61t69 25q56 0 78.5 -43.5t7.5 -111.5q-22 -104 -107.5 -198.5t-195.5 -128.5z" />
    <glyph glyph-name="quotedblbase" unicode="&#x201e;" horiz-adv-x="905" 
d="M-7 -331l-9 45q99 31 164.5 103.5t77.5 130.5q5 15 0 21t-18 1q-21 -3 -32 -3q-38 0 -59.5 28t-14.5 70q9 35 40 60.5t69 25.5q57 0 79 -43t9 -113q-22 -103 -108.5 -197.5t-197.5 -128.5zM362 -331l-10 45q99 31 164.5 103.5t77.5 130.5q5 15 0 21t-18 1q-21 -3 -32 -3
q-38 0 -59.5 28t-14.5 70q9 35 40 60.5t69 25.5q58 0 79.5 -43t8.5 -113q-22 -103 -108.5 -197.5t-196.5 -128.5z" />
    <glyph glyph-name="dagger" unicode="&#x2020;" horiz-adv-x="869" 
d="M303 -91l25 117q29 142 63.5 343.5t39.5 244.5q5 74 18.5 117t41.5 71q-18 -3 -103.5 -24.5t-124.5 -21.5q-12 0 -25 2.5t-30 9.5t-25.5 25t-2.5 43q12 68 99 68q41 0 115 -21.5t107 -23.5q0 12 -1.5 67t1 99.5t11.5 86.5q10 48 30 76t34 33.5t28 5.5q29 0 45 -29.5
t4 -89.5q-4 -18 -11 -40.5t-12.5 -39.5t-18 -47t-17.5 -41.5t-21 -46.5t-18 -40q34 7 82.5 21t82 21t66.5 7q47 0 67 -23.5t14 -55.5q-6 -28 -32.5 -48t-71.5 -20q-39 0 -113.5 19.5t-97.5 21.5q6 -16 8.5 -30.5t-1 -35.5t-6.5 -32.5t-14 -46t-16 -52.5q-80 -266 -149 -581
l-21 -109h-50z" />
    <glyph glyph-name="daggerdbl" unicode="&#x2021;" horiz-adv-x="920" 
d="M811 902q48 0 68 -23.5t13 -55.5q-6 -29 -32 -48.5t-71 -19.5q-40 0 -114 19.5t-97 21.5q6 -16 8 -30.5t-1.5 -35t-6.5 -32.5t-14 -46t-16 -53q-69 -209 -95 -441q-2 -18 -4.5 -50t-4 -43.5t-6.5 -31.5t-14 -34.5t-24 -30.5q8 1 96 24t128 23q49 0 68 -24t11 -57
q-6 -27 -32 -46t-71 -19q-34 0 -67 7t-76 19.5t-76 19.5q0 -18 0.5 -62t0 -71.5t-3.5 -65.5t-10 -67q-11 -55 -37 -80t-51 -25q-17 0 -29.5 8.5t-22.5 36.5t4 82q5 24 13 50t20 55.5t19.5 47t22 50t18.5 40.5q-31 -4 -111.5 -26t-118.5 -22q-36 0 -62 20t-17 61
q4 21 17.5 35.5t31.5 21t32 9t27 2.5q38 0 111 -19.5t103 -20.5q-23 58 24 194q22 58 56.5 220.5t38.5 224.5q4 70 17 113t42 75q-20 -3 -105 -24.5t-122 -21.5q-19 0 -38 4.5t-36 24t-10 51.5q14 68 100 68q43 0 118.5 -23t105.5 -28q0 5 -2 53t-2 70.5t3 63t10 73.5
q8 36 20.5 61t26.5 35.5t24 14t18 3.5q32 0 48 -29.5t4 -89.5q-6 -26 -17.5 -60.5t-21.5 -59.5t-28.5 -69.5t-25.5 -61.5q33 7 80 19.5t80 19t65 6.5z" />
    <glyph glyph-name="bullet" unicode="&#x2022;" horiz-adv-x="833" 
d="M473 440q-97 0 -165.5 68.5t-68.5 165.5q0 98 69 164.5t165 66.5q94 0 162.5 -66.5t68.5 -164.5q0 -97 -67.5 -165.5t-163.5 -68.5z" />
    <glyph glyph-name="twodotenleader" unicode="&#x2025;" horiz-adv-x="1152" 
d="M226 -33q-38 0 -65 27t-27 65t27 65.5t65 27.5q37 0 64 -27.5t27 -65.5t-27 -65t-64 -27zM774 -33q-38 0 -65 27t-27 65t27 65.5t65 27.5q37 0 64 -27.5t27 -65.5t-27 -65t-64 -27z" />
    <glyph glyph-name="ellipsis" unicode="&#x2026;" horiz-adv-x="1700" 
d="M226 -33q-38 0 -65 27t-27 65t27 65.5t65 27.5q37 0 64 -27.5t27 -65.5t-27 -65t-64 -27zM774 -33q-38 0 -65 27t-27 65t27 65.5t65 27.5q37 0 64 -27.5t27 -65.5t-27 -65t-64 -27zM1323 -33q-38 0 -65.5 27t-27.5 65t27.5 65.5t65.5 27.5q37 0 63.5 -27.5t26.5 -65.5
t-26.5 -65t-63.5 -27z" />
    <glyph glyph-name="perthousand" unicode="&#x2030;" horiz-adv-x="2307" 
d="M436 675q-57 0 -97 25.5t-58.5 63.5t-25.5 87.5t-4 92t11 81.5q35 163 118.5 255.5t195.5 92.5q121 0 163.5 -100t8.5 -261q-8 -38 -22.5 -79.5t-41.5 -88.5t-60.5 -83.5t-82.5 -61t-105 -24.5zM380 0l981 1352h60l-983 -1352h-58zM438 719q43 0 81.5 21t65 52.5t48 73.5
t33.5 79.5t20 75.5q31 154 2 231t-113 77q-88 0 -154 -83t-98 -234q-10 -48 -12.5 -94t5.5 -93.5t39 -76.5t83 -29zM1199 -21q-58 0 -98 25.5t-58.5 63.5t-25.5 87t-4 91.5t11 81.5q34 162 117.5 255.5t195.5 93.5q121 0 164 -100.5t9 -261.5q-8 -38 -23 -79t-41.5 -88.5
t-60 -83.5t-82.5 -60.5t-104 -24.5zM1843 -21q-58 0 -98 25.5t-58 63.5t-25 87t-4 91.5t11 81.5q34 163 117 256t195 93q121 0 164 -100.5t9 -261.5q-11 -50 -33 -102t-58 -107.5t-93.5 -91t-126.5 -35.5zM1199 23q43 0 81 21t64.5 52.5t48.5 73.5t34.5 79.5t21.5 75.5
q31 154 1.5 231t-113.5 77q-88 0 -154 -83t-98 -234q-10 -48 -12.5 -93.5t5 -93.5t38.5 -77t83 -29zM1843 23q53 0 98 30t74.5 79t48 96.5t29.5 96.5q31 154 2 231t-113 77q-88 0 -154 -83t-99 -234q-8 -38 -11.5 -73.5t-0.5 -77t15.5 -72t40.5 -50.5t70 -20z" />
    <glyph glyph-name="guilsinglleft" unicode="&#x2039;" horiz-adv-x="503" 
d="M270 0l-193 440l379 441h55l-359 -441l170 -440h-52z" />
    <glyph glyph-name="guilsinglright" unicode="&#x203a;" horiz-adv-x="501" 
d="M3 0l359 440l-170 441h50l195 -441l-381 -440h-53z" />
    <glyph glyph-name="Euro" unicode="&#x20ac;" horiz-adv-x="1262" 
d="M597 -21q-117 0 -198 74.5t-114 203.5t-16 293l-99 -3l17 48l89 4q2 27 13 83q5 21 22 81l-97 -3l18 48l93 3q81 250 234.5 406t326.5 156q108 0 181 -64t97 -176l45 206h48l-83 -396l-48 1q19 172 -45 276t-192 104q-150 0 -285.5 -145t-209.5 -374l571 3l-19 -48
l-564 -4q-18 -68 -21 -86q-10 -42 -16 -78l542 3l-19 -48l-529 -3q-25 -232 45.5 -374t219.5 -142q129 0 244 109t166 277l44 -13q-61 -195 -188 -308.5t-273 -113.5z" />
    <glyph glyph-name="uni2113" unicode="&#x2113;" horiz-adv-x="901" 
d="M422 -21q-89 0 -122.5 90t-1.5 237l30 154q-21 -17 -118 -90t-120 -92l-26 40q25 22 137.5 106t136.5 104l90 460q42 199 129 314.5t202 115.5q89 0 116.5 -61t-1.5 -196q-57 -266 -336 -526q-54 -51 -128 -111l-44 -224q-27 -126 -8 -197t76 -71q134 0 214 273l45 -13
q-47 -159 -113.5 -236t-157.5 -77zM420 596q61 52 111 103q248 235 298 474q24 109 9 153.5t-76 44.5q-86 0 -154.5 -98t-106.5 -274z" />
    <glyph glyph-name="trademark" unicode="&#x2122;" horiz-adv-x="2320" 
d="M324 1352h729l11 -212l-31 -1l-9 126q-4 31 -18 42t-41 11h-248v-692q0 -47 47 -47h97v-31h-345v31h97q47 0 47 47v692h-250q-52 0 -57 -54l-8 -125l-32 1zM2146 1321q-46 0 -46 -49v-646q0 -47 46 -47h108v-31h-357v31h99q46 0 46 47v673h-14l-340 -751h-47l-332 751h-8
v-664q0 -56 46 -56h77v-31h-279v31h77q46 0 46 56v637q0 49 -46 49h-77v31h201l333 -749l340 749h235v-31h-108z" />
    <glyph glyph-name="uni2126" unicode="&#x2126;" horiz-adv-x="1469" 
d="M74 0l53 253h44l-27 -128q-14 -67 54 -67h343l47 211q-348 187 -263 593q56 261 218.5 407t400.5 146q241 0 342.5 -151t44.5 -415q-83 -398 -507 -580l-46 -211h337q34 0 58 20.5t31 53.5l25 121h44l-53 -253h-504l63 301q398 174 479 561q53 248 -29 377.5t-287 129.5
q-210 0 -351.5 -135.5t-194.5 -384.5q-80 -385 244 -551l-62 -298h-504z" />
    <glyph glyph-name="partialdiff" unicode="&#x2202;" horiz-adv-x="1095" 
d="M867 1465q127 0 172 -139t-4 -364q-59 -270 -188 -518q-114 -214 -239.5 -336.5t-255.5 -122.5q-145 0 -209 92.5t-31 254.5q22 99 79.5 203t135 190t178 141t198.5 55q56 0 97 -18t62.5 -50t32 -68t10.5 -79q49 130 75 261q43 193 7.5 317.5t-135.5 124.5
q-79 0 -159.5 -51.5t-150.5 -145.5l-34 29q80 107 172.5 165.5t186.5 58.5zM851 567q12 38 18 77t2.5 81t-19 74t-52 53t-91.5 21q-113 0 -228.5 -87.5t-195.5 -216t-107 -258.5q-28 -132 22 -204.5t168 -72.5q66 0 134 42.5t130 118t116.5 169t102.5 203.5z" />
    <glyph glyph-name="uni2206" unicode="&#x2206;" horiz-adv-x="1016" 
d="M35 0l609 1418h153l5 -1418h-767zM106 48h626l-3 1305h-59z" />
    <glyph glyph-name="product" unicode="&#x220f;" horiz-adv-x="1289" 
d="M-10 -241l11 45h104q30 0 51 21.5t28 55.5l302 1419q14 71 -44 71h-132l11 44h1073l-11 -44h-126q-30 0 -51 -21.5t-28 -55.5l-302 -1420q-14 -70 45 -70h109l-11 -45h-407l11 45h104q30 0 51.5 21.5t28.5 55.5l315 1486h-552l-316 -1493q-14 -70 44 -70h109l-11 -45
h-406z" />
    <glyph glyph-name="summation" unicode="&#x2211;" horiz-adv-x="1039" 
d="M-7 -244l13 67l502 761l-172 763l15 70h676l-28 -317l-44 -3l15 208q3 35 -10.5 49t-43.5 14h-514l-1 -11l173 -754l-510 -775l-7 -10h568q64 0 84 68l79 268l45 -4l-115 -394h-725z" />
    <glyph glyph-name="minus" unicode="&#x2212;" horiz-adv-x="1613" 
d="M308 646v59h1110v-59h-1110z" />
    <glyph glyph-name="radical" unicode="&#x221a;" horiz-adv-x="791" 
d="M801 1509h45l-492 -1512h-64l-18 699l-120 -76l-20 37l186 120l19 -689z" />
    <glyph glyph-name="infinity" unicode="&#x221e;" horiz-adv-x="1405" 
d="M1004 824q104 0 166.5 -66.5t62.5 -178.5q0 -108 -66 -177t-170 -69q-149 0 -259 189q-50 -88 -114.5 -144t-156.5 -56q-105 0 -167.5 67t-62.5 179q0 108 66 176.5t171 68.5q150 0 260 -189q110 200 270 200zM997 380q86 0 138 55.5t52 143.5q0 93 -48 145.5t-134 52.5
q-44 0 -81.5 -17t-67.5 -50.5t-50 -64t-43 -75.5q103 -190 234 -190zM466 369q44 0 81.5 17.5t67.5 51t50 64t43 74.5q-104 190 -234 190q-85 0 -137.5 -54.5t-52.5 -143.5q0 -93 48 -146t134 -53z" />
    <glyph glyph-name="integral" unicode="&#x222b;" horiz-adv-x="625" 
d="M56 -405q-36 0 -58.5 13t-29.5 32t-8.5 41.5t4.5 41.5q7 31 28 31q13 0 19 -10.5t3 -27.5q-6 -30 3.5 -49t46.5 -18q31 2 51.5 22.5t37.5 73.5q25 71 67 345q33 208 82 433q35 162 80 406q57 282 81 362q28 93 62 143q51 76 126 76q97 0 97 -91q-2 -30 -25 -33
q-26 -3 -24 36q-4 19 -17 27t-42 7q-50 -1 -82 -60q-8 -12 -15 -26.5t-14 -35.5l-12.5 -37.5t-12.5 -47.5t-11 -50t-12 -60t-12 -62.5t-13 -72.5t-14 -76q-56 -319 -77 -418q-48 -229 -87 -435q-52 -267 -93 -368q-22 -57 -52.5 -84.5t-76.5 -27.5z" />
    <glyph glyph-name="approxequal" unicode="&#x2248;" horiz-adv-x="1328" 
d="M249 671l-44 38q44 60 85.5 99.5t106 68t140.5 28.5q125 0 247 -65q116 -66 192 -66q87 0 173 130l44 -39q-102 -150 -217 -150q-89 0 -214 69q-109 62 -224 62q-86 0 -153 -41.5t-136 -133.5zM249 307l-44 39q68 93 144.5 144.5t187.5 51.5q130 0 247 -65
q116 -66 192 -66q87 0 173 130l44 -39q-102 -150 -217 -150q-89 0 -214 69q-109 62 -224 62q-86 0 -153 -41.5t-136 -134.5z" />
    <glyph glyph-name="notequal" unicode="&#x2260;" horiz-adv-x="1415" 
d="M1318 884h-401l-215 -416h616v-59h-646l-228 -442h-75l229 442h-390v59h420l216 416h-636v59h666l212 409h72l-211 -409h371v-59z" />
    <glyph glyph-name="lessequal" unicode="&#x2264;" horiz-adv-x="1251" 
d="M1047 356l-859 384v95l859 384v-64l-808 -358v-19l808 -358v-64zM225 0v59h822v-59h-822z" />
    <glyph glyph-name="greaterequal" unicode="&#x2265;" horiz-adv-x="1234" 
d="M224 356v64l808 358v19l-808 358v64l860 -384v-95zM224 0v59h823v-59h-823z" />
    <glyph glyph-name="uni0308.case" 
d="M-300 1538q-29 0 -48.5 21t-19.5 47q0 28 20 48t48 20t48 -20t20 -48q0 -30 -20 -49t-48 -19zM40 1538q-29 0 -48.5 21t-19.5 47q0 28 20 48t48 20t48 -20t20 -48q0 -30 -20 -49t-48 -19z" />
    <glyph glyph-name="gravecomb.case" 
d="M130 1438l-358 317v4h134l270 -321h-46z" />
    <glyph glyph-name="acutecomb.case" 
d="M-167 1438l270 321h134v-4l-358 -317h-46z" />
    <glyph glyph-name="uni0302.case" 
d="M-469 1470l316 322h140l181 -322h-39l-219 276l-338 -276h-41z" />
    <glyph glyph-name="uni030C.case" 
d="M-222 1456l-183 322h41l217 -276l338 276h42l-319 -322h-136z" />
    <glyph glyph-name="uni030A.case" 
d="M-43 1450q-73 0 -124.5 52t-51.5 126q0 75 51.5 126.5t124.5 51.5t125.5 -52t52.5 -126q0 -73 -52.5 -125.5t-125.5 -52.5zM-43 1495q56 0 95 38.5t39 94.5t-39 95t-95 39q-55 0 -93 -39t-38 -95t38 -94.5t93 -38.5z" />
    <glyph glyph-name="tildecomb.case" 
d="M-495 1436l-40 7q23 113 80 176.5t135 63.5q35 0 63 -16.5t40 -33.5t29 -46q12 -21 20.5 -32.5t22 -25t31 -19.5t40.5 -6q61 0 106 50.5t65 141.5l39 -7q-22 -113 -80 -179.5t-138 -66.5q-31 0 -54 8t-41 27t-26 30.5t-23 36.5q-12 21 -19.5 31t-20.5 23t-28.5 18
t-36.5 5q-60 0 -103.5 -50t-60.5 -136z" />
    <glyph glyph-name="uni0335.case" 
d="M-848 659l10 50h736l-11 -50h-735z" />
    <glyph glyph-name="uni0337.case" 
d="M-738 404l13 65l847 613l-13 -65z" />
    <glyph glyph-name="uni0338.case" 
d="M-972 25l-39 33l1178 1337l38 -33z" />
    </font>
</defs>
</svg>
